<?xml version="1.0" standalone="no"?>
<!DOCTYPE svg PUBLIC "-//W3C//DTD SVG 1.1//EN" "http://www.w3.org/Graphics/SVG/1.1/DTD/svg11.dtd" >
<svg>
<metadata>
Created by FontForge 20110222 at Mon Jul  6 03:48:41 2015
 By www-data
Copyright (c) 2010-2014 by tyPoland Lukasz Dziedzic with Reserved Font Name "Lato". Licensed under the SIL Open Font License, Version 1.1. 
</metadata>
<defs>
<font id="Lato-Regular" horiz-adv-x="800" >
  <font-face 
    font-family="Lato"
    font-weight="400"
    font-stretch="normal"
    units-per-em="2000"
    panose-1="2 15 5 2 2 2 4 3 2 3"
    ascent="1610"
    descent="-390"
    x-height="1013"
    cap-height="1433"
    bbox="-1093 -537 2685 2157"
    underline-thickness="194"
    underline-position="-6"
    unicode-range="U+000D-FEFF"
  />
<missing-glyph horiz-adv-x="1063" 
d="M250 1141q25 22 53.5 41t62.5 33.5t73.5 23t85.5 8.5q63 0 114.5 -17.5t88 -49.5t57 -77.5t20.5 -101.5q0 -55 -15 -95t-37.5 -69.5t-49.5 -51t-51 -40.5t-41.5 -37.5t-21.5 -41.5l-17 -105h-122l-12 117q-4 34 9 59.5t35.5 47t50 41.5t51.5 43t40 52t16 69
q0 51 -36.5 81t-93.5 30q-41 0 -69 -9t-48 -20t-34 -20t-25 -9q-25 0 -37 22zM396 292q0 47 31 79t79 32q22 0 42 -8.5t34.5 -23.5t23 -35.5t8.5 -43.5t-8.5 -43t-23 -35t-34.5 -23.5t-42 -8.5q-48 0 -79 31.5t-31 78.5zM45 1433h974v-1433h-974v1433zM95 54h867v1324h-867
v-1324z" />
    <glyph glyph-name="fi" unicode="fi" horiz-adv-x="1145" 
d="M209 0v861l-112 13q-22 5 -35 15.5t-13 30.5v73h160v56q0 93 29 170.5t87 133.5t144.5 87t200.5 31q38 0 78 -5t69 -15l-7 -93q-1 -10 -7.5 -14t-17.5 -5t-27.5 -0.5t-37.5 0.5q-178 0 -258 -73.5t-80 -221.5v-51h612v-993h-179v864h-428v-864h-178z" />
    <glyph glyph-name="fl" unicode="fl" horiz-adv-x="1179" 
d="M209 0v861l-112 13q-22 5 -35 15.5t-13 30.5v73h160v54q0 84 25.5 159.5t77.5 131.5t130 89t182 33q77 0 148.5 -6t138.5 -7h121v-1447h-177v1322q-54 2 -108.5 5t-95.5 3q-130 0 -199.5 -74.5t-69.5 -208.5v-54h263v-129h-258v-864h-178z" />
    <glyph glyph-name="_246" unicode="fb" horiz-adv-x="1828" 
d="M848 0v1348q-42 12 -88 19.5t-88 7.5q-76 0 -131 -22.5t-91 -62t-53 -94.5t-17 -120v-83h292v-129h-286v-864h-179v861l-112 13q-21 5 -34.5 15.5t-13.5 30.5v73h160v83q0 90 26 167t83 132.5t147.5 87t218.5 31.5q43 0 83 -3.5t80.5 -7t84.5 -7t97 -3.5v-607
q63 75 144 119t186 44q89 0 160.5 -34t121.5 -98.5t76.5 -156.5t26.5 -207q0 -123 -30 -224t-86.5 -172.5t-137.5 -111t-182 -39.5q-100 0 -168.5 37.5t-119.5 106.5l-9 -92q-8 -38 -46 -38h-115zM1298 887q-87 0 -152 -40t-119 -113v-490q49 -66 107.5 -93t128.5 -27
q143 0 219 101t76 301q0 186 -67.5 273.5t-192.5 87.5z" />
    <glyph glyph-name="_247" unicode="ffb" horiz-adv-x="2458" 
d="M207 0v861l-112 13q-21 5 -34.5 15.5t-13.5 30.5v73h160v83q0 87 24.5 154.5t70 114t109.5 70.5t144 24q68 0 125 -20l-4 -90q-2 -24 -26.5 -26t-65.5 -2q-46 0 -83.5 -11.5t-64.5 -38.5t-41.5 -71.5t-14.5 -109.5v-77h457v83q0 90 26 167t83 132.5t147.5 87t218.5 31.5
q41 0 79 -3t76 -7t79.5 -7t89.5 -4h21v-607q63 75 144 119t186 44q89 0 160.5 -34t121.5 -98.5t76.5 -156.5t26.5 -207q0 -123 -30 -224t-86.5 -172.5t-137.5 -111t-182 -39.5q-100 0 -168.5 37.5t-119.5 106.5l-9 -92q-8 -38 -46 -38h-115v1348q-42 12 -88 19.5t-88 7.5
q-76 0 -131 -22.5t-91 -62t-53 -94.5t-17 -120v-83h292v-129h-286v-864h-179v864h-451v-864h-179zM1928 887q-87 0 -152 -40t-119 -113v-490q49 -66 107.5 -93t128.5 -27q143 0 219 101t76 301q0 186 -67.5 273.5t-192.5 87.5z" />
    <glyph glyph-name="f_f" unicode="ff" horiz-adv-x="1331" 
d="M207 0v861l-112 13q-21 5 -34.5 15.5t-13.5 30.5v73h160v83q0 87 24.5 154.5t70 114t109.5 70.5t144 24q68 0 125 -20l-4 -90q-2 -24 -26.5 -26t-65.5 -2q-46 0 -83.5 -11.5t-64.5 -38.5t-41.5 -71.5t-14.5 -109.5v-77h457v109q0 87 24.5 154.5t70 114t109.5 70.5t144 24
q67 0 125 -20l-4 -89q-2 -24 -26.5 -26t-65.5 -2q-46 0 -83.5 -12t-64.5 -39t-41.5 -71t-14.5 -109v-104h292v-129h-286v-864h-179v864h-451v-864h-179z" />
    <glyph glyph-name="_249" unicode="fh" horiz-adv-x="1823" 
d="M848 0v1348q-42 12 -88 19.5t-88 7.5q-76 0 -131 -22.5t-91 -62t-53 -94.5t-17 -120v-83h292v-129h-286v-864h-179v861l-112 13q-21 5 -34.5 15.5t-13.5 30.5v73h160v83q0 90 26 167t83 132.5t147.5 87t218.5 31.5q43 0 83 -3.5t80.5 -7t84.5 -7t97 -3.5v-596
q65 69 144 110.5t182 41.5q83 0 146.5 -27.5t106 -78t64.5 -121.5t22 -157v-645h-179v645q0 115 -52.5 178.5t-159.5 63.5q-80 0 -148.5 -38t-125.5 -103v-746h-179z" />
    <glyph glyph-name="_250" unicode="ffh" horiz-adv-x="2453" 
d="M207 0v861l-112 13q-21 5 -34.5 15.5t-13.5 30.5v73h160v83q0 87 24.5 154.5t70 114t109.5 70.5t144 24q68 0 125 -20l-4 -90q-2 -24 -26.5 -26t-65.5 -2q-46 0 -83.5 -11.5t-64.5 -38.5t-41.5 -71.5t-14.5 -109.5v-77h457v83q0 90 26 167t83 132.5t147.5 87t218.5 31.5
q41 0 79 -3t76 -7t79.5 -7t89.5 -4h21v-596q65 69 144 110.5t182 41.5q83 0 146.5 -27.5t106 -78t64.5 -121.5t22 -157v-645h-179v645q0 115 -52.5 178.5t-159.5 63.5q-80 0 -148.5 -38t-125.5 -103v-746h-179v1348q-42 12 -88 19.5t-88 7.5q-76 0 -131 -22.5t-91 -62
t-53 -94.5t-17 -120v-83h292v-129h-286v-864h-179v864h-451v-864h-179z" />
    <glyph glyph-name="_251" unicode="f&#xec;" horiz-adv-x="1145" 
d="M697 1471q56 0 90 -18.5t51 -47.5l148 -242h-101q-21 0 -34 6.5t-27 21.5l-135 148q-159 -5 -233 -78.5t-74 -216.5v-51h612v-993h-179v864h-428v-864h-178v861l-112 13q-22 5 -35 15.5t-13 30.5v73h160v56q0 93 28 170.5t87.5 133.5t151.5 87t221 31z" />
    <glyph glyph-name="_252" unicode="f&#xee;" horiz-adv-x="1144" 
d="M209 0v861l-112 13q-22 5 -35 15.5t-13 30.5v73h160v133q0 166 75.5 251.5t212.5 85.5q46 0 79 -10v-98q0 -16 -14.5 -20t-40.5 -4q-71 0 -105 -48t-34 -156v-134h612v-993h-179v864h-428v-864h-178zM1215 1169h-119q-11 0 -22.5 4t-22.5 15l-123 132q-5 4 -8.5 9
t-8.5 10q-8 -11 -16 -19l-124 -132q-21 -19 -45 -19h-123l223 264h166z" />
    <glyph glyph-name="_253" unicode="f&#x129;" horiz-adv-x="1145" 
d="M49 0zM1013 1325q36 0 55.5 21t20.5 65h108q0 -47 -12.5 -86.5t-36 -67.5t-56 -43.5t-72.5 -15.5q-35 0 -65.5 14.5t-57.5 31.5t-51 31.5t-47 14.5q-72 0 -74 -88h-111q0 48 13 87.5t37 68t57 44t72 15.5q35 0 65.5 -14.5t57.5 -31.5t50.5 -31.5t46.5 -14.5zM209 0v861
l-112 13q-22 5 -35 15.5t-13 30.5v73h160v133q0 166 75.5 251.5t212.5 85.5q46 0 79 -10v-98q0 -16 -14.5 -20t-40.5 -4q-71 0 -105 -48t-34 -156v-134h612v-993h-179v864h-428v-864h-178z" />
    <glyph glyph-name="_254" unicode="f&#xef;" horiz-adv-x="1144" 
d="M851 1289q0 -23 -9 -43t-25 -35t-36.5 -24t-43.5 -9t-43 9t-35 24t-24 35t-9 43t9 44t24 36.5t35 24.5t43 9t43.5 -9t36.5 -24.5t25 -36.5t9 -44zM1181 1289q0 -23 -9 -43t-24.5 -35t-36 -24t-43.5 -9t-43.5 9t-35.5 24t-24 35t-9 43t9 44t24 36.5t35.5 24.5t43.5 9
t43.5 -9t36 -24.5t24.5 -36.5t9 -44zM209 0v861l-112 13q-22 5 -35 15.5t-13 30.5v73h160v133q0 166 75.5 251.5t212.5 85.5q46 0 79 -10v-98q0 -16 -14.5 -20t-40.5 -4q-71 0 -105 -48t-34 -156v-134h612v-993h-179v864h-428v-864h-178z" />
    <glyph glyph-name="_255" unicode="f&#x12b;" horiz-adv-x="1145" 
d="M49 0zM616 1348h574v-117h-574v117zM209 0v861l-112 13q-22 5 -35 15.5t-13 30.5v73h160v133q0 166 75.5 251.5t212.5 85.5q46 0 79 -10v-98q0 -16 -14.5 -20t-40.5 -4q-71 0 -105 -48t-34 -156v-134h612v-993h-179v864h-428v-864h-178z" />
    <glyph glyph-name="_256" unicode="f&#x12d;" horiz-adv-x="1144" 
d="M49 0zM903 1164q-77 0 -129 21.5t-84.5 58t-46.5 85.5t-14 104h126q0 -33 7 -61.5t24 -48.5t45.5 -31.5t71.5 -11.5t71.5 11.5t45.5 31.5t24 48.5t7 61.5h126q0 -55 -14 -104t-46.5 -85.5t-85 -58t-128.5 -21.5zM209 0v861l-112 13q-22 5 -35 15.5t-13 30.5v73h160v133
q0 166 75.5 251.5t212.5 85.5q46 0 79 -10v-98q0 -16 -14.5 -20t-40.5 -4q-71 0 -105 -48t-34 -156v-134h612v-993h-179v864h-428v-864h-178z" />
    <glyph glyph-name="_257" unicode="f&#x12f;" horiz-adv-x="1144" 
d="M209 0v861l-112 13q-22 5 -35 15.5t-13 30.5v73h160v56q0 93 29 170.5t87 133.5t144.5 87t200.5 31q38 0 78 -5t69 -15l-7 -93q-1 -10 -7.5 -14t-17.5 -5t-27.5 -0.5t-37.5 0.5q-178 0 -258 -73.5t-80 -221.5v-51h612v-993h-20q-20 -11 -41 -26.5t-38 -35t-28 -43
t-11 -49.5q0 -38 24.5 -59.5t66.5 -21.5q23 0 38 3.5t25 8t16.5 8.5t11.5 4q7 0 11.5 -4t6.5 -9l28 -66q-30 -23 -76.5 -37.5t-97.5 -14.5q-88 0 -138.5 39.5t-50.5 105.5q0 58 39.5 108.5t99.5 88.5h-45v864h-428v-864h-178z" />
    <glyph glyph-name="_258" unicode="f&#x131;" horiz-adv-x="1145" 
d="M209 0v861l-112 13q-22 5 -35 15.5t-13 30.5v73h160v133q0 166 75.5 251.5t212.5 85.5q46 0 79 -10v-98q0 -16 -14.5 -20t-40.5 -4q-71 0 -105 -48t-34 -156v-134h612v-993h-179v864h-428v-864h-178z" />
    <glyph glyph-name="f_f_i" unicode="ffi" horiz-adv-x="1775" 
d="M209 0v861l-112 13q-22 5 -35 15.5t-13 30.5v73h160v83q0 87 24.5 154.5t69.5 114t109 70.5t144 24q68 0 126 -20l-5 -90q-2 -24 -26 -26t-66 -2q-46 0 -83.5 -11.5t-64 -38.5t-41 -71.5t-14.5 -109.5v-77h457v56q0 93 29 170.5t87 133.5t144.5 87t200.5 31q38 0 78 -5
t69 -15l-7 -93q-1 -10 -7.5 -14t-17.5 -5t-27.5 -0.5t-37.5 0.5q-178 0 -258 -73.5t-80 -221.5v-51h612v-993h-179v864h-428v-864h-178v864h-452v-864h-178z" />
    <glyph glyph-name="_260" unicode="ff&#xec;" horiz-adv-x="1773" 
d="M209 0v861l-114 13q-22 5 -35 15.5t-13 30.5v73h162v83q0 87 24.5 154.5t69.5 114t109 70.5t144 24q68 0 126 -20l-5 -90q-2 -24 -26 -26t-66 -2q-46 0 -83.5 -11.5t-64 -38.5t-41 -71.5t-14.5 -109.5v-77h455v109q0 174 109 268.5t341 94.5q72 0 116 -10.5t58 -33.5
l157 -258h-101q-21 0 -34 6.5t-27 21.5l-136 150q-9 0 -18 0.5t-18 0.5q-69 0 -120 -13t-85.5 -42t-51.5 -76t-17 -114v-104h612v-993h-179v864h-427v-864h-179v864h-450v-864h-178z" />
    <glyph glyph-name="_261" unicode="ff&#xee;" horiz-adv-x="1774" 
d="M49 0zM209 0v861l-112 13q-22 5 -35 15.5t-13 30.5v73h160v83q0 87 24.5 154.5t69.5 114t109 70.5t144 24q68 0 126 -20l-5 -90q-2 -24 -26 -26t-66 -2q-46 0 -83.5 -11.5t-64 -38.5t-41 -71.5t-14.5 -109.5v-77h457v133q0 166 75.5 251.5t212.5 85.5q46 0 79 -10v-98
q0 -16 -14.5 -20t-40.5 -4q-71 0 -105 -48t-34 -156v-134h612v-993h-179v864h-428v-864h-178v864h-452v-864h-178zM1844 1169h-119q-11 0 -22.5 4t-22.5 15l-123 132q-5 4 -8.5 9t-8.5 10q-8 -11 -16 -19l-124 -132q-21 -19 -45 -19h-123l223 264h166z" />
    <glyph glyph-name="_262" unicode="ff&#x129;" horiz-adv-x="1775" 
d="M49 0zM209 0v861l-112 13q-22 5 -35 15.5t-13 30.5v73h160v83q0 87 24.5 154.5t69.5 114t109 70.5t144 24q68 0 126 -20l-5 -90q-2 -24 -26 -26t-66 -2q-46 0 -83.5 -11.5t-64 -38.5t-41 -71.5t-14.5 -109.5v-77h457v133q0 166 75.5 251.5t212.5 85.5q46 0 79 -10v-98
q0 -16 -14.5 -20t-40.5 -4q-71 0 -105 -48t-34 -156v-134h612v-993h-179v864h-428v-864h-178v864h-452v-864h-178zM1645 1325q36 0 55.5 21t20.5 65h108q0 -47 -12.5 -86.5t-36 -67.5t-56 -43.5t-72.5 -15.5q-35 0 -65.5 14.5t-57.5 31.5t-51 31.5t-47 14.5q-72 0 -74 -88
h-111q0 48 13 87.5t37 68t57 44t72 15.5q35 0 65.5 -14.5t57.5 -31.5t50.5 -31.5t46.5 -14.5z" />
    <glyph glyph-name="_263" unicode="ff&#xef;" horiz-adv-x="1774" 
d="M1476 1289q0 -23 -9 -43t-24.5 -35t-36.5 -24t-44 -9q-22 0 -42 9t-35.5 24t-24.5 35t-9 43t9 44t24.5 36.5t35.5 24.5t42 9q23 0 44 -9t36.5 -24.5t24.5 -36.5t9 -44zM1806 1289q0 -23 -9 -43t-24.5 -35t-36 -24t-43.5 -9t-43.5 9t-35.5 24t-24 35t-9 43t9 44t24 36.5
t35.5 24.5t43.5 9t43.5 -9t36 -24.5t24.5 -36.5t9 -44zM209 0v861l-112 13q-22 5 -35 15.5t-13 30.5v73h160v83q0 87 24.5 154.5t69.5 114t109 70.5t144 24q68 0 126 -20l-5 -90q-2 -24 -26 -26t-66 -2q-46 0 -83.5 -11.5t-64 -38.5t-41 -71.5t-14.5 -109.5v-77h457v133
q0 166 75.5 251.5t212.5 85.5q46 0 79 -10v-98q0 -16 -14.5 -20t-40.5 -4q-71 0 -105 -48t-34 -156v-134h612v-993h-179v864h-428v-864h-178v864h-452v-864h-178z" />
    <glyph glyph-name="_264" unicode="ff&#x12b;" horiz-adv-x="1775" 
d="M49 0zM209 0v861l-112 13q-22 5 -35 15.5t-13 30.5v73h160v83q0 87 24.5 154.5t69.5 114t109 70.5t144 24q68 0 126 -20l-5 -90q-2 -24 -26 -26t-66 -2q-46 0 -83.5 -11.5t-64 -38.5t-41 -71.5t-14.5 -109.5v-77h457v133q0 166 75.5 251.5t212.5 85.5q46 0 79 -10v-98
q0 -16 -14.5 -20t-40.5 -4q-71 0 -105 -48t-34 -156v-134h612v-993h-179v864h-428v-864h-178v864h-452v-864h-178zM1251 1348h574v-117h-574v117z" />
    <glyph glyph-name="_265" unicode="ff&#x12d;" horiz-adv-x="1774" 
d="M49 0zM209 0v861l-112 13q-22 5 -35 15.5t-13 30.5v73h160v83q0 87 24.5 154.5t69.5 114t109 70.5t144 24q68 0 126 -20l-5 -90q-2 -24 -26 -26t-66 -2q-46 0 -83.5 -11.5t-64 -38.5t-41 -71.5t-14.5 -109.5v-77h457v133q0 166 75.5 251.5t212.5 85.5q46 0 79 -10v-98
q0 -16 -14.5 -20t-40.5 -4q-71 0 -105 -48t-34 -156v-134h612v-993h-179v864h-428v-864h-178v864h-452v-864h-178zM1538 1164q-77 0 -129 21.5t-84.5 58t-46.5 85.5t-14 104h126q0 -33 7 -61.5t24 -48.5t45.5 -31.5t71.5 -11.5t71.5 11.5t45.5 31.5t24 48.5t7 61.5h126
q0 -55 -14 -104t-46.5 -85.5t-85 -58t-128.5 -21.5z" />
    <glyph glyph-name="_266" unicode="ff&#x12f;" horiz-adv-x="1774" 
d="M209 0v861l-112 13q-22 5 -35 15.5t-13 30.5v73h160v83q0 87 24.5 154.5t69.5 114t109 70.5t144 24q68 0 126 -20l-5 -90q-2 -24 -26 -26t-66 -2q-46 0 -83.5 -11.5t-64 -38.5t-41 -71.5t-14.5 -109.5v-77h457v56q0 93 29 170.5t87 133.5t144.5 87t200.5 31q38 0 78 -5
t69 -15l-7 -93q-1 -10 -7.5 -14t-17.5 -5t-27.5 -0.5t-37.5 0.5q-178 0 -258 -73.5t-80 -221.5v-51h612v-993h-17q-20 -11 -41 -26.5t-38 -35t-28 -43t-11 -49.5q0 -38 24.5 -59.5t66.5 -21.5q23 0 38 3.5t25 8t16.5 8.5t11.5 4q7 0 11.5 -4t6.5 -9l28 -66
q-30 -23 -76.5 -37.5t-97.5 -14.5q-88 0 -138.5 39.5t-50.5 105.5q0 58 39.5 108.5t99.5 88.5h-48v864h-428v-864h-178v864h-452v-864h-178z" />
    <glyph glyph-name="_267" unicode="ff&#x131;" horiz-adv-x="1775" 
d="M209 0v861l-112 13q-22 5 -35 15.5t-13 30.5v73h160v83q0 87 24.5 154.5t69.5 114t109 70.5t144 24q68 0 126 -20l-5 -90q-2 -24 -26 -26t-66 -2q-46 0 -83.5 -11.5t-64 -38.5t-41 -71.5t-14.5 -109.5v-77h457v133q0 166 75.5 251.5t212.5 85.5q46 0 79 -10v-98
q0 -16 -14.5 -20t-40.5 -4q-71 0 -105 -48t-34 -156v-134h612v-993h-179v864h-428v-864h-178v864h-452v-864h-178z" />
    <glyph glyph-name="_268" unicode="fj" horiz-adv-x="1145" 
d="M209 0v861l-112 13q-22 5 -35 15.5t-13 30.5v73h160v56q0 93 29 170.5t87 133.5t144.5 87t200.5 31q38 0 78 -5t69 -15l-7 -93q-1 -10 -7.5 -14t-17.5 -5t-27.5 -0.5t-37.5 0.5q-178 0 -258 -73.5t-80 -221.5v-51h612v-1068q0 -61 -16.5 -113.5t-51 -91.5t-89 -61.5
t-130.5 -22.5q-33 0 -59.5 5t-53.5 15l7 96q2 9 6.5 13.5t12 5.5t20 0.5t31.5 -0.5q78 0 111 36.5t33 117.5v939h-428v-864h-178z" />
    <glyph glyph-name="_269" unicode="ffj" horiz-adv-x="1775" 
d="M209 0v861l-112 13q-22 5 -35 15.5t-13 30.5v73h160v83q0 87 24.5 154.5t69.5 114t109 70.5t144 24q68 0 126 -20l-5 -90q-2 -24 -26 -26t-66 -2q-46 0 -83.5 -11.5t-64 -38.5t-41 -71.5t-14.5 -109.5v-77h457v56q0 93 29 170.5t87 133.5t144.5 87t200.5 31q38 0 78 -5
t69 -15l-7 -93q-1 -10 -7.5 -14t-17.5 -5t-27.5 -0.5t-37.5 0.5q-178 0 -258 -73.5t-80 -221.5v-51h612v-1068q0 -61 -16.5 -113.5t-51 -91.5t-89 -61.5t-130.5 -22.5q-33 0 -59.5 5t-53.5 15l7 96q2 9 6.5 13.5t12 5.5t20 0.5t31.5 -0.5q78 0 111 36.5t33 117.5v939h-428
v-864h-178v864h-452v-864h-178z" />
    <glyph glyph-name="_270" unicode="fk" horiz-adv-x="1723" 
d="M207 0v861l-112 13q-21 5 -34.5 15.5t-13.5 30.5v73h160v83q0 90 26 167t83 132.5t147.5 87t218.5 31.5q41 0 79 -3t76 -7t79.5 -7t89.5 -4h21v-867h46q20 0 33.5 5.5t28.5 22.5l320 343q14 17 29.5 26.5t41.5 9.5h161l-373 -397q-27 -34 -58 -53q18 -12 32.5 -27.5
t27.5 -35.5l396 -500h-159q-23 0 -39.5 7.5t-28.5 27.5l-333 415q-15 21 -29.5 27.5t-44.5 6.5h-51v-484h-179v1348q-42 12 -88 19.5t-88 7.5q-76 0 -131 -22.5t-91 -62t-53 -94.5t-17 -120v-83h292v-129h-286v-864h-179z" />
    <glyph glyph-name="_271" unicode="ffk" horiz-adv-x="2354" 
d="M209 0v861l-112 13q-22 5 -35 15.5t-13 30.5v73h160v83q0 87 24.5 154.5t69.5 114t109 70.5t144 24q68 0 126 -20l-5 -90q-2 -24 -26 -26t-66 -2q-46 0 -83.5 -11.5t-64 -38.5t-41 -71.5t-14.5 -109.5v-77h457v83q0 90 26 167t83 132.5t147 87t218 31.5q44 0 83.5 -3.5
t80 -7t84.5 -7t97 -3.5v-867h46q20 0 33.5 5.5t28.5 22.5l320 343q14 17 29.5 26.5t41.5 9.5h161l-373 -397q-27 -34 -58 -53q18 -12 32.5 -27.5t27.5 -35.5l396 -500h-159q-23 0 -39.5 7.5t-28.5 27.5l-333 415q-15 21 -29.5 27.5t-44.5 6.5h-51v-484h-179v1348
q-42 12 -88 19.5t-88 7.5q-76 0 -131 -22.5t-90.5 -62t-52.5 -94.5t-17 -120v-83h292v-129h-287v-864h-178v864h-452v-864h-178z" />
    <glyph glyph-name="f_f_l" unicode="ffl" horiz-adv-x="1808" 
d="M207 0v861l-112 13q-21 5 -34.5 15.5t-13.5 30.5v73h160v83q0 87 24.5 154.5t70 114t109.5 70.5t144 24q68 0 125 -20l-4 -90q-2 -24 -26.5 -26t-65.5 -2q-46 0 -83.5 -11.5t-64.5 -38.5t-41.5 -71.5t-14.5 -109.5v-77h457v54q0 84 26 159.5t78 131.5t130 89t182 33
q76 0 147.5 -6t138.5 -7h122v-1447h-178v1322q-54 2 -108.5 5t-94.5 3q-130 0 -200 -74.5t-70 -208.5v-54h292v-129h-286v-864h-179v864h-451v-864h-179z" />
    <glyph glyph-name="_273" unicode="ft" horiz-adv-x="1369" 
d="M1033 864v-608q0 -64 31 -95t79 -31q29 0 49.5 7.5t35.5 16.5t25 16.5t18 7.5q9 0 14.5 -4t11.5 -13l52 -85q-46 -43 -111 -67.5t-135 -24.5q-119 0 -183.5 67t-64.5 193v620h-469v-864h-179v861l-112 13q-21 5 -34.5 15.5t-13.5 30.5v73h160v98q0 87 24.5 154.5t70 114
t109.5 70.5t144 24q68 0 125 -20l-4 -89q-2 -24 -26.5 -26t-65.5 -2q-46 0 -83.5 -12t-64.5 -39t-41.5 -71t-14.5 -109v-93h481l40 315q4 15 14.5 24.5t27.5 9.5h90v-349h292v-129h-292z" />
    <glyph glyph-name="_274" unicode="fft" horiz-adv-x="2000" 
d="M209 0v861l-112 13q-22 5 -35 15.5t-13 30.5v73h160v83q0 87 24.5 154.5t69.5 114t109 70.5t144 24q68 0 126 -20l-5 -90q-2 -24 -26 -26t-66 -2q-46 0 -83.5 -11.5t-64 -38.5t-41 -71.5t-14.5 -109.5v-77h457v98q0 87 24.5 154.5t69.5 114t109 70.5t144 24q68 0 126 -20
l-5 -89q-2 -24 -26 -26t-66 -2q-46 0 -83.5 -12t-64 -39t-41 -71t-14.5 -109v-93h480l41 315q3 15 13.5 24.5t27.5 9.5h90v-349h293v-129h-293v-608q0 -64 31 -95t80 -31q28 0 48.5 7.5t35.5 16.5t25.5 16.5t18.5 7.5q15 0 25 -17l53 -85q-47 -43 -112 -67.5t-134 -24.5
q-120 0 -184.5 67t-64.5 193v620h-469v-864h-178v864h-452v-864h-178z" />
    <glyph glyph-name="_292" unicode="tf" horiz-adv-x="1375" 
d="M880 0v864h-499v-608q0 -64 31 -95t80 -31q28 0 48.5 7.5t35.5 16.5t25.5 16.5t18.5 7.5q14 0 25 -17l52 -85q-46 -43 -111 -67.5t-134 -24.5q-120 0 -184.5 67t-64.5 193v620h-122q-16 0 -27 9.5t-11 29.5v71l166 21l41 313q3 15 13.5 24.5t27.5 9.5h90v-349h499v98
q0 87 24.5 154.5t69.5 114t109.5 70.5t144.5 24q67 0 125 -20l-4 -89q-2 -24 -26.5 -26t-65.5 -2q-46 0 -83.5 -12t-64.5 -39t-41.5 -71t-14.5 -109v-93h292v-129h-286v-864h-179z" />
    <glyph glyph-name="_293" unicode="t&#x12f;" horiz-adv-x="1231" 
d="M1129 -211q8 0 12.5 -4t6.5 -9l28 -66q-31 -23 -77 -37.5t-97 -14.5q-89 0 -139 39.5t-50 105.5q0 58 39 108.5t99 88.5h-49v864h-522v-608q0 -64 31.5 -95t79.5 -31q28 0 48.5 7.5t35.5 16.5t25.5 16.5t18.5 7.5q15 0 25 -17l53 -85q-47 -43 -112 -67.5t-134 -24.5
q-119 0 -184 67t-65 193v620h-122q-16 0 -27 9.5t-11 29.5v71l166 21l41 313q3 15 13.5 24.5t27.5 9.5h90v-349h700v-993h-15q-20 -11 -41 -26.5t-38 -35t-28 -43t-11 -49.5q0 -38 25 -59.5t66 -21.5q23 0 38 3.5t25 8t16.5 8.5t11.5 4zM1118 1331q0 -26 -10.5 -48.5
t-28 -40t-41 -27.5t-49.5 -10q-25 0 -47.5 10t-40 27.5t-27.5 40t-10 48.5t10 49.5t27.5 41t40 27.5t47.5 10q26 0 49.5 -10t41 -27.5t28 -41t10.5 -49.5z" />
    <glyph glyph-name="_294" unicode="t&#x131;" horiz-adv-x="1232" 
d="M452 -16q-120 0 -184.5 67t-64.5 193v620h-122q-16 0 -27 9.5t-11 29.5v71l166 21l41 313q3 15 13.5 24.5t27.5 9.5h90v-349h700v-993h-178v864h-522v-608q0 -64 31 -95t80 -31q28 0 48.5 7.5t35.5 16.5t25.5 16.5t18.5 7.5q14 0 25 -17l52 -85q-46 -43 -111 -67.5
t-134 -24.5z" />
    <glyph glyph-name="_295" unicode="tt" horiz-adv-x="1366" 
d="M452 -16q-120 0 -184.5 67t-64.5 193v620h-122q-16 0 -27 9.5t-11 29.5v71l166 21l41 313q3 15 13.5 24.5t27.5 9.5h90v-349h477l41 315q3 15 13.5 24.5t27.5 9.5h90v-349h293v-129h-293v-608q0 -64 31.5 -95t79.5 -31q28 0 48.5 7.5t35.5 16.5t25.5 16.5t18.5 7.5
q15 0 25 -17l53 -85q-47 -43 -112 -67.5t-134 -24.5q-119 0 -184 67t-65 193v620h-471v-608q0 -64 31 -95t80 -31q28 0 48.5 7.5t35.5 16.5t25.5 16.5t18.5 7.5q14 0 25 -17l52 -85q-46 -43 -111 -67.5t-134 -24.5z" />
    <glyph glyph-name="_296" unicode="ttf" horiz-adv-x="2024" 
d="M1529 0v864h-499v-608q0 -64 31.5 -95t79.5 -31q28 0 48.5 7.5t35.5 16.5t25.5 16.5t18.5 7.5q15 0 25 -17l53 -85q-47 -43 -112 -67.5t-134 -24.5q-119 0 -184 67t-65 193v620h-471v-608q0 -64 31 -95t80 -31q28 0 48.5 7.5t35.5 16.5t25.5 16.5t18.5 7.5q14 0 25 -17
l52 -85q-46 -43 -111 -67.5t-134 -24.5q-120 0 -184.5 67t-64.5 193v620h-122q-16 0 -27 9.5t-11 29.5v71l166 21l41 313q3 15 13.5 24.5t27.5 9.5h90v-349h477l41 315q3 15 13.5 24.5t27.5 9.5h90v-349h499v98q0 87 24.5 154.5t70 114t109.5 70.5t144 24q68 0 125 -20
l-4 -89q-2 -24 -26.5 -26t-65.5 -2q-46 0 -83.5 -12t-64.5 -39t-41.5 -71t-14.5 -109v-93h292v-129h-286v-864h-179z" />
    <glyph glyph-name="_297" unicode="tt&#x12f;" horiz-adv-x="1860" 
d="M1760 -211q7 0 11.5 -4t6.5 -9l28 -66q-30 -23 -76.5 -37.5t-97.5 -14.5q-88 0 -138.5 39.5t-50.5 105.5q0 58 39.5 108.5t99.5 88.5h-51v864h-501v-608q0 -64 31 -95t79 -31q28 0 49 7.5t36 16.5t25 16.5t18 7.5q9 0 14.5 -4t10.5 -13l53 -85q-47 -43 -112 -67.5
t-134 -24.5q-119 0 -184 67t-65 193v620h-471v-608q0 -64 31.5 -95t79.5 -31q28 0 48.5 7.5t35.5 16.5t25.5 16.5t18.5 7.5q15 0 25 -17l53 -85q-47 -43 -112 -67.5t-134 -24.5q-119 0 -184 67t-65 193v620h-122q-16 0 -27 9.5t-11 29.5v71l166 21l41 313q3 15 13.5 24.5
t27.5 9.5h90v-349h477l41 315q3 15 13.5 24.5t27.5 9.5h91v-349h680v-993h-14q-20 -11 -41 -26.5t-38 -35t-28 -43t-11 -49.5q0 -38 24.5 -59.5t66.5 -21.5q23 0 38 3.5t25 8t16.5 8.5t11.5 4zM1747 1331q0 -26 -10.5 -48.5t-28 -40t-40.5 -27.5t-49 -10t-48.5 10
t-39.5 27.5t-27 40t-10 48.5t10 49.5t27 41t39.5 27.5t48.5 10t49 -10t40.5 -27.5t28 -41t10.5 -49.5z" />
    <glyph glyph-name="_298" unicode="tt&#x131;" horiz-adv-x="1862" 
d="M1710 993v-993h-178v864h-502v-608q0 -64 31.5 -95t79.5 -31q28 0 48.5 7.5t35.5 16.5t25.5 16.5t18.5 7.5q15 0 25 -17l53 -85q-47 -43 -112 -67.5t-134 -24.5q-119 0 -184 67t-65 193v620h-471v-608q0 -64 31 -95t80 -31q28 0 48.5 7.5t35.5 16.5t25.5 16.5t18.5 7.5
q14 0 25 -17l52 -85q-46 -43 -111 -67.5t-134 -24.5q-120 0 -184.5 67t-64.5 193v620h-122q-16 0 -27 9.5t-11 29.5v71l166 21l41 313q3 15 13.5 24.5t27.5 9.5h90v-349h477l41 315q3 15 13.5 24.5t27.5 9.5h90v-349h680z" />
    <glyph glyph-name="_735" unicode="f&#x1d0;" horiz-adv-x="1144" 
d="M209 0v861l-112 13q-22 5 -35 15.5t-13 30.5v73h160v133q0 166 75.5 251.5t212.5 85.5q46 0 79 -10v-98q0 -16 -14.5 -20t-40.5 -4q-71 0 -105 -48t-34 -156v-134h612v-993h-179v864h-428v-864h-178zM991 1169h-165l-207 264h123q12 0 23.5 -4t16.5 -11l112 -136
q9 -14 17 -31q8 17 17 31l112 136q5 7 16.5 11t22.5 4h120z" />
    <glyph glyph-name="_736" unicode="f&#x209;" horiz-adv-x="1144" 
d="M529 1463q31 0 53.5 -2.5t40 -9.5t30.5 -18t25 -28l180 -242h-86q-20 0 -33.5 6.5t-27.5 21.5l-129 139q-56 -2 -94 -13t-61.5 -35t-34 -62t-10.5 -93v-134h612v-993h-179v864h-428v-864h-178v861l-112 13q-22 5 -35 15.5t-13 30.5v73h160v133q0 83 23.5 146t65.5 105.5
t101 64t130 21.5zM900 1449q33 0 50 -10.5t29 -33.5l138 -242h-74q-21 0 -35.5 6t-26.5 22l-199 258h118z" />
    <glyph glyph-name="_737" unicode="f&#x20b;" horiz-adv-x="1144" 
d="M209 0v861l-112 13q-22 5 -35 15.5t-13 30.5v73h160v133q0 166 75.5 251.5t212.5 85.5q46 0 79 -10v-98q0 -16 -14.5 -20t-40.5 -4q-71 0 -105 -48t-34 -156v-134h612v-993h-179v864h-428v-864h-178zM909 1443q76 0 128.5 -21.5t85 -58.5t46.5 -85.5t14 -103.5h-126
q0 33 -7 61.5t-24 48.5t-45.5 31.5t-71.5 11.5t-71.5 -11.5t-45.5 -31.5t-24 -48.5t-7 -61.5h-125q0 55 14 103.5t46 85.5t84 58.5t129 21.5z" />
    <glyph glyph-name="_738" unicode="f&#x1e2f;" horiz-adv-x="1144" 
d="M847 1207q0 -21 -8.5 -39t-22.5 -31.5t-33 -21.5t-40 -8q-20 0 -38.5 8t-32.5 21.5t-22 31.5t-8 39t8 40.5t22 33.5t32.5 22.5t38.5 8.5q21 0 40 -8.5t33 -22.5t22.5 -33.5t8.5 -40.5zM1176 1207q0 -21 -8.5 -39t-22.5 -31.5t-32.5 -21.5t-39.5 -8t-39.5 8t-33 21.5
t-22.5 31.5t-8 39t8 40.5t22.5 33.5t33 22.5t39.5 8.5t39.5 -8.5t32.5 -22.5t22.5 -33.5t8.5 -40.5zM1219 1591l-218 -222q-15 -14 -32 -21t-40 -7h-96l133 206q14 23 30 33.5t49 10.5h174zM209 0v861l-112 13q-22 5 -35 15.5t-13 30.5v73h160v133q0 166 75.5 251.5
t212.5 85.5q46 0 79 -10v-98q0 -16 -14.5 -20t-40.5 -4q-71 0 -105 -48t-34 -156v-134h612v-993h-179v864h-428v-864h-178z" />
    <glyph glyph-name="_740" unicode="ff&#x1d0;" horiz-adv-x="1774" 
d="M1445 0v864h-428v-864h-178v864h-452v-864h-178v861l-112 13q-22 5 -35 15.5t-13 30.5v73h160v83q0 87 24.5 154.5t69.5 114t109 70.5t144 24q68 0 126 -20l-5 -90q-2 -24 -26 -26t-66 -2q-46 0 -83.5 -11.5t-64 -38.5t-41 -71.5t-14.5 -109.5v-77h457v133
q0 166 75.5 251.5t212.5 85.5q46 0 79 -10v-98q0 -16 -14.5 -20t-40.5 -4q-71 0 -105 -48t-34 -156v-134h612v-993h-179zM1244 1433h124q11 0 22.5 -4t16.5 -11l112 -136q9 -14 17 -31q8 17 17 31l112 136q5 7 17 11t23 4h119l-208 -264h-165z" />
    <glyph glyph-name="_741" unicode="ff&#x209;" horiz-adv-x="1774" 
d="M209 0v861l-112 13q-22 5 -35 15.5t-13 30.5v73h160v83q0 87 24.5 154.5t69.5 114t109 70.5t144 24q68 0 126 -20l-5 -90q-2 -24 -26 -26t-66 -2q-46 0 -83.5 -11.5t-64 -38.5t-41 -71.5t-14.5 -109.5v-77h457v133q0 166 84 251.5t245 85.5q31 0 53.5 -2.5t39.5 -9.5
t30 -18t25 -28l180 -242h-86q-20 0 -33.5 7t-27.5 21l-129 139q-56 -2 -95 -13t-64.5 -35t-37 -62t-11.5 -93v-134h612v-993h-179v864h-428v-864h-178v864h-452v-864h-178zM1539 1449q33 0 50 -10.5t29 -33.5l138 -242h-74q-21 0 -35.5 6t-26.5 22l-199 258h118z" />
    <glyph glyph-name="_742" unicode="ff&#x20b;" horiz-adv-x="1774" 
d="M1445 0v864h-428v-864h-178v864h-452v-864h-178v861l-112 13q-22 5 -35 15.5t-13 30.5v73h160v83q0 87 24.5 154.5t69.5 114t109 70.5t144 24q68 0 126 -20l-5 -90q-2 -24 -26 -26t-66 -2q-46 0 -83.5 -11.5t-64 -38.5t-41 -71.5t-14.5 -109.5v-77h457v133
q0 166 75.5 251.5t212.5 85.5q46 0 79 -10v-98q0 -16 -14.5 -20t-40.5 -4q-71 0 -105 -48t-34 -156v-134h612v-993h-179zM1530 1443q76 0 128.5 -21.5t85 -58.5t46.5 -85.5t14 -103.5h-126q0 33 -7 61.5t-24 48.5t-45.5 31.5t-71.5 11.5t-71.5 -11.5t-45.5 -31.5t-24 -48.5
t-7 -61.5h-126q0 55 14 103.5t46.5 85.5t84.5 58.5t129 21.5z" />
    <glyph glyph-name="_743" unicode="ff&#x1e2f;" horiz-adv-x="1774" 
d="M1445 0v864h-428v-864h-178v864h-452v-864h-178v861l-112 13q-22 5 -35 15.5t-13 30.5v73h160v83q0 87 24.5 154.5t69.5 114t109 70.5t144 24q68 0 126 -20l-5 -90q-2 -24 -26 -26t-66 -2q-46 0 -83.5 -11.5t-64 -38.5t-41 -71.5t-14.5 -109.5v-77h457v133
q0 166 75.5 251.5t212.5 85.5q46 0 79 -10v-98q0 -16 -14.5 -20t-40.5 -4q-71 0 -105 -48t-34 -156v-134h612v-993h-179zM1849 1591l-218 -222q-15 -14 -32 -21t-40 -7h-96l133 206q14 23 30 33.5t49 10.5h174zM1806 1207q0 -21 -8.5 -39t-22.5 -31.5t-32.5 -21.5t-39.5 -8
t-39.5 8t-33 21.5t-22.5 31.5t-8 39t8 40.5t22.5 33.5t33 22.5t39.5 8.5t39.5 -8.5t32.5 -22.5t22.5 -33.5t8.5 -40.5zM1477 1207q0 -21 -8.5 -39t-22.5 -31.5t-33 -21.5t-40 -8q-20 0 -38.5 8t-32.5 21.5t-22 31.5t-8 39t8 40.5t22 33.5t32.5 22.5t38.5 8.5q21 0 40 -8.5
t33 -22.5t22.5 -33.5t8.5 -40.5z" />
    <glyph glyph-name="_1525" unicode="f&#x237;" horiz-adv-x="1145" 
d="M209 0v861l-112 13q-22 5 -35 15.5t-13 30.5v73h160v133q0 166 75.5 251.5t212.5 85.5q46 0 79 -10v-98q0 -16 -14.5 -20t-40.5 -4q-71 0 -105 -48t-34 -156v-134h612v-1068q0 -61 -16.5 -113.5t-51 -91.5t-89 -61.5t-130.5 -22.5q-33 0 -59.5 5t-53.5 15l7 96
q2 9 6.5 13.5t12 5.5t20 0.5t31.5 -0.5q78 0 111 36.5t33 117.5v939h-428v-864h-178z" />
    <glyph glyph-name="_1526" unicode="ff&#x237;" horiz-adv-x="1775" 
d="M209 0v861l-112 13q-22 5 -35 15.5t-13 30.5v73h160v83q0 87 24.5 154.5t69.5 114t109 70.5t144 24q68 0 126 -20l-5 -90q-2 -24 -26 -26t-66 -2q-46 0 -83.5 -11.5t-64 -38.5t-41 -71.5t-14.5 -109.5v-77h457v133q0 166 75.5 251.5t212.5 85.5q46 0 79 -10v-98
q0 -16 -14.5 -20t-40.5 -4q-71 0 -105 -48t-34 -156v-134h612v-1068q0 -61 -16.5 -113.5t-51 -91.5t-89 -61.5t-130.5 -22.5q-33 0 -59.5 5t-53.5 15l7 96q2 9 6.5 13.5t12 5.5t20 0.5t31.5 -0.5q78 0 111 36.5t33 117.5v939h-428v-864h-178v864h-452v-864h-178z" />
    <glyph glyph-name="_1539" unicode="f&#x135;" horiz-adv-x="1145" 
d="M49 0zM209 0v861l-112 13q-22 5 -35 15.5t-13 30.5v73h160v133q0 166 75.5 251.5t212.5 85.5q46 0 79 -10v-98q0 -16 -14.5 -20t-40.5 -4q-71 0 -105 -48t-34 -156v-134h612v-1068q0 -61 -16.5 -113.5t-51 -91.5t-89 -61.5t-130.5 -22.5q-33 0 -59.5 5t-53.5 15l7 96
q2 9 6.5 13.5t12 5.5t20 0.5t31.5 -0.5q78 0 111 36.5t33 117.5v939h-428v-864h-178zM1213 1169h-119q-11 0 -22.5 4t-22.5 15l-123 132q-5 4 -8.5 9t-8.5 10q-8 -11 -16 -19l-124 -132q-21 -19 -45 -19h-123l223 264h166z" />
    <glyph glyph-name="_1540" unicode="f&#x13e;" horiz-adv-x="1178" 
d="M49 0zM209 0v861l-112 13q-22 5 -35 15.5t-13 30.5v73h160v54q0 84 25.5 159.5t77.5 131.5t130 89t182 33q77 0 148.5 -6t138.5 -7h121v-1447h-177v1322q-54 2 -108.5 5t-95.5 3q-130 0 -199.5 -74.5t-69.5 -208.5v-54h263v-129h-258v-864h-178zM1327 1475
q22 0 27.5 -10.5t5.5 -22.5q0 -10 -3.5 -26.5t-12.5 -46t-25 -74.5t-41 -111q-10 -22 -24.5 -29t-39.5 -7h-62l57 327h118z" />
    <glyph glyph-name="_1541" unicode="f&#x13c;" horiz-adv-x="1179" 
d="M49 0zM209 0v861l-112 13q-22 5 -35 15.5t-13 30.5v73h160v54q0 84 25.5 159.5t77.5 131.5t130 89t182 33q77 0 148.5 -6t138.5 -7h121v-1447h-177v1322q-54 2 -108.5 5t-95.5 3q-130 0 -199.5 -74.5t-69.5 -208.5v-54h263v-129h-258v-864h-178zM991 -96q23 0 28.5 -10.5
t5.5 -22.5q0 -9 -2.5 -26t-10 -43.5t-20 -64.5t-31.5 -90q-10 -22 -24.5 -29t-39.5 -7h-62l49 293h107z" />
    <glyph glyph-name="_1542" unicode="f&#x21b;" horiz-adv-x="1369" 
d="M47 0zM1033 864v-608q0 -64 31 -95t79 -31q29 0 49.5 7.5t35.5 16.5t25 16.5t18 7.5q9 0 14.5 -4t11.5 -13l52 -85q-46 -43 -111 -67.5t-135 -24.5q-119 0 -183.5 67t-64.5 193v620h-469v-864h-179v861l-112 13q-21 5 -34.5 15.5t-13.5 30.5v73h160v98q0 87 24.5 154.5
t70 114t109.5 70.5t144 24q68 0 125 -20l-4 -89q-2 -24 -26.5 -26t-65.5 -2q-46 0 -83.5 -12t-64.5 -39t-41.5 -71t-14.5 -109v-93h481l40 315q4 15 14.5 24.5t27.5 9.5h90v-349h292v-129h-292zM1132 -96q23 0 28.5 -10.5t5.5 -22.5q0 -9 -2.5 -26t-10 -43.5t-20 -64.5
t-31.5 -90q-10 -22 -24.5 -29t-39.5 -7h-62l49 293h107z" />
    <glyph glyph-name="_1543" unicode="f&#x165;" horiz-adv-x="1369" 
d="M47 0zM1033 864v-608q0 -64 31 -95t79 -31q29 0 49.5 7.5t35.5 16.5t25 16.5t18 7.5q9 0 14.5 -4t11.5 -13l52 -85q-46 -43 -111 -67.5t-135 -24.5q-119 0 -183.5 67t-64.5 193v620h-469v-864h-179v861l-112 13q-21 5 -34.5 15.5t-13.5 30.5v73h160v98q0 87 24.5 154.5
t70 114t109.5 70.5t144 24q68 0 125 -20l-4 -89q-2 -24 -26.5 -26t-65.5 -2q-46 0 -83.5 -12t-64.5 -39t-41.5 -71t-14.5 -109v-93h481l40 315q4 15 14.5 24.5t27.5 9.5h90v-349h292v-129h-292zM1424 1475q22 0 27.5 -10.5t5.5 -22.5q0 -10 -3.5 -26.5t-12.5 -46t-25 -74.5
t-41 -111q-10 -22 -24.5 -29t-39.5 -7h-62l57 327h118z" />
    <glyph glyph-name="_2305" unicode="f&#x1ecb;" horiz-adv-x="1145" 
d="M49 0zM209 0v861l-112 13q-22 5 -35 15.5t-13 30.5v73h160v56q0 93 29 170.5t87 133.5t144.5 87t200.5 31q38 0 78 -5t69 -15l-7 -93q-1 -10 -7.5 -14t-17.5 -5t-27.5 -0.5t-37.5 0.5q-178 0 -258 -73.5t-80 -221.5v-51h612v-993h-179v864h-428v-864h-178zM1019 -249
q0 -23 -9.5 -43.5t-25 -35.5t-36.5 -24t-44 -9t-43.5 9t-35.5 24t-24 35.5t-9 43.5q0 24 9 44.5t24 36.5t35.5 25t43.5 9t44 -9t36.5 -25t25 -36.5t9.5 -44.5z" />
    <glyph glyph-name="_2306" unicode="f&#x1e2d;" horiz-adv-x="1145" 
d="M49 0zM209 0v861l-112 13q-22 5 -35 15.5t-13 30.5v73h160v56q0 93 29 170.5t87 133.5t144.5 87t200.5 31q38 0 78 -5t69 -15l-7 -93q-1 -10 -7.5 -14t-17.5 -5t-27.5 -0.5t-37.5 0.5q-178 0 -258 -73.5t-80 -221.5v-51h612v-993h-179v864h-428v-864h-178zM1009 -178
q36 0 55.5 21t20.5 65h108q0 -47 -12.5 -86.5t-36 -67.5t-56 -43.5t-72.5 -15.5q-35 0 -65.5 14.5t-57.5 31.5t-51 31.5t-47 14.5q-72 0 -74 -88h-111q0 48 13 87.5t37 68t57 44t72 15.5q35 0 65.5 -14.5t57.5 -31.5t50.5 -31.5t46.5 -14.5z" />
    <glyph glyph-name="_2307" unicode="f&#x268;" horiz-adv-x="1182" 
d="M815 564v300h-428v-864h-178v861l-112 13q-22 5 -35 15.5t-13 30.5v73h160v56q0 93 29 170.5t87 133.5t144.5 87t200.5 31q38 0 78 -5t69 -15l-7 -93q-1 -10 -7.5 -14t-17.5 -5t-27.5 -0.5t-37.5 0.5q-178 0 -258 -73.5t-80 -221.5v-51h612v-429h153v-129h-153v-435h-179
v435h-153v129h153z" />
    <glyph glyph-name="_2308" unicode="f&#xed;" horiz-adv-x="1144" 
d="M49 0zM209 0v861l-112 13q-22 5 -35 15.5t-13 30.5v73h160v133q0 166 75.5 251.5t212.5 85.5q46 0 79 -10v-98q0 -16 -14.5 -20t-40.5 -4q-71 0 -105 -48t-34 -156v-134h612v-993h-179v864h-428v-864h-178zM1194 1449l-233 -258q-14 -15 -27.5 -21.5t-34.5 -6.5h-106
l148 242q14 23 30.5 33.5t48.5 10.5h174z" />
    <glyph glyph-name="_2309" unicode="f&#x1ec9;" horiz-adv-x="1145" 
d="M49 0zM209 0v861l-112 13q-22 5 -35 15.5t-13 30.5v73h160v133q0 166 75.5 251.5t212.5 85.5q46 0 79 -10v-98q0 -16 -14.5 -20t-40.5 -4q-71 0 -105 -48t-34 -156v-134h612v-993h-179v864h-428v-864h-178zM718 1418q30 23 77.5 36.5t101.5 13.5q45 0 78.5 -9.5t55 -26.5
t32.5 -40t11 -50q0 -49 -33.5 -85t-84.5 -55l-16 -82h-87v132q54 7 74 26.5t20 44.5q0 23 -16.5 40.5t-56.5 17.5q-20 0 -35 -4.5t-27 -9.5t-21 -9.5t-16 -4.5q-8 0 -13 4.5t-10 12.5z" />
    <glyph glyph-name="_2313" unicode="ff&#x1ecb;" horiz-adv-x="1775" 
d="M49 0zM209 0v861l-112 13q-22 5 -35 15.5t-13 30.5v73h160v83q0 87 24.5 154.5t69.5 114t109 70.5t144 24q68 0 126 -20l-5 -90q-2 -24 -26 -26t-66 -2q-46 0 -83.5 -11.5t-64 -38.5t-41 -71.5t-14.5 -109.5v-77h457v56q0 93 29 170.5t87 133.5t144.5 87t200.5 31
q38 0 78 -5t69 -15l-7 -93q-1 -10 -7.5 -14t-17.5 -5t-27.5 -0.5t-37.5 0.5q-178 0 -258 -73.5t-80 -221.5v-51h612v-993h-179v864h-428v-864h-178v864h-452v-864h-178zM1652 -249q0 -23 -9.5 -43.5t-25 -35.5t-36.5 -24t-44 -9t-43.5 9t-35.5 24t-24 35.5t-9 43.5
q0 24 9 44.5t24 36.5t35.5 25t43.5 9t44 -9t36.5 -25t25 -36.5t9.5 -44.5z" />
    <glyph glyph-name="_2314" unicode="ff&#x1e2d;" horiz-adv-x="1775" 
d="M49 0zM209 0v861l-112 13q-22 5 -35 15.5t-13 30.5v73h160v83q0 87 24.5 154.5t69.5 114t109 70.5t144 24q68 0 126 -20l-5 -90q-2 -24 -26 -26t-66 -2q-46 0 -83.5 -11.5t-64 -38.5t-41 -71.5t-14.5 -109.5v-77h457v56q0 93 29 170.5t87 133.5t144.5 87t200.5 31
q38 0 78 -5t69 -15l-7 -93q-1 -10 -7.5 -14t-17.5 -5t-27.5 -0.5t-37.5 0.5q-178 0 -258 -73.5t-80 -221.5v-51h612v-993h-179v864h-428v-864h-178v864h-452v-864h-178zM1642 -178q36 0 55.5 21t20.5 65h108q0 -47 -12.5 -86.5t-36 -67.5t-56 -43.5t-72.5 -15.5
q-35 0 -65.5 14.5t-57.5 31.5t-51 31.5t-47 14.5q-72 0 -74 -88h-111q0 48 13 87.5t37 68t57 44t72 15.5q35 0 65.5 -14.5t57.5 -31.5t50.5 -31.5t46.5 -14.5z" />
    <glyph glyph-name="_2315" unicode="ff&#x268;" horiz-adv-x="1815" 
d="M1445 564v300h-428v-864h-178v864h-452v-864h-178v861l-112 13q-22 5 -35 15.5t-13 30.5v73h160v83q0 87 24.5 154.5t69.5 114t109 70.5t144 24q68 0 126 -20l-5 -90q-2 -24 -26 -26t-66 -2q-46 0 -83.5 -11.5t-64 -38.5t-41 -71.5t-14.5 -109.5v-77h457v56
q0 93 29 170.5t87 133.5t144.5 87t200.5 31q38 0 78 -5t69 -15l-7 -93q-1 -10 -7.5 -14t-17.5 -5t-27.5 -0.5t-37.5 0.5q-178 0 -258 -73.5t-80 -221.5v-51h612v-429h155v-129h-155v-435h-179v435h-151v129h151z" />
    <glyph glyph-name="_2316" unicode="ff&#xed;" horiz-adv-x="1774" 
d="M49 0zM209 0v861l-112 13q-22 5 -35 15.5t-13 30.5v73h160v83q0 87 24.5 154.5t69.5 114t109 70.5t144 24q68 0 126 -20l-5 -90q-2 -24 -26 -26t-66 -2q-46 0 -83.5 -11.5t-64 -38.5t-41 -71.5t-14.5 -109.5v-77h457v133q0 166 75.5 251.5t212.5 85.5q46 0 79 -10v-98
q0 -16 -14.5 -20t-40.5 -4q-71 0 -105 -48t-34 -156v-134h612v-993h-179v864h-428v-864h-178v864h-452v-864h-178zM1828 1449l-233 -258q-14 -15 -27.5 -21.5t-34.5 -6.5h-106l148 242q14 23 30.5 33.5t48.5 10.5h174z" />
    <glyph glyph-name="_2317" unicode="ff&#x1ec9;" horiz-adv-x="1764" 
d="M49 0zM209 0v861l-112 13q-22 5 -35 15.5t-13 30.5v73h160v83q0 87 24.5 154.5t69.5 114t109 70.5t144 24q68 0 126 -20l-5 -90q-2 -24 -26 -26t-66 -2q-46 0 -83.5 -11.5t-64 -38.5t-41 -71.5t-14.5 -109.5v-77h457v133q0 166 75.5 251.5t212.5 85.5q46 0 79 -10v-98
q0 -16 -14.5 -20t-40.5 -4q-71 0 -105 -48t-34 -156v-134h612v-993h-179v864h-428v-864h-178v864h-452v-864h-178zM1351 1418q30 23 77.5 36.5t101.5 13.5q45 0 78.5 -9.5t55 -26.5t32.5 -40t11 -50q0 -49 -33.5 -85t-84.5 -55l-16 -82h-87v132q54 7 74 26.5t20 44.5
q0 23 -16.5 40.5t-56.5 17.5q-20 0 -35 -4.5t-27 -9.5t-21 -9.5t-16 -4.5q-8 0 -13 4.5t-10 12.5z" />
    <glyph glyph-name="_2321" unicode="f&#x13a;" horiz-adv-x="1179" 
d="M49 0zM209 0v861l-112 13q-22 5 -35 15.5t-13 30.5v73h160v54q0 84 25.5 159.5t77.5 131.5t130 89t182 33q77 0 148.5 -6t138.5 -7h121v-1447h-177v1322q-54 2 -108.5 5t-95.5 3q-130 0 -199.5 -74.5t-69.5 -208.5v-54h263v-129h-258v-864h-178zM1325 1852l-326 -286
q-15 -14 -29 -17t-34 -3h-128l231 274q17 22 34.5 27t50.5 5h201z" />
    <glyph glyph-name="_2471" unicode="ti" horiz-adv-x="1232" 
d="M43 0zM452 -16q-120 0 -184.5 67t-64.5 193v620h-122q-16 0 -27 9.5t-11 29.5v71l166 21l41 313q3 15 13.5 24.5t27.5 9.5h90v-349h700v-993h-178v864h-522v-608q0 -64 31 -95t80 -31q28 0 48.5 7.5t35.5 16.5t25.5 16.5t18.5 7.5q14 0 25 -17l52 -85q-46 -43 -111 -67.5
t-134 -24.5zM1125 1338q0 -26 -10.5 -48.5t-28 -39.5t-40.5 -27t-49 -10t-48.5 10t-39.5 27t-27 39.5t-10 48.5t10 49.5t27 41t39.5 27.5t48.5 10t49 -10t40.5 -27.5t28 -41t10.5 -49.5z" />
    <glyph glyph-name="_2472" unicode="t&#xec;" horiz-adv-x="1232" 
d="M43 0zM452 -16q-120 0 -184.5 67t-64.5 193v620h-122q-16 0 -27 9.5t-11 29.5v71l166 21l41 313q3 15 13.5 24.5t27.5 9.5h90v-349h700v-993h-178v864h-522v-608q0 -64 31 -95t80 -31q28 0 48.5 7.5t35.5 16.5t25.5 16.5t18.5 7.5q14 0 25 -17l52 -85q-46 -43 -111 -67.5
t-134 -24.5zM898 1449q33 0 49 -10.5t30 -33.5l149 -242h-102q-21 0 -34 6.5t-27 21.5l-234 258h169z" />
    <glyph glyph-name="_2473" unicode="t&#xed;" horiz-adv-x="1230" 
d="M41 0zM450 -16q-120 0 -184.5 67t-64.5 193v620h-122q-16 0 -27 9.5t-11 29.5v71l166 21l41 313q3 15 13.5 24.5t27.5 9.5h90v-349h700v-993h-178v864h-522v-608q0 -64 31 -95t80 -31q28 0 48.5 7.5t35.5 16.5t25.5 16.5t18.5 7.5q14 0 25 -17l52 -85q-46 -43 -111 -67.5
t-134 -24.5zM1287 1449l-233 -258q-14 -15 -27.5 -21.5t-34.5 -6.5h-106l148 242q14 23 30.5 33.5t48.5 10.5h174z" />
    <glyph glyph-name="_2474" unicode="t&#xee;" horiz-adv-x="1232" 
d="M43 0zM452 -16q-120 0 -184.5 67t-64.5 193v620h-122q-16 0 -27 9.5t-11 29.5v71l166 21l41 313q3 15 13.5 24.5t27.5 9.5h90v-349h700v-993h-178v864h-522v-608q0 -64 31 -95t80 -31q28 0 48.5 7.5t35.5 16.5t25.5 16.5t18.5 7.5q14 0 25 -17l52 -85q-46 -43 -111 -67.5
t-134 -24.5zM1304 1169h-119q-11 0 -22.5 4t-22.5 15l-123 132q-5 4 -8.5 9t-8.5 10q-8 -11 -16 -19l-124 -132q-21 -19 -45 -19h-123l223 264h166z" />
    <glyph glyph-name="_2475" unicode="t&#xef;" horiz-adv-x="1232" 
d="M43 0zM452 -16q-120 0 -184.5 67t-64.5 193v620h-122q-16 0 -27 9.5t-11 29.5v71l166 21l41 313q3 15 13.5 24.5t27.5 9.5h90v-349h700v-993h-178v864h-522v-608q0 -64 31 -95t80 -31q28 0 48.5 7.5t35.5 16.5t25.5 16.5t18.5 7.5q14 0 25 -17l52 -85q-46 -43 -111 -67.5
t-134 -24.5zM955 1289q0 -23 -9 -43t-25 -35t-36.5 -24t-43.5 -9t-43 9t-35.5 24t-24.5 35t-9 43t9 44t24.5 36.5t35.5 24.5t43 9t43.5 -9t36.5 -24.5t25 -36.5t9 -44zM1267 1289q0 -23 -9 -43t-24.5 -35t-36.5 -24t-44 -9t-43.5 9t-35.5 24t-24 35t-9 43t9 44t24 36.5
t35.5 24.5t43.5 9t44 -9t36.5 -24.5t24.5 -36.5t9 -44z" />
    <glyph glyph-name="_2476" unicode="t&#x12b;" horiz-adv-x="1232" 
d="M43 0zM452 -16q-120 0 -184.5 67t-64.5 193v620h-122q-16 0 -27 9.5t-11 29.5v71l166 21l41 313q3 15 13.5 24.5t27.5 9.5h90v-349h700v-993h-178v864h-522v-608q0 -64 31 -95t80 -31q28 0 48.5 7.5t35.5 16.5t25.5 16.5t18.5 7.5q14 0 25 -17l52 -85q-46 -43 -111 -67.5
t-134 -24.5zM711 1348h574v-117h-574v117z" />
    <glyph glyph-name="_2477" unicode="t&#x129;" horiz-adv-x="1230" 
d="M41 0zM450 -16q-120 0 -184.5 67t-64.5 193v620h-122q-16 0 -27 9.5t-11 29.5v71l166 21l41 313q3 15 13.5 24.5t27.5 9.5h90v-349h700v-993h-178v864h-522v-608q0 -64 31 -95t80 -31q28 0 48.5 7.5t35.5 16.5t25.5 16.5t18.5 7.5q14 0 25 -17l52 -85q-46 -43 -111 -67.5
t-134 -24.5zM1106 1325q36 0 55.5 21t20.5 65h108q0 -47 -12.5 -86.5t-36 -67.5t-56 -43.5t-72.5 -15.5q-35 0 -65.5 14.5t-57.5 31.5t-51 31.5t-47 14.5q-72 0 -74 -88h-111q0 48 13 87.5t37 68t57 44t72 15.5q35 0 65.5 -14.5t57.5 -31.5t50.5 -31.5t46.5 -14.5z" />
    <glyph glyph-name="_2478" unicode="t&#x12d;" horiz-adv-x="1232" 
d="M43 0zM452 -16q-120 0 -184.5 67t-64.5 193v620h-122q-16 0 -27 9.5t-11 29.5v71l166 21l41 313q3 15 13.5 24.5t27.5 9.5h90v-349h700v-993h-178v864h-522v-608q0 -64 31 -95t80 -31q28 0 48.5 7.5t35.5 16.5t25.5 16.5t18.5 7.5q14 0 25 -17l52 -85q-46 -43 -111 -67.5
t-134 -24.5zM998 1164q-77 0 -129 21.5t-84.5 58t-46.5 85.5t-14 104h126q0 -33 7 -61.5t24 -48.5t45.5 -31.5t71.5 -11.5t71.5 11.5t45.5 31.5t24 48.5t7 61.5h126q0 -55 -14 -104t-46.5 -85.5t-85 -58t-128.5 -21.5z" />
    <glyph glyph-name="_2479" unicode="t&#x1d0;" horiz-adv-x="1232" 
d="M43 0zM452 -16q-120 0 -184.5 67t-64.5 193v620h-122q-16 0 -27 9.5t-11 29.5v71l166 21l41 313q3 15 13.5 24.5t27.5 9.5h90v-349h700v-993h-178v864h-522v-608q0 -64 31 -95t80 -31q28 0 48.5 7.5t35.5 16.5t25.5 16.5t18.5 7.5q14 0 25 -17l52 -85q-46 -43 -111 -67.5
t-134 -24.5zM692 1433h123q12 0 23 -5t17 -10l128 -136l17 -20q5 5 8.5 10t8.5 10l128 136q7 5 18 10t22 5h119l-223 -264h-166z" />
    <glyph glyph-name="_2480" unicode="t&#x1e2d;" horiz-adv-x="1230" 
d="M41 0zM450 -16q-120 0 -184.5 67t-64.5 193v620h-122q-16 0 -27 9.5t-11 29.5v71l166 21l41 313q3 15 13.5 24.5t27.5 9.5h90v-349h700v-993h-178v864h-522v-608q0 -64 31 -95t80 -31q28 0 48.5 7.5t35.5 16.5t25.5 16.5t18.5 7.5q14 0 25 -17l52 -85q-46 -43 -111 -67.5
t-134 -24.5zM1123 1338q0 -26 -10.5 -48.5t-28 -39.5t-40.5 -27t-49 -10t-48.5 10t-39.5 27t-27 39.5t-10 48.5t10 49.5t27 41t39.5 27.5t48.5 10t49 -10t40.5 -27.5t28 -41t10.5 -49.5zM1100 -178q36 0 55.5 21t20.5 65h108q0 -47 -12.5 -86.5t-36 -67.5t-56 -43.5
t-72.5 -15.5q-35 0 -65.5 14.5t-57.5 31.5t-51 31.5t-47 14.5q-72 0 -74 -88h-111q0 48 13 87.5t37 68t57 44t72 15.5q35 0 65.5 -14.5t57.5 -31.5t50.5 -31.5t46.5 -14.5z" />
    <glyph glyph-name="_2482" unicode="t&#x1e2f;" horiz-adv-x="1230" 
d="M41 0zM450 -16q-120 0 -184.5 67t-64.5 193v620h-122q-16 0 -27 9.5t-11 29.5v71l166 21l41 313q3 15 13.5 24.5t27.5 9.5h90v-349h700v-993h-178v864h-522v-608q0 -64 31 -95t80 -31q28 0 48.5 7.5t35.5 16.5t25.5 16.5t18.5 7.5q14 0 25 -17l52 -85q-46 -43 -111 -67.5
t-134 -24.5zM1331 1763l-233 -258q-14 -15 -27.5 -21.5t-34.5 -6.5h-106l148 242q14 23 30.5 33.5t48.5 10.5h174zM918 1289q0 -23 -9 -43t-25 -35t-36.5 -24t-43.5 -9q-22 0 -42 9t-35.5 24t-24.5 35t-9 43t9 44t24.5 36.5t35.5 24.5t42 9q23 0 43.5 -9t36.5 -24.5
t25 -36.5t9 -44zM1299 1289q0 -23 -9 -43t-24.5 -35t-36 -24t-43.5 -9t-43.5 9t-35.5 24t-24 35t-9 43t9 44t24 36.5t35.5 24.5t43.5 9t43.5 -9t36 -24.5t24.5 -36.5t9 -44z" />
    <glyph glyph-name="_2483" unicode="t&#x268;" horiz-adv-x="1279" 
d="M903 564v300h-522v-608q0 -64 31 -95t80 -31q28 0 48.5 7.5t35.5 16.5t25.5 16.5t18.5 7.5q14 0 25 -17l52 -85q-46 -43 -111 -67.5t-134 -24.5q-120 0 -184.5 67t-64.5 193v620h-122q-16 0 -27 9.5t-11 29.5v71l166 21l41 313q3 15 13.5 24.5t27.5 9.5h90v-349h700v-429
h159v-129h-159v-435h-178v435h-148v129h148zM1125 1338q0 -26 -10.5 -48.5t-28 -39.5t-40.5 -27t-49 -10t-48.5 10t-39.5 27t-27 39.5t-10 48.5t10 49.5t27 41t39.5 27.5t48.5 10t49 -10t40.5 -27.5t28 -41t10.5 -49.5z" />
    <glyph glyph-name="_2485" unicode="t&#x20b;" horiz-adv-x="1232" 
d="M43 0zM452 -16q-120 0 -184.5 67t-64.5 193v620h-122q-16 0 -27 9.5t-11 29.5v71l166 21l41 313q3 15 13.5 24.5t27.5 9.5h90v-349h700v-993h-178v864h-522v-608q0 -64 31 -95t80 -31q28 0 48.5 7.5t35.5 16.5t25.5 16.5t18.5 7.5q14 0 25 -17l52 -85q-46 -43 -111 -67.5
t-134 -24.5zM998 1448q76 0 128.5 -21.5t85 -58.5t46.5 -85.5t14 -103.5h-126q0 33 -7 61.5t-24 48.5t-45.5 31.5t-71.5 11.5t-71.5 -11.5t-45.5 -31.5t-24 -48.5t-7 -61.5h-126q0 55 14 103.5t46.5 85.5t84.5 58.5t129 21.5z" />
    <glyph glyph-name="_2486" unicode="t&#x209;" horiz-adv-x="1232" 
d="M43 0zM452 -16q-120 0 -184.5 67t-64.5 193v620h-122q-16 0 -27 9.5t-11 29.5v71l166 21l41 313q3 15 13.5 24.5t27.5 9.5h90v-349h700v-993h-178v864h-522v-608q0 -64 31 -95t80 -31q28 0 48.5 7.5t35.5 16.5t25.5 16.5t18.5 7.5q14 0 25 -17l52 -85q-46 -43 -111 -67.5
t-134 -24.5zM1000 1449q33 0 50 -10.5t29 -33.5l138 -242h-74q-21 0 -35.5 6t-26.5 22l-199 258h118zM699 1449q33 0 48.5 -11t30.5 -33l180 -242h-86q-20 0 -33.5 6.5t-27.5 21.5l-242 258h130z" />
    <glyph glyph-name="_2487" unicode="tti" horiz-adv-x="1861" 
d="M43 0zM1710 993v-993h-178v864h-502v-608q0 -64 31.5 -95t79.5 -31q28 0 48.5 7.5t35.5 16.5t25.5 16.5t18.5 7.5q15 0 25 -17l53 -85q-47 -43 -112 -67.5t-134 -24.5q-119 0 -184 67t-65 193v620h-471v-608q0 -64 31 -95t80 -31q28 0 48.5 7.5t35.5 16.5t25.5 16.5
t18.5 7.5q14 0 25 -17l52 -85q-46 -43 -111 -67.5t-134 -24.5q-120 0 -184.5 67t-64.5 193v620h-122q-16 0 -27 9.5t-11 29.5v71l166 21l41 313q3 15 13.5 24.5t27.5 9.5h90v-349h477l41 315q3 15 13.5 24.5t27.5 9.5h90v-349h680zM1751 1338q0 -26 -10.5 -48.5t-28 -39.5
t-40.5 -27t-49 -10t-48.5 10t-39.5 27t-27 39.5t-10 48.5t10 49.5t27 41t39.5 27.5t48.5 10t49 -10t40.5 -27.5t28 -41t10.5 -49.5z" />
    <glyph glyph-name="_2488" unicode="tt&#xec;" horiz-adv-x="1861" 
d="M43 0zM1710 993v-993h-178v864h-502v-608q0 -64 31.5 -95t79.5 -31q28 0 48.5 7.5t35.5 16.5t25.5 16.5t18.5 7.5q15 0 25 -17l53 -85q-47 -43 -112 -67.5t-134 -24.5q-119 0 -184 67t-65 193v620h-471v-608q0 -64 31 -95t80 -31q28 0 48.5 7.5t35.5 16.5t25.5 16.5
t18.5 7.5q14 0 25 -17l52 -85q-46 -43 -111 -67.5t-134 -24.5q-120 0 -184.5 67t-64.5 193v620h-122q-16 0 -27 9.5t-11 29.5v71l166 21l41 313q3 15 13.5 24.5t27.5 9.5h90v-349h477l41 315q3 15 13.5 24.5t27.5 9.5h90v-349h680zM1524 1449q33 0 49 -10.5t30 -33.5
l149 -242h-102q-21 0 -34 6.5t-27 21.5l-234 258h169z" />
    <glyph glyph-name="_2489" unicode="tt&#xed;" horiz-adv-x="1859" 
d="M41 0zM1708 993v-993h-178v864h-502v-608q0 -64 31.5 -95t79.5 -31q28 0 48.5 7.5t35.5 16.5t25.5 16.5t18.5 7.5q15 0 25 -17l53 -85q-47 -43 -112 -67.5t-134 -24.5q-119 0 -184 67t-65 193v620h-471v-608q0 -64 31 -95t80 -31q28 0 48.5 7.5t35.5 16.5t25.5 16.5
t18.5 7.5q14 0 25 -17l52 -85q-46 -43 -111 -67.5t-134 -24.5q-120 0 -184.5 67t-64.5 193v620h-122q-16 0 -27 9.5t-11 29.5v71l166 21l41 313q3 15 13.5 24.5t27.5 9.5h90v-349h477l41 315q3 15 13.5 24.5t27.5 9.5h90v-349h680zM1913 1449l-233 -258q-14 -15 -27.5 -21.5
t-34.5 -6.5h-106l148 242q14 23 30.5 33.5t48.5 10.5h174z" />
    <glyph glyph-name="_2490" unicode="tt&#xee;" horiz-adv-x="1861" 
d="M43 0zM1710 993v-993h-178v864h-502v-608q0 -64 31.5 -95t79.5 -31q28 0 48.5 7.5t35.5 16.5t25.5 16.5t18.5 7.5q15 0 25 -17l53 -85q-47 -43 -112 -67.5t-134 -24.5q-119 0 -184 67t-65 193v620h-471v-608q0 -64 31 -95t80 -31q28 0 48.5 7.5t35.5 16.5t25.5 16.5
t18.5 7.5q14 0 25 -17l52 -85q-46 -43 -111 -67.5t-134 -24.5q-120 0 -184.5 67t-64.5 193v620h-122q-16 0 -27 9.5t-11 29.5v71l166 21l41 313q3 15 13.5 24.5t27.5 9.5h90v-349h477l41 315q3 15 13.5 24.5t27.5 9.5h90v-349h680zM1930 1169h-119q-11 0 -22.5 4t-22.5 15
l-123 132q-5 4 -8.5 9t-8.5 10q-8 -11 -16 -19l-124 -132q-21 -19 -45 -19h-123l223 264h166z" />
    <glyph glyph-name="_2491" unicode="tt&#xef;" horiz-adv-x="1861" 
d="M43 0zM1710 993v-993h-178v864h-502v-608q0 -64 31.5 -95t79.5 -31q28 0 48.5 7.5t35.5 16.5t25.5 16.5t18.5 7.5q15 0 25 -17l53 -85q-47 -43 -112 -67.5t-134 -24.5q-119 0 -184 67t-65 193v620h-471v-608q0 -64 31 -95t80 -31q28 0 48.5 7.5t35.5 16.5t25.5 16.5
t18.5 7.5q14 0 25 -17l52 -85q-46 -43 -111 -67.5t-134 -24.5q-120 0 -184.5 67t-64.5 193v620h-122q-16 0 -27 9.5t-11 29.5v71l166 21l41 313q3 15 13.5 24.5t27.5 9.5h90v-349h477l41 315q3 15 13.5 24.5t27.5 9.5h90v-349h680zM1581 1289q0 -23 -9 -43t-25 -35
t-36.5 -24t-43.5 -9t-43 9t-35.5 24t-24.5 35t-9 43t9 44t24.5 36.5t35.5 24.5t43 9t43.5 -9t36.5 -24.5t25 -36.5t9 -44zM1893 1289q0 -23 -9 -43t-24.5 -35t-36.5 -24t-44 -9t-43.5 9t-35.5 24t-24 35t-9 43t9 44t24 36.5t35.5 24.5t43.5 9t44 -9t36.5 -24.5t24.5 -36.5
t9 -44z" />
    <glyph glyph-name="_2492" unicode="tt&#x12b;" horiz-adv-x="1861" 
d="M43 0zM1710 993v-993h-178v864h-502v-608q0 -64 31.5 -95t79.5 -31q28 0 48.5 7.5t35.5 16.5t25.5 16.5t18.5 7.5q15 0 25 -17l53 -85q-47 -43 -112 -67.5t-134 -24.5q-119 0 -184 67t-65 193v620h-471v-608q0 -64 31 -95t80 -31q28 0 48.5 7.5t35.5 16.5t25.5 16.5
t18.5 7.5q14 0 25 -17l52 -85q-46 -43 -111 -67.5t-134 -24.5q-120 0 -184.5 67t-64.5 193v620h-122q-16 0 -27 9.5t-11 29.5v71l166 21l41 313q3 15 13.5 24.5t27.5 9.5h90v-349h477l41 315q3 15 13.5 24.5t27.5 9.5h90v-349h680zM1337 1348h574v-117h-574v117z" />
    <glyph glyph-name="_2493" unicode="tt&#x129;" horiz-adv-x="1859" 
d="M41 0zM1708 993v-993h-178v864h-502v-608q0 -64 31.5 -95t79.5 -31q28 0 48.5 7.5t35.5 16.5t25.5 16.5t18.5 7.5q15 0 25 -17l53 -85q-47 -43 -112 -67.5t-134 -24.5q-119 0 -184 67t-65 193v620h-471v-608q0 -64 31 -95t80 -31q28 0 48.5 7.5t35.5 16.5t25.5 16.5
t18.5 7.5q14 0 25 -17l52 -85q-46 -43 -111 -67.5t-134 -24.5q-120 0 -184.5 67t-64.5 193v620h-122q-16 0 -27 9.5t-11 29.5v71l166 21l41 313q3 15 13.5 24.5t27.5 9.5h90v-349h477l41 315q3 15 13.5 24.5t27.5 9.5h90v-349h680zM1732 1325q36 0 55.5 21t20.5 65h108
q0 -47 -12.5 -86.5t-36 -67.5t-56 -43.5t-72.5 -15.5q-35 0 -65.5 14.5t-57.5 31.5t-51 31.5t-47 14.5q-72 0 -74 -88h-111q0 48 13 87.5t37 68t57 44t72 15.5q35 0 65.5 -14.5t57.5 -31.5t50.5 -31.5t46.5 -14.5z" />
    <glyph glyph-name="_2494" unicode="tt&#x12d;" horiz-adv-x="1861" 
d="M43 0zM1710 993v-993h-178v864h-502v-608q0 -64 31.5 -95t79.5 -31q28 0 48.5 7.5t35.5 16.5t25.5 16.5t18.5 7.5q15 0 25 -17l53 -85q-47 -43 -112 -67.5t-134 -24.5q-119 0 -184 67t-65 193v620h-471v-608q0 -64 31 -95t80 -31q28 0 48.5 7.5t35.5 16.5t25.5 16.5
t18.5 7.5q14 0 25 -17l52 -85q-46 -43 -111 -67.5t-134 -24.5q-120 0 -184.5 67t-64.5 193v620h-122q-16 0 -27 9.5t-11 29.5v71l166 21l41 313q3 15 13.5 24.5t27.5 9.5h90v-349h477l41 315q3 15 13.5 24.5t27.5 9.5h90v-349h680zM1624 1164q-77 0 -129 21.5t-84.5 58
t-46.5 85.5t-14 104h126q0 -33 7 -61.5t24 -48.5t45.5 -31.5t71.5 -11.5t71.5 11.5t45.5 31.5t24 48.5t7 61.5h126q0 -55 -14 -104t-46.5 -85.5t-85 -58t-128.5 -21.5z" />
    <glyph glyph-name="_2495" unicode="tt&#x1d0;" horiz-adv-x="1861" 
d="M43 0zM1710 993v-993h-178v864h-502v-608q0 -64 31.5 -95t79.5 -31q28 0 48.5 7.5t35.5 16.5t25.5 16.5t18.5 7.5q15 0 25 -17l53 -85q-47 -43 -112 -67.5t-134 -24.5q-119 0 -184 67t-65 193v620h-471v-608q0 -64 31 -95t80 -31q28 0 48.5 7.5t35.5 16.5t25.5 16.5
t18.5 7.5q14 0 25 -17l52 -85q-46 -43 -111 -67.5t-134 -24.5q-120 0 -184.5 67t-64.5 193v620h-122q-16 0 -27 9.5t-11 29.5v71l166 21l41 313q3 15 13.5 24.5t27.5 9.5h90v-349h477l41 315q3 15 13.5 24.5t27.5 9.5h90v-349h680zM1318 1433h123q12 0 23 -5t17 -10
l128 -136l17 -20q5 5 8.5 10t8.5 10l128 136q7 5 18 10t22 5h119l-223 -264h-166z" />
    <glyph glyph-name="_2496" unicode="tt&#x1e2d;" horiz-adv-x="1859" 
d="M41 0zM1708 993v-993h-178v864h-502v-608q0 -64 31.5 -95t79.5 -31q28 0 48.5 7.5t35.5 16.5t25.5 16.5t18.5 7.5q15 0 25 -17l53 -85q-47 -43 -112 -67.5t-134 -24.5q-119 0 -184 67t-65 193v620h-471v-608q0 -64 31 -95t80 -31q28 0 48.5 7.5t35.5 16.5t25.5 16.5
t18.5 7.5q14 0 25 -17l52 -85q-46 -43 -111 -67.5t-134 -24.5q-120 0 -184.5 67t-64.5 193v620h-122q-16 0 -27 9.5t-11 29.5v71l166 21l41 313q3 15 13.5 24.5t27.5 9.5h90v-349h477l41 315q3 15 13.5 24.5t27.5 9.5h90v-349h680zM1728 -178q36 0 55.5 21t20.5 65h108
q0 -47 -12.5 -86.5t-36 -67.5t-56 -43.5t-72.5 -15.5q-35 0 -65.5 14.5t-57.5 31.5t-51 31.5t-47 14.5q-72 0 -74 -88h-111q0 48 13 87.5t37 68t57 44t72 15.5q35 0 65.5 -14.5t57.5 -31.5t50.5 -31.5t46.5 -14.5zM1749 1338q0 -26 -10.5 -48.5t-28 -39.5t-40.5 -27t-49 -10
t-48.5 10t-39.5 27t-27 39.5t-10 48.5t10 49.5t27 41t39.5 27.5t48.5 10t49 -10t40.5 -27.5t28 -41t10.5 -49.5z" />
    <glyph glyph-name="_2498" unicode="tt&#x1e2f;" horiz-adv-x="1859" 
d="M41 0zM1708 993v-993h-178v864h-502v-608q0 -64 31.5 -95t79.5 -31q28 0 48.5 7.5t35.5 16.5t25.5 16.5t18.5 7.5q15 0 25 -17l53 -85q-47 -43 -112 -67.5t-134 -24.5q-119 0 -184 67t-65 193v620h-471v-608q0 -64 31 -95t80 -31q28 0 48.5 7.5t35.5 16.5t25.5 16.5
t18.5 7.5q14 0 25 -17l52 -85q-46 -43 -111 -67.5t-134 -24.5q-120 0 -184.5 67t-64.5 193v620h-122q-16 0 -27 9.5t-11 29.5v71l166 21l41 313q3 15 13.5 24.5t27.5 9.5h90v-349h477l41 315q3 15 13.5 24.5t27.5 9.5h90v-349h680zM1957 1763l-233 -258q-14 -15 -27.5 -21.5
t-34.5 -6.5h-106l148 242q14 23 30.5 33.5t48.5 10.5h174zM1544 1289q0 -23 -9 -43t-25 -35t-36.5 -24t-43.5 -9q-22 0 -42 9t-35.5 24t-24.5 35t-9 43t9 44t24.5 36.5t35.5 24.5t42 9q23 0 43.5 -9t36.5 -24.5t25 -36.5t9 -44zM1925 1289q0 -23 -9 -43t-24.5 -35t-36 -24
t-43.5 -9t-43.5 9t-35.5 24t-24 35t-9 43t9 44t24 36.5t35.5 24.5t43.5 9t43.5 -9t36 -24.5t24.5 -36.5t9 -44z" />
    <glyph glyph-name="_2499" unicode="tt&#x268;" horiz-adv-x="1905" 
d="M1532 564v300h-502v-608q0 -64 31.5 -95t79.5 -31q28 0 48.5 7.5t35.5 16.5t25.5 16.5t18.5 7.5q15 0 25 -17l53 -85q-47 -43 -112 -67.5t-134 -24.5q-119 0 -184 67t-65 193v620h-471v-608q0 -64 31 -95t80 -31q28 0 48.5 7.5t35.5 16.5t25.5 16.5t18.5 7.5q14 0 25 -17
l52 -85q-46 -43 -111 -67.5t-134 -24.5q-120 0 -184.5 67t-64.5 193v620h-122q-16 0 -27 9.5t-11 29.5v71l166 21l41 313q3 15 13.5 24.5t27.5 9.5h90v-349h477l41 315q3 15 13.5 24.5t27.5 9.5h90v-349h680v-429h158v-129h-158v-435h-178v435h-149v129h149zM1751 1338
q0 -26 -10.5 -48.5t-28 -39.5t-40.5 -27t-49 -10t-48.5 10t-39.5 27t-27 39.5t-10 48.5t10 49.5t27 41t39.5 27.5t48.5 10t49 -10t40.5 -27.5t28 -41t10.5 -49.5z" />
    <glyph glyph-name="_2501" unicode="tt&#x20b;" horiz-adv-x="1861" 
d="M43 0zM1710 993v-993h-178v864h-502v-608q0 -64 31.5 -95t79.5 -31q28 0 48.5 7.5t35.5 16.5t25.5 16.5t18.5 7.5q15 0 25 -17l53 -85q-47 -43 -112 -67.5t-134 -24.5q-119 0 -184 67t-65 193v620h-471v-608q0 -64 31 -95t80 -31q28 0 48.5 7.5t35.5 16.5t25.5 16.5
t18.5 7.5q14 0 25 -17l52 -85q-46 -43 -111 -67.5t-134 -24.5q-120 0 -184.5 67t-64.5 193v620h-122q-16 0 -27 9.5t-11 29.5v71l166 21l41 313q3 15 13.5 24.5t27.5 9.5h90v-349h477l41 315q3 15 13.5 24.5t27.5 9.5h90v-349h680zM1624 1448q76 0 128.5 -21.5t85 -58.5
t46.5 -85.5t14 -103.5h-126q0 33 -7 61.5t-24 48.5t-45.5 31.5t-71.5 11.5t-71.5 -11.5t-45.5 -31.5t-24 -48.5t-7 -61.5h-126q0 55 14 103.5t46.5 85.5t84.5 58.5t129 21.5z" />
    <glyph glyph-name="_2502" unicode="tt&#x209;" horiz-adv-x="1861" 
d="M43 0zM1710 993v-993h-178v864h-502v-608q0 -64 31.5 -95t79.5 -31q28 0 48.5 7.5t35.5 16.5t25.5 16.5t18.5 7.5q15 0 25 -17l53 -85q-47 -43 -112 -67.5t-134 -24.5q-119 0 -184 67t-65 193v620h-471v-608q0 -64 31 -95t80 -31q28 0 48.5 7.5t35.5 16.5t25.5 16.5
t18.5 7.5q14 0 25 -17l52 -85q-46 -43 -111 -67.5t-134 -24.5q-120 0 -184.5 67t-64.5 193v620h-122q-16 0 -27 9.5t-11 29.5v71l166 21l41 313q3 15 13.5 24.5t27.5 9.5h90v-349h477l41 315q3 15 13.5 24.5t27.5 9.5h90v-349h680zM1626 1449q33 0 50 -10.5t29 -33.5
l138 -242h-74q-21 0 -35.5 6t-26.5 22l-199 258h118zM1325 1449q33 0 48.5 -11t30.5 -33l180 -242h-86q-20 0 -33.5 6.5t-27.5 21.5l-242 258h130z" />
    <glyph glyph-name=".notdef" horiz-adv-x="1063" 
d="M250 1141q25 22 53.5 41t62.5 33.5t73.5 23t85.5 8.5q63 0 114.5 -17.5t88 -49.5t57 -77.5t20.5 -101.5q0 -55 -15 -95t-37.5 -69.5t-49.5 -51t-51 -40.5t-41.5 -37.5t-21.5 -41.5l-17 -105h-122l-12 117q-4 34 9 59.5t35.5 47t50 41.5t51.5 43t40 52t16 69
q0 51 -36.5 81t-93.5 30q-41 0 -69 -9t-48 -20t-34 -20t-25 -9q-25 0 -37 22zM396 292q0 47 31 79t79 32q22 0 42 -8.5t34.5 -23.5t23 -35.5t8.5 -43.5t-8.5 -43t-23 -35t-34.5 -23.5t-42 -8.5q-48 0 -79 31.5t-31 78.5zM45 1433h974v-1433h-974v1433zM95 54h867v1324h-867
v-1324z" />
    <glyph glyph-name="uni0000" horiz-adv-x="0" 
 />
    <glyph glyph-name="uni0000" horiz-adv-x="0" 
 />
    <glyph glyph-name="space" unicode=" " horiz-adv-x="512" 
 />
    <glyph glyph-name="space" unicode="&#xa0;" horiz-adv-x="512" 
 />
    <glyph glyph-name="A" unicode="A" horiz-adv-x="1354" 
d="M1348 0h-150q-26 0 -42 13t-24 33l-134 346h-643l-134 -346q-6 -18 -23 -32t-42 -14h-150l573 1433h196zM409 532h535l-225 583q-11 26 -21.5 60t-21.5 73q-10 -39 -20.5 -73.5t-21.5 -60.5z" />
    <glyph glyph-name="AE" unicode="&#xc6;" horiz-adv-x="1861" 
d="M750 1433h1022v-158h-749l59 -476h559v-152h-540l61 -489h611l-1 -158h-772l-49 392h-557l-179 -347q-10 -20 -29 -32.5t-45 -12.5h-147zM467 532h466l-94 755q-13 -41 -27 -76.5t-28 -66.5z" />
    <glyph glyph-name="B" unicode="B" horiz-adv-x="1293" 
d="M183 0v1433h457q132 0 227.5 -26t157 -74t90.5 -117.5t29 -156.5q0 -53 -16.5 -102t-49.5 -91t-83.5 -75t-118.5 -54q157 -31 237 -113t80 -216q0 -91 -33.5 -166t-98 -129t-158.5 -83.5t-214 -29.5h-506zM376 653v-499h310q83 0 143 19t98.5 53.5t56.5 82t18 104.5
q0 111 -79 175.5t-237 64.5h-310zM376 791h256q82 0 142.5 18t100 50t58.5 77.5t19 99.5q0 127 -76 185.5t-236 58.5h-264v-489z" />
    <glyph glyph-name="C" unicode="C" horiz-adv-x="1336" 
d="M1189 296q16 0 28 -13l77 -83q-88 -102 -213.5 -159t-303.5 -57q-154 0 -280 53.5t-215 150t-138 231.5t-49 297t51 297t143.5 232t221.5 150.5t285 53.5q153 0 270 -49t206 -133l-64 -89q-6 -10 -15.5 -16.5t-25.5 -6.5q-18 0 -44 19.5t-68 43.5t-105 43.5t-155 19.5
q-111 0 -203 -38.5t-158.5 -111.5t-103.5 -178t-37 -237q0 -134 38.5 -239t105 -177.5t157 -110.5t195.5 -38q64 0 115.5 7.5t95 23.5t81 40.5t74.5 58.5q17 15 34 15z" />
    <glyph glyph-name="Ccedilla" unicode="&#xc7;" horiz-adv-x="1336" 
d="M662 -253q6 0 14 -3.5t19.5 -8t27 -8t36.5 -3.5q42 0 63.5 17t21.5 43q0 38 -42 53.5t-119 25.5l41 123q-143 9 -259 66t-198.5 153t-127 226t-44.5 285q0 162 51 297t143.5 232t221.5 150.5t285 53.5q153 0 270 -49t206 -133l-64 -89q-6 -10 -15.5 -16.5t-25.5 -6.5
q-18 0 -44 19.5t-68 43.5t-105 43.5t-155 19.5q-111 0 -203 -38.5t-158.5 -111.5t-103.5 -178t-37 -237q0 -134 38.5 -239t105 -177.5t157 -110.5t195.5 -38q64 0 115.5 7.5t95 23.5t81 40.5t74.5 58.5q17 15 34 15q16 0 28 -13l77 -83q-82 -95 -195.5 -150.5t-271.5 -63.5
l-18 -61q93 -19 134.5 -54t41.5 -89q0 -32 -16 -58t-44.5 -44t-68.5 -27.5t-88 -9.5q-41 0 -78 8.5t-68 22.5l17 55q6 18 23 18z" />
    <glyph glyph-name="D" unicode="D" horiz-adv-x="1521" 
d="M1425 716q0 -161 -51 -293t-144 -226t-223.5 -145.5t-288.5 -51.5h-535v1433h535q158 0 288.5 -51.5t223.5 -146t144 -226.5t51 -293zM1226 716q0 132 -36 236t-102 176t-160 110t-210 38h-341v-1119h341q116 0 210 38t160 109.5t102 175.5t36 236z" />
    <glyph glyph-name="E" unicode="E" horiz-adv-x="1155" 
d="M1066 1433v-158h-689v-476h558v-152h-558v-489h690l-1 -158h-883v1433h883z" />
    <glyph glyph-name="F" unicode="F" horiz-adv-x="1131" 
d="M1066 1433v-158h-689v-501h589v-158h-589v-616h-194v1433h883z" />
    <glyph glyph-name="G" unicode="G" horiz-adv-x="1461" 
d="M1347 139q-108 -78 -230.5 -116.5t-268.5 -38.5q-173 0 -312 53.5t-237.5 150t-151.5 231.5t-53 297q0 164 51.5 299t146.5 231.5t231 149.5t304 53q85 0 158 -12.5t135 -36t115 -57t99 -75.5l-55 -88q-13 -20 -33.5 -25.5t-45.5 9.5q-24 14 -55 34t-75.5 38.5t-105 31.5
t-143.5 13q-121 0 -219 -39.5t-167 -113t-106 -178t-37 -234.5q0 -135 38.5 -241.5t110 -181t173.5 -113.5t229 -39q50 0 93.5 6t83.5 16.5t77 26t75 35.5v316h-223q-19 0 -30.5 11t-11.5 27v110h440v-550v0z" />
    <glyph glyph-name="H" unicode="H" horiz-adv-x="1527" 
d="M1344 0h-194v652h-773v-652h-194v1433h194v-639h773v639h194v-1433z" />
    <glyph glyph-name="I" unicode="I" horiz-adv-x="560" 
d="M377 0h-194v1433h194v-1433z" />
    <glyph glyph-name="J" unicode="J" horiz-adv-x="845" 
d="M677 495q0 -120 -29.5 -215t-87 -160.5t-141.5 -100.5t-193 -35q-99 0 -202 28l10 114q2 17 12.5 27.5t32.5 10.5q18 0 47.5 -9t79.5 -9q66 0 118 20t87 62t53.5 107.5t18.5 155.5v942h194v-938z" />
    <glyph glyph-name="K" unicode="K" horiz-adv-x="1325" 
d="M376 805h73q38 0 61 9.5t42 32.5l477 540q20 26 42 36t54 10h164l-546 -617q-20 -24 -38.5 -39.5t-39.5 -25.5q27 -9 49 -26.5t43 -45.5l570 -679h-168q-19 0 -32.5 2.5t-23.5 8t-17.5 13t-14.5 17.5l-494 569q-20 25 -43 35.5t-70 10.5h-88v-656h-193v1433h193v-628z
" />
    <glyph glyph-name="L" unicode="L" horiz-adv-x="1027" 
d="M376 163h620v-163h-813v1433h193v-1270z" />
    <glyph glyph-name="M" unicode="M" horiz-adv-x="1857" 
d="M888 518q12 -24 23 -50.5t22 -52.5q10 27 21 53.5t24 50.5l486 881q12 23 26.5 28t40.5 5h143v-1433h-170v1053q0 21 1 45t3 49l-491 -896q-23 -45 -70 -45h-28q-47 0 -70 45l-502 899q3 -26 4.5 -51t1.5 -46v-1053h-170v1433h143q26 0 40 -5t27 -28l495 -882v0z" />
    <glyph glyph-name="N" unicode="N" horiz-adv-x="1527" 
d="M283 1433q13 0 22 -1.5t16 -5t14 -10t15 -16.5l829 -1079q-2 26 -3.5 50.5t-1.5 46.5v1015h170v-1433h-97q-23 0 -38.5 8t-30.5 27l-829 1079q2 -25 3 -49t1 -44v-1021h-170v1433h100v0z" />
    <glyph glyph-name="O" unicode="O" horiz-adv-x="1601" 
d="M1507 716q0 -161 -51 -295.5t-144 -231.5t-223.5 -150.5t-288.5 -53.5t-288 53.5t-223 150.5t-144 231.5t-51 295.5t51 295.5t144 232t223 151.5t288 54t288.5 -54t223.5 -151.5t144 -232t51 -295.5zM1308 716q0 132 -36 237t-102 177.5t-160 111.5t-210 39
q-115 0 -209 -39t-160.5 -111.5t-102.5 -177.5t-36 -237t36 -236.5t102.5 -177t160.5 -111t209 -38.5q116 0 210 38.5t160 111t102 177t36 236.5z" />
    <glyph glyph-name="Oslash" unicode="&#xd8;" horiz-adv-x="1601" 
d="M1507 716q0 -161 -51 -295.5t-144 -231.5t-223.5 -150.5t-288.5 -53.5q-108 0 -202 24.5t-173 72.5l-100 -136q-21 -30 -50.5 -42.5t-58.5 -12.5h-78l191 260q-112 98 -173.5 242t-61.5 323q0 161 51 295.5t144 232t223 151.5t288 54q115 0 215 -29t183 -83l82 111
q20 27 36 38.5t48 11.5h100l-172 -235q103 -98 159 -237t56 -310zM292 716q0 -135 37.5 -240.5t106.5 -178.5l659 899q-60 42 -134 63.5t-161 21.5q-115 0 -209 -39t-160.5 -111.5t-102.5 -177.5t-36 -237zM1308 716q0 126 -32.5 226.5t-92.5 172.5l-655 -892
q116 -70 272 -70q116 0 210 38.5t160 111t102 177t36 236.5z" />
    <glyph glyph-name="OE" unicode="&#x152;" horiz-adv-x="2181" 
d="M2091 1433v-158h-688v-476h558v-152h-558v-489h689l-1 -158h-860v239q-84 -120 -211 -186.5t-288 -66.5q-142 0 -259 53.5t-201 150t-130 231t-46 295.5t46 295.5t130 232t201 151.5t259 54q161 0 288 -67.5t211 -188.5v240h860zM1209 716q0 132 -32 237.5t-91.5 179.5
t-144 113.5t-188.5 39.5q-105 0 -189.5 -39.5t-144.5 -113.5t-92.5 -179.5t-32.5 -237.5t32.5 -237.5t92.5 -179t144.5 -112.5t189.5 -39q104 0 188.5 39t144 112.5t91.5 179t32 237.5z" />
    <glyph glyph-name="P" unicode="P" horiz-adv-x="1201" 
d="M376 536v-536h-193v1433h423q136 0 236.5 -31.5t166.5 -89.5t98.5 -140t32.5 -183q0 -100 -35 -183t-102.5 -143t-167 -93.5t-229.5 -33.5h-230zM376 690h230q83 0 146.5 22t107 61.5t65.5 94.5t22 121q0 137 -84.5 214t-256.5 77h-230v-590z" />
    <glyph glyph-name="Q" unicode="Q" horiz-adv-x="1601" 
d="M1508 716q0 -101 -20.5 -192.5t-59.5 -169.5t-95 -142t-126 -111l367 -397h-160q-36 0 -64 10t-51 35l-251 274q-57 -18 -118.5 -28t-128.5 -10q-158 0 -288 53.5t-223 150.5t-144 231.5t-51 295.5t51 295.5t144 232t223 151.5t288 54t288.5 -54t223.5 -151.5t144 -232
t51 -295.5zM1309 716q0 132 -36 237t-102 177.5t-160 111.5t-210 39q-115 0 -209 -39t-160.5 -111.5t-102.5 -177.5t-36 -237t36 -236.5t102.5 -177t160.5 -111t209 -38.5q116 0 210 38.5t160 111t102 177t36 236.5z" />
    <glyph glyph-name="R" unicode="R" horiz-adv-x="1253" 
d="M376 598v-598h-193v1433h405q136 0 235 -27.5t163.5 -79.5t95.5 -125.5t31 -164.5q0 -76 -24 -142t-69.5 -118.5t-111 -90t-148.5 -55.5q38 -24 64 -61l418 -569h-172q-53 0 -78 41l-372 512q-17 24 -36.5 34.5t-60.5 10.5h-147zM376 739h204q84 0 148.5 20.5t108 58
t65.5 89.5t22 115q0 128 -84 193t-252 65h-212v-541z" />
    <glyph glyph-name="S" unicode="S" horiz-adv-x="1085" 
d="M916 1209q-9 -15 -19.5 -22.5t-25.5 -7.5q-17 0 -40 17t-57.5 37.5t-83 37.5t-117.5 17q-65 0 -114.5 -17.5t-83 -47.5t-50.5 -70.5t-17 -87.5q0 -60 29.5 -99.5t78 -67.5t110 -48.5t126 -42.5t126 -49.5t110 -69.5t78 -103t29.5 -150q0 -94 -32 -176.5t-93.5 -143.5
t-151 -96t-203.5 -35q-140 0 -254 50.5t-195 136.5l56 92q8 11 19.5 18.5t25.5 7.5q13 0 29.5 -10.5t37.5 -26.5t48 -35t61.5 -35t78.5 -26.5t99 -10.5q69 0 123 19t91.5 53.5t57.5 82.5t20 107q0 65 -29.5 106.5t-77.5 69.5t-110 47.5t-126 40t-126 47.5t-110 70
t-77.5 107.5t-29.5 159.5q0 76 29.5 147t86 126t139 88t189.5 33q120 0 218.5 -38t173.5 -110z" />
    <glyph glyph-name="T" unicode="T" horiz-adv-x="1181" 
d="M1152 1433v-163h-464v-1270h-193v1270h-465v163h1122z" />
    <glyph glyph-name="U" unicode="U" horiz-adv-x="1471" 
d="M736 154q89 0 159 30t118.5 84t74 129t25.5 165v871h193v-871q0 -124 -39.5 -230t-113 -183.5t-179.5 -121.5t-238 -44t-238 44t-180 121.5t-113.5 183.5t-39.5 230v871h193v-870q0 -90 25.5 -165t74 -129t119 -84.5t159.5 -30.5z" />
    <glyph glyph-name="V" unicode="V" horiz-adv-x="1354" 
d="M6 1433h155q26 0 42 -13t24 -33l404 -1011q13 -34 25 -74t23 -83q9 43 20.5 83t24.5 74l403 1011q6 17 23.5 31.5t42.5 14.5h155l-584 -1433h-174z" />
    <glyph glyph-name="W" unicode="W" horiz-adv-x="2071" 
d="M31 1433h161q26 0 43.5 -13t22.5 -33l296 -996q7 -27 13.5 -58t12.5 -65q7 34 14.5 65.5t16.5 57.5l337 996q6 17 23.5 31.5t42.5 14.5h56q26 0 42 -13t24 -33l336 -996q9 -26 16.5 -56t13.5 -62q6 32 12 62t13 56l297 996q5 18 22.5 32t42.5 14h151l-447 -1433h-174
l-363 1093q-11 31 -20 72q-5 -20 -9.5 -38.5t-9.5 -33.5l-365 -1093h-174z" />
    <glyph glyph-name="X" unicode="X" horiz-adv-x="1298" 
d="M513 736l-473 697h193q21 0 31 -7t18 -20l374 -574q7 21 21 46l353 524q8 14 19 22.5t26 8.5h185l-475 -688l491 -745h-192q-22 0 -34.5 11.5t-20.5 25.5l-384 601q-7 -21 -18 -40l-374 -561q-10 -14 -21.5 -25.5t-31.5 -11.5h-180z" />
    <glyph glyph-name="Y" unicode="Y" horiz-adv-x="1248" 
d="M721 571v-571h-194v571l-525 862h170q26 0 41 -12.5t26 -32.5l328 -557q18 -35 32.5 -65.5t25.5 -60.5q11 30 25 60.5t32 65.5l327 557q9 17 25 31t41 14h171z" />
    <glyph glyph-name="Z" unicode="Z" horiz-adv-x="1204" 
d="M1139 1433v-72q0 -33 -20 -64l-812 -1139h820v-158h-1074v76q0 16 5.5 30t13.5 27l812 1142h-793v158h1048z" />
    <glyph glyph-name="a" unicode="a" horiz-adv-x="994" 
d="M785 0q-26 0 -40 8.5t-22 33.5l-20 95q-40 -36 -78.5 -64.5t-80 -48t-89 -30t-105.5 -10.5q-59 0 -111 16.5t-90.5 49.5t-61 83.5t-22.5 119.5q0 60 33 115.5t107 98.5t193 70.5t292 31.5v79q0 118 -51 178.5t-149 60.5q-66 0 -110.5 -16.5t-77 -37t-56 -37t-46.5 -16.5
q-18 0 -31 9.5t-22 23.5l-32 57q84 81 181 121t215 40q85 0 151 -28t111 -78t68 -121t23 -156v-648h-79zM403 109q47 0 86 9.5t73.5 27t66 43t61.5 57.5v210q-123 -4 -209.5 -19.5t-141 -40.5t-79 -59t-24.5 -76q0 -40 13 -69t35.5 -47.5t53 -27t65.5 -8.5z" />
    <glyph glyph-name="ae" unicode="&#xe6;" horiz-adv-x="1610" 
d="M1142 1029q82 0 153 -32t123 -93t82 -148.5t30 -199.5q0 -41 -8 -55.5t-33 -14.5h-630q4 -91 27 -158.5t61.5 -112.5t91 -67t117.5 -22q69 0 115 14.5t76.5 32.5t50 32.5t35.5 14.5q14 0 22.5 -4.5t14.5 -12.5l47 -61q-33 -40 -76.5 -69.5t-93 -48.5t-102.5 -28.5
t-105 -9.5q-117 0 -212.5 56.5t-150.5 172.5q-27 -62 -70.5 -106t-96.5 -72t-112.5 -40.5t-118.5 -12.5q-69 0 -126 17.5t-98.5 52.5t-64 88t-22.5 125q0 60 33 118t106.5 104t192.5 75.5t292 33.5v50q0 118 -51 181t-149 63q-66 0 -110.5 -17.5t-77 -38.5t-56 -38.5
t-46.5 -17.5q-18 0 -31 9.5t-22 23.5l-32 57q84 81 174.5 121t203.5 40q120 0 193 -51t106 -142q54 88 140.5 139.5t207.5 51.5zM692 486q-123 -5 -209.5 -22.5t-140.5 -45.5t-78.5 -64t-24.5 -78q0 -87 50 -127t131 -40q57 0 106.5 18t86.5 55t58 92t21 129v83zM1136 898
q-61 0 -109 -20.5t-82.5 -59.5t-55.5 -95t-28 -126h511q0 65 -16 120.5t-46.5 95.5t-74.5 62.5t-99 22.5z" />
    <glyph glyph-name="b" unicode="b" horiz-adv-x="1120" 
d="M141 0v1473h179v-607q63 75 144 119t186 44q89 0 160.5 -34t121.5 -98.5t76.5 -156.5t26.5 -207q0 -123 -30 -224t-86.5 -172.5t-137.5 -111t-182 -39.5q-100 0 -168.5 37.5t-119.5 106.5l-9 -92q-8 -38 -46 -38h-115zM591 887q-87 0 -152 -40t-119 -113v-490
q49 -66 107.5 -93t128.5 -27q143 0 219 101t76 301q0 186 -67.5 273.5t-192.5 87.5z" />
    <glyph glyph-name="c" unicode="c" horiz-adv-x="955" 
d="M846 833q-8 -11 -16 -17t-22 -6q-15 0 -33 12.5t-44.5 27.5t-65 27.5t-94.5 12.5q-75 0 -132 -26.5t-95.5 -76.5t-58 -121t-19.5 -159q0 -92 21 -163.5t59.5 -120t93 -74t122.5 -25.5q65 0 107 15.5t69.5 34.5t46 34.5t36.5 15.5q22 0 34 -17l50 -65q-33 -41 -75 -70
t-90.5 -48.5t-101.5 -28.5t-108 -9q-95 0 -176.5 35t-141.5 101.5t-94 163.5t-34 221q0 113 31.5 209t92 165.5t149 108.5t203.5 39q107 0 188.5 -34.5t144.5 -97.5z" />
    <glyph glyph-name="ccedilla" unicode="&#xe7;" horiz-adv-x="956" 
d="M422 -253q6 0 14 -3.5t19.5 -8t27 -8t37.5 -3.5q42 0 63 17t21 43q0 38 -42 53.5t-118 25.5l41 125q-87 8 -160.5 46.5t-127 104.5t-83.5 159t-30 209q0 113 31.5 209t92 165.5t149 108.5t203.5 39q107 0 188.5 -34.5t144.5 -97.5l-47 -64q-8 -11 -16 -17t-22 -6
q-15 0 -33 12.5t-44.5 27.5t-65 27.5t-94.5 12.5q-75 0 -132 -26.5t-95.5 -76.5t-58 -121t-19.5 -159q0 -92 21 -163.5t59.5 -120t93 -74t122.5 -25.5q65 0 107 15.5t69.5 34.5t46 34.5t36.5 15.5q22 0 34 -17l50 -65q-58 -71 -140.5 -108t-177.5 -45l-18 -64
q93 -19 134.5 -54t41.5 -89q0 -32 -16 -58t-44.5 -44t-68 -27.5t-87.5 -9.5q-41 0 -78.5 8.5t-67.5 22.5l16 55q6 18 23 18z" />
    <glyph glyph-name="d" unicode="d" horiz-adv-x="1120" 
d="M873 0q-38 0 -48 37l-16 123q-65 -79 -148.5 -126.5t-191.5 -47.5q-87 0 -158 33.5t-121 98.5t-77 162t-27 223q0 112 30 208.5t86 167.5t137.5 111.5t183.5 40.5q93 0 159.5 -31.5t118.5 -88.5v562h178v-1473h-106zM527 130q88 0 153.5 40t120.5 113v489q-50 66 -108 93
t-130 27q-141 0 -217 -101t-76 -288q0 -99 17 -169.5t50 -116t81 -66.5t109 -21z" />
    <glyph glyph-name="e" unicode="e" horiz-adv-x="1056" 
d="M556 1029q91 0 168.5 -30.5t134 -88t88.5 -142t32 -192.5q0 -42 -9 -56t-34 -14h-677q2 -96 26 -167t66 -118.5t100 -71t130 -23.5q67 0 115.5 15.5t83.5 33.5t58.5 33.5t40.5 15.5q22 0 34 -17l50 -65q-33 -40 -79 -69.5t-98.5 -48.5t-108.5 -28.5t-111 -9.5
q-105 0 -193.5 35.5t-153 104t-100.5 169.5t-36 232q0 106 32.5 198t93.5 159.5t149 106t198 38.5zM560 898q-129 0 -203 -74.5t-92 -206.5h554q0 62 -17.5 113.5t-51 89t-81.5 58t-109 20.5z" />
    <glyph glyph-name="f" unicode="f" horiz-adv-x="701" 
d="M207 0v861l-112 13q-21 5 -34.5 15.5t-13.5 30.5v73h160v98q0 87 24.5 154.5t70 114t109.5 70.5t144 24q68 0 125 -20l-4 -89q-2 -24 -26.5 -26t-65.5 -2q-46 0 -83.5 -12t-64.5 -39t-41.5 -71t-14.5 -109v-93h292v-129h-286v-864h-179z" />
    <glyph glyph-name="g" unicode="g" horiz-adv-x="1040" 
d="M494 1030q66 0 123 -14.5t104 -42.5h275v-66q0 -33 -42 -42l-115 -16q34 -65 34 -145q0 -74 -28.5 -134.5t-78.5 -103.5t-120 -66t-152 -23q-72 0 -135 17q-32 -20 -48.5 -43t-16.5 -45q0 -36 29.5 -54.5t77.5 -26.5t109.5 -10t126 -6.5t126 -15.5t109.5 -36t77.5 -69
t29.5 -114q0 -65 -32.5 -126t-93.5 -108.5t-149.5 -76t-199.5 -28.5t-194 22t-138 59t-82.5 85.5t-27.5 101.5q0 75 47 127t128 83q-45 20 -71 53.5t-26 90.5q0 22 8 45.5t24.5 46.5t40.5 44t56 37q-75 42 -117 112t-42 162q0 74 28.5 134.5t79.5 103t121.5 65.5t154.5 23z
M815 -55q0 37 -21 60t-56.5 36t-82.5 18.5t-99.5 8.5t-106.5 6t-104 10q-56 -26 -91.5 -65t-35.5 -93q0 -34 17.5 -63.5t53.5 -51t90.5 -34t128.5 -12.5q72 0 129 13t96.5 37t60.5 57t21 73zM494 495q54 0 95 15t69 42t42 64.5t14 82.5q0 93 -56.5 148t-163.5 55
q-108 0 -164.5 -55t-56.5 -148q0 -45 14.5 -82.5t42.5 -64.5t69 -42t95 -15z" />
    <glyph glyph-name="h" unicode="h" horiz-adv-x="1116" 
d="M141 0v1473h179v-596q65 69 144 110.5t182 41.5q83 0 146.5 -27.5t106 -78t64.5 -121.5t22 -157v-645h-179v645q0 115 -52.5 178.5t-159.5 63.5q-80 0 -148.5 -38t-125.5 -103v-746h-179z" />
    <glyph glyph-name="i" unicode="i" horiz-adv-x="480" 
d="M329 1013v-1013h-178v1013h178zM367 1331q0 -26 -10.5 -48.5t-28 -40t-41 -27.5t-49.5 -10t-48.5 10t-39.5 27.5t-27 40t-10 48.5t10 49.5t27 41t39.5 27.5t48.5 10t49.5 -10t41 -27.5t28 -41t10.5 -49.5z" />
    <glyph glyph-name="dotlessi" unicode="&#x131;" horiz-adv-x="481" 
d="M330 1013v-1013h-179v1013h179z" />
    <glyph glyph-name="j" unicode="j" horiz-adv-x="480" 
d="M329 1013v-1088q0 -61 -16 -113.5t-51 -91.5t-89.5 -61.5t-130.5 -22.5q-32 0 -59 5t-54 15l7 96q2 9 6.5 13.5t12.5 5.5t20.5 0.5t31.5 -0.5q78 0 111 36.5t33 117.5v1088h178zM366 1331q0 -26 -10.5 -48.5t-28 -40t-40.5 -27.5t-49 -10t-48.5 10t-39.5 27.5t-27 40
t-10 48.5t10 49.5t27 41t39.5 27.5t48.5 10t49 -10t40.5 -27.5t28 -41t10.5 -49.5z" />
    <glyph glyph-name="k" unicode="k" horiz-adv-x="1016" 
d="M320 1473v-867h46q20 0 33.5 5.5t28.5 22.5l320 343q14 17 29.5 26.5t41.5 9.5h161l-373 -397q-27 -34 -58 -53q18 -12 32.5 -27.5t27.5 -35.5l396 -500h-159q-23 0 -39.5 7.5t-28.5 27.5l-333 415q-15 21 -29.5 27.5t-44.5 6.5h-51v-484h-179v1473h179z" />
    <glyph glyph-name="m" unicode="m" horiz-adv-x="1645" 
d="M141 0v1013h107q38 0 47 -37l13 -104q56 69 126 113t162 44q102 0 165.5 -57t91.5 -154q22 55 56.5 95t77.5 66t91.5 38t98.5 12q80 0 142.5 -25.5t106 -74.5t66.5 -120.5t23 -163.5v-645h-179v645q0 119 -52 180.5t-150 61.5q-44 0 -83.5 -15.5t-69.5 -45.5t-47.5 -75.5
t-17.5 -105.5v-645h-179v645q0 122 -49 182t-143 60q-66 0 -122 -35.5t-103 -96.5v-755h-179z" />
    <glyph glyph-name="n" unicode="n" horiz-adv-x="1116" 
d="M141 0v1013h107q38 0 47 -37l14 -110q66 73 148 118t189 45q83 0 146.5 -27.5t106 -78t64.5 -121.5t22 -157v-645h-179v645q0 115 -52.5 178.5t-159.5 63.5q-80 0 -148.5 -38t-125.5 -103v-746h-179z" />
    <glyph glyph-name="o" unicode="o" horiz-adv-x="1134" 
d="M568 1029q111 0 200 -37t152 -105t96.5 -164.5t33.5 -215.5q0 -120 -33.5 -216t-96.5 -164t-152 -104.5t-200 -36.5q-112 0 -201.5 36.5t-152.5 104.5t-96.5 164t-33.5 216q0 119 33.5 215.5t96.5 164.5t152.5 105t201.5 37zM568 125q150 0 224 100.5t74 280.5
q0 181 -74 282t-224 101q-76 0 -132.5 -26t-94 -75t-56 -120.5t-18.5 -161.5q0 -180 74.5 -280.5t226.5 -100.5z" />
    <glyph glyph-name="oslash" unicode="&#xf8;" horiz-adv-x="1133" 
d="M922 885q62 -69 95 -164.5t33 -213.5q0 -120 -33.5 -216t-96.5 -164t-152 -104.5t-200 -36.5q-76 0 -141.5 17t-119.5 49l-55 -74q-20 -30 -50.5 -42t-59.5 -12h-67l145 196q-66 69 -101 166t-35 221q0 119 33.5 215.5t96.5 164.5t152.5 105t201.5 37q79 0 146.5 -19
t123.5 -55l68 92q18 28 34.5 39t49.5 11h89zM257 506q0 -160 59 -257l436 590q-73 56 -184 56q-76 0 -134 -27t-97.5 -77t-59.5 -122.5t-20 -162.5zM568 120q75 0 132.5 26.5t97 76.5t59.5 121.5t20 161.5q0 151 -52 247l-433 -585q70 -48 176 -48z" />
    <glyph glyph-name="oe" unicode="&#x153;" horiz-adv-x="1746" 
d="M1281 1029q82 0 152 -32t121.5 -93t81 -148.5t29.5 -199.5q0 -41 -8 -55.5t-33 -14.5h-626q4 -91 26.5 -158.5t61 -112.5t91 -67t117.5 -22q61 0 105.5 15.5t76.5 33.5t54.5 33.5t40.5 15.5q21 0 33 -17l51 -65q-33 -40 -76.5 -69.5t-93 -48.5t-102.5 -28.5t-105 -9.5
q-118 0 -214 57.5t-151 176.5q-54 -112 -150.5 -173t-233.5 -61q-100 0 -182 36.5t-140.5 104.5t-90.5 164t-32 216q0 119 32 215.5t91.5 164.5t143 105t185.5 37q131 0 226 -60.5t148 -170.5q25 52 61 95t82.5 73t103.5 46.5t124 16.5zM546 125q139 0 207 100.5t68 280.5
q0 90 -17 161.5t-51 120.5t-86 75t-121 26q-71 0 -123 -26t-86.5 -75t-51.5 -120.5t-17 -161.5q0 -180 68.5 -280.5t209.5 -100.5zM1274 898q-61 0 -109 -20.5t-82.5 -59.5t-55 -95t-27.5 -126h507q0 65 -15.5 120.5t-45.5 95.5t-73.5 62.5t-98.5 22.5z" />
    <glyph glyph-name="p" unicode="p" horiz-adv-x="1121" 
d="M141 -343v1356h107q38 0 47 -37l15 -120q65 79 149 127t192 48q88 0 159 -33.5t121 -99t77 -162.5t27 -223q0 -112 -30 -208.5t-86.5 -167t-138 -111t-183.5 -40.5q-93 0 -159.5 31t-117.5 88v-448h-179zM593 887q-87 0 -152.5 -40t-120.5 -113v-490q48 -66 106.5 -93
t130.5 -27q142 0 218 101t76 288q0 99 -17.5 170t-50.5 116.5t-81 66.5t-109 21z" />
    <glyph glyph-name="q" unicode="q" horiz-adv-x="1120" 
d="M979 1013v-1356h-178v493q-64 -74 -145.5 -119t-186.5 -45q-87 0 -158 33.5t-121 98.5t-77 162t-27 223q0 112 30 208.5t86 167.5t137.5 111.5t183.5 40.5q99 0 167.5 -35t122.5 -99l12 79q10 37 48 37h106zM527 130q88 0 153.5 40t120.5 113v490q-48 64 -107 91.5
t-131 27.5q-141 0 -217 -101t-76 -288q0 -99 17 -169.5t50 -116t81 -66.5t109 -21z" />
    <glyph glyph-name="r" unicode="r" horiz-adv-x="728" 
d="M141 0v1013h102q29 0 40 -11t15 -38l11 -154q48 104 118.5 162.5t171.5 58.5q32 0 61.5 -7t52.5 -22l-13 -133q-6 -25 -30 -25q-14 0 -41 6t-61 6q-48 0 -86 -14.5t-67.5 -42t-52.5 -67.5t-42 -92v-640h-179z" />
    <glyph glyph-name="s" unicode="s" horiz-adv-x="866" 
d="M731 846q-12 -22 -37 -22q-15 0 -34 11t-46.5 24.5t-65.5 25t-90 11.5q-45 0 -81 -11.5t-61.5 -31.5t-39 -46.5t-13.5 -57.5q0 -39 22.5 -65t59.5 -45t84 -33.5t96.5 -31t96.5 -36.5t84 -50t59.5 -73.5t22.5 -104.5q0 -70 -25 -129.5t-74 -103t-120 -68.5t-164 -25
q-106 0 -192 34.5t-146 88.5l42 68q8 13 19 20t28 7q18 0 38 -14t48.5 -31t69.5 -31t102 -14q52 0 91 13.5t65 36.5t38.5 53t12.5 64q0 42 -22.5 69.5t-59.5 47t-84.5 34t-97 30.5t-97 36.5t-84.5 51.5t-59.5 76.5t-22.5 110.5q0 58 24 111.5t70 94t113 64.5t153 24
q100 0 179.5 -31.5t137.5 -86.5z" />
    <glyph glyph-name="germandbls" unicode="&#xdf;" horiz-adv-x="1160" 
d="M628 1454q103 0 178 -30t124 -76.5t72.5 -101.5t23.5 -106q0 -60 -21.5 -103t-53.5 -76t-69.5 -58t-69.5 -49t-53.5 -49.5t-21.5 -57.5q0 -39 26.5 -65t66.5 -48.5t86.5 -46t86.5 -58.5t66.5 -86t26.5 -129t-28.5 -139t-78 -103.5t-117.5 -65t-146 -22.5
q-97 0 -176.5 34.5t-139.5 88.5l42 68q8 13 19 20t29 7t38 -14t47 -31t64.5 -31t91.5 -14q43 0 78 13.5t60 36.5t38 55t13 69q0 56 -28 91t-70 60.5t-91.5 46.5t-91.5 50t-70 70.5t-28 107.5q0 53 22.5 92.5t56 71t73 58.5t73 57t56 65.5t22.5 83.5q0 32 -12.5 64.5
t-40.5 58.5t-72.5 42.5t-108.5 16.5q-68 0 -123 -21t-95 -63t-61.5 -105t-21.5 -147v-986h-178v992q0 104 34.5 189t98.5 146t154 94t200 33z" />
    <glyph glyph-name="t" unicode="t" horiz-adv-x="717" 
d="M452 -16q-120 0 -184.5 67t-64.5 193v620h-122q-16 0 -27 9.5t-11 29.5v71l166 21l41 313q3 15 13.5 24.5t27.5 9.5h90v-349h293v-129h-293v-608q0 -64 31 -95t80 -31q28 0 48.5 7.5t35.5 16.5t25.5 16.5t18.5 7.5q14 0 25 -17l52 -85q-46 -43 -111 -67.5t-134 -24.5z
" />
    <glyph glyph-name="u" unicode="u" horiz-adv-x="1115" 
d="M309 1013v-646q0 -115 52.5 -178t160.5 -63q78 0 147 37t127 103v747h178v-1013h-106q-38 0 -48 37l-14 109q-66 -73 -148 -117.5t-188 -44.5q-83 0 -146.5 27.5t-106.5 77.5t-64.5 121t-21.5 157v646h178z" />
    <glyph glyph-name="v" unicode="v" horiz-adv-x="1032" 
d="M23 1013h145q22 0 36 -11t19 -26l257 -652q12 -37 21 -72t17 -70q8 35 17 70t22 72l260 652q6 16 20 26.5t33 10.5h139l-413 -1013h-160z" />
    <glyph glyph-name="w" unicode="w" horiz-adv-x="1571" 
d="M33 1013h140q21 0 35.5 -11t19.5 -26l194 -652q8 -35 15 -68.5t12 -66.5q8 33 18 66.5t21 68.5l214 656q5 15 17.5 25t30.5 10h78q20 0 33 -10t18 -25l209 -656q10 -35 19 -69t17 -67q6 33 13.5 66.5t16.5 69.5l198 652q5 16 19 26.5t33 10.5h134l-328 -1013h-141
q-26 0 -36 34l-224 687q-8 23 -13 46.5t-10 46.5q-5 -23 -10.5 -47t-12.5 -47l-228 -686q-9 -34 -40 -34h-134z" />
    <glyph glyph-name="x" unicode="x" horiz-adv-x="996" 
d="M378 519l-341 494h171q22 0 32 -7t18 -20l248 -380q9 28 26 56l218 320q9 14 19.5 22.5t25.5 8.5h164l-341 -484l355 -529h-171q-22 0 -34.5 11.5t-20.5 25.5l-255 397q-7 -29 -21 -52l-236 -345q-10 -14 -21.5 -25.5t-31.5 -11.5h-159z" />
    <glyph glyph-name="y" unicode="y" horiz-adv-x="1031" 
d="M450 -299q-9 -20 -22.5 -32t-41.5 -12h-132l185 402l-418 954h154q23 0 36.5 -11.5t18.5 -25.5l271 -638q8 -23 15 -44.5t12 -44.5q13 45 30 90l263 637q6 16 20.5 26.5t32.5 10.5h141z" />
    <glyph glyph-name="z" unicode="z" horiz-adv-x="904" 
d="M840 937q0 -19 -6.5 -37t-17.5 -31l-549 -730h554v-139h-763v74q0 13 6 30.5t18 33.5l552 735h-545v140h751v-76z" />
    <glyph glyph-name="ordfeminine" unicode="&#xaa;" horiz-adv-x="735" 
d="M544 840q-18 0 -27 5.5t-17 23.5l-13 48q-24 -21 -47 -37t-47.5 -27t-53 -16.5t-62.5 -5.5q-38 0 -70 10t-56 30.5t-37.5 50.5t-13.5 71q0 34 19 67.5t63 60t116 44t179 19.5v37h127v-381h-60zM477 1221q0 63 -28.5 93t-85.5 30q-38 0 -63.5 -9t-44 -19.5t-33 -19
t-30.5 -8.5q-14 0 -23 8t-15 17l-22 42q51 49 112 72t134 23q54 0 96 -17t71 -47t44 -72t15 -93h-127zM317 923q51 0 88 18.5t72 53.5v106q-70 -2 -118.5 -10.5t-78.5 -22t-43 -31t-13 -38.5q0 -42 26.5 -59t66.5 -17z" />
    <glyph glyph-name="ordmasculine" unicode="&#xba;" horiz-adv-x="804" 
d="M404 1449q70 0 126.5 -21.5t96.5 -61.5t62 -97.5t22 -128.5q0 -72 -22 -130t-62 -98.5t-96.5 -62t-126.5 -21.5q-71 0 -128 21.5t-97.5 62t-62.5 98.5t-22 130q0 71 22 128.5t62.5 97.5t97.5 61.5t128 21.5zM404 934q84 0 125.5 52.5t41.5 152.5t-41.5 152t-125.5 52
q-88 0 -129 -52t-41 -152t41 -152.5t129 -52.5z" />
    <glyph glyph-name="grave" unicode="`" 
d="M300 1449q33 0 49 -10.5t30 -33.5l149 -242h-102q-21 0 -34 6.5t-27 21.5l-234 258h169z" />
    <glyph glyph-name="acute" unicode="&#xb4;" 
d="M691 1449l-233 -258q-14 -15 -27.5 -21.5t-34.5 -6.5h-106l148 242q14 23 30.5 33.5t48.5 10.5h174z" />
    <glyph glyph-name="circumflex" unicode="&#x2c6;" 
d="M706 1169h-119q-11 0 -22.5 4t-22.5 15l-123 132q-5 4 -8.5 9t-8.5 10q-8 -11 -16 -19l-124 -132q-21 -19 -45 -19h-123l223 264h166z" />
    <glyph glyph-name="caron" unicode="&#x2c7;" 
d="M94 1433h123q12 0 23 -5t17 -10l128 -136l17 -20q5 5 8.5 10t8.5 10l128 136q7 5 18 10t22 5h119l-223 -264h-166z" />
    <glyph glyph-name="tilde" unicode="&#x2dc;" 
d="M510 1325q36 0 55.5 21t20.5 65h108q0 -47 -12.5 -86.5t-36 -67.5t-56 -43.5t-72.5 -15.5q-35 0 -65.5 14.5t-57.5 31.5t-51 31.5t-47 14.5q-72 0 -74 -88h-111q0 48 13 87.5t37 68t57 44t72 15.5q35 0 65.5 -14.5t57.5 -31.5t50.5 -31.5t46.5 -14.5z" />
    <glyph glyph-name="dieresis" unicode="&#xa8;" 
d="M322 1289q0 -23 -9 -43t-25 -35t-36.5 -24t-43.5 -9q-22 0 -42 9t-35.5 24t-24.5 35t-9 43t9 44t24.5 36.5t35.5 24.5t42 9q23 0 43.5 -9t36.5 -24.5t25 -36.5t9 -44zM703 1289q0 -23 -9 -43t-24.5 -35t-36 -24t-43.5 -9t-43.5 9t-35.5 24t-24 35t-9 43t9 44t24 36.5
t35.5 24.5t43.5 9t43.5 -9t36 -24.5t24.5 -36.5t9 -44z" />
    <glyph glyph-name="macron" unicode="&#xaf;" 
d="M113 1348h574v-117h-574v117z" />
    <glyph glyph-name="macron" unicode="&#x2c9;" 
d="M113 1348h574v-117h-574v117z" />
    <glyph glyph-name="breve" unicode="&#x2d8;" 
d="M400 1164q-77 0 -129 21.5t-84.5 58t-46.5 85.5t-14 104h126q0 -33 7 -61.5t24 -48.5t45.5 -31.5t71.5 -11.5t71.5 11.5t45.5 31.5t24 48.5t7 61.5h126q0 -55 -14 -104t-46.5 -85.5t-85 -58t-128.5 -21.5z" />
    <glyph glyph-name="ring" unicode="&#x2da;" 
d="M200 1315q0 42 16 76t43.5 59t63.5 38.5t76 13.5q41 0 77.5 -13.5t64.5 -38.5t44 -59t16 -76q0 -41 -16 -75t-44 -58t-64.5 -37.5t-77.5 -13.5q-40 0 -76 13.5t-63.5 37.5t-43.5 58t-16 75zM300 1315q0 -44 27 -72t74 -28q45 0 72.5 28t27.5 72q0 45 -27.5 73t-72.5 28
q-47 0 -74 -28t-27 -73z" />
    <glyph glyph-name="hungarumlaut" unicode="&#x2dd;" 
d="M522 1449l-199 -258q-12 -16 -26.5 -22t-35.5 -6h-74l138 242q12 23 29 33.5t50 10.5h118zM836 1449l-243 -258q-14 -15 -27.5 -21.5t-33.5 -6.5h-86l180 242q16 22 31 33t48 11h131z" />
    <glyph glyph-name="dotaccent" unicode="&#x2d9;" 
d="M527 1338q0 -26 -10.5 -48.5t-28 -39.5t-40.5 -27t-49 -10t-48.5 10t-39.5 27t-27 39.5t-10 48.5t10 49.5t27 41t39.5 27.5t48.5 10t49 -10t40.5 -27.5t28 -41t10.5 -49.5z" />
    <glyph glyph-name="cedilla" unicode="&#xb8;" 
d="M282 -253q6 0 14 -3.5t19.5 -8t27 -8t36.5 -3.5q42 0 63.5 17t21.5 43q0 38 -42 53.5t-119 25.5l54 162h101l-29 -100q93 -19 134.5 -54t41.5 -89q0 -32 -16 -58t-44.5 -44t-68.5 -27.5t-88 -9.5q-41 0 -78 8.5t-68 22.5l17 55q6 18 23 18z" />
    <glyph glyph-name="ogonek" unicode="&#x2db;" 
d="M544 -211q7 0 11.5 -4t6.5 -9l28 -66q-30 -23 -76.5 -37.5t-97.5 -14.5q-88 0 -138.5 39.5t-50.5 105.5q0 31 12.5 60.5t34 56.5t51 50.5t63.5 42.5l92 -13q-20 -11 -41 -26.5t-38 -35t-28 -43t-11 -49.5q0 -38 24.5 -59.5t66.5 -21.5q23 0 38 3.5t25 8t16.5 8.5t11.5 4z
" />
    <glyph glyph-name="pi" unicode="&#x3c0;" horiz-adv-x="1231" 
d="M1167 1003v-84q0 -24 -14.5 -40.5t-43.5 -16.5h-147q-1 -57 -2 -106t-1 -99q0 -119 4 -204.5t11.5 -144.5t19.5 -95t28 -55t36 -25.5t45 -6.5h38v-72q0 -29 -33.5 -44.5t-84.5 -15.5q-59 0 -103.5 20t-73.5 62t-43.5 108.5t-14.5 159.5q0 45 3.5 97.5t9 115.5t10.5 138.5
t8 166.5h-371q-3 -172 -14.5 -304t-30.5 -228.5t-44.5 -161.5t-56.5 -104t-66.5 -55.5t-74.5 -16.5q-12 0 -25 2t-24.5 6.5t-18.5 11.5t-7 16v121h20q30 0 61 38t57 123t45 221t24 331h-219v75q0 11 4.5 22.5t13.5 21.5t21.5 16t29.5 6h1024z" />
    <glyph glyph-name="exclam" unicode="!" horiz-adv-x="538" 
d="M355 1433v-572q0 -45 -2 -88t-5 -86.5t-7.5 -89t-10.5 -97.5h-120q-6 52 -10.5 97.5t-7.5 89t-5 86.5t-2 88v572h170zM142 110q0 26 9.5 49t26.5 40t39.5 27t49.5 10q26 0 48.5 -10t39.5 -27t27 -40t10 -49q0 -27 -10 -49.5t-27 -39.5t-39.5 -26.5t-48.5 -9.5
q-27 0 -49.5 9.5t-39.5 26.5t-26.5 39.5t-9.5 49.5z" />
    <glyph glyph-name="question" unicode="?" horiz-adv-x="895" 
d="M81 1305q31 29 68.5 55t82 46t96 31.5t111.5 11.5q79 0 146.5 -23t116.5 -65t77 -102t28 -135q0 -76 -22.5 -131t-57 -96.5t-75 -72t-76.5 -57.5t-61.5 -54t-29.5 -60l-18 -153h-122l-12 166q-4 45 17 78.5t55 63t75 58t76.5 63.5t59.5 79.5t24 106.5q0 43 -17 78
t-46 59.5t-68.5 37.5t-84.5 13q-61 0 -104.5 -15t-73.5 -33t-48.5 -33t-30.5 -15q-25 0 -39 23zM276 110q0 26 9.5 49t26 40t39.5 27t49 10t49 -10t40 -27t27 -40t10 -49q0 -27 -10 -49.5t-27 -39.5t-40 -26.5t-49 -9.5t-49 9.5t-39.5 26.5t-26 39.5t-9.5 49.5z" />
    <glyph glyph-name="comma" unicode="," horiz-adv-x="454" 
d="M107 123q0 47 32.5 80t86.5 33q30 0 53 -11t38.5 -30.5t23.5 -45t8 -55.5q0 -45 -12.5 -93.5t-37 -96t-59.5 -92.5t-80 -83l-30 29q-8 7 -11 13t-3 15q0 7 4.5 14t10.5 13q10 11 25.5 29.5t31.5 42.5t29.5 53t19.5 62h-13q-52 0 -84.5 34.5t-32.5 88.5z" />
    <glyph glyph-name="semicolon" unicode=";" horiz-adv-x="523" 
d="M136 0zM141 123q0 47 32.5 80t86.5 33q30 0 53 -11t38.5 -30.5t23.5 -45t8 -55.5q0 -45 -12.5 -93.5t-37 -96t-59.5 -92.5t-80 -83l-30 29q-8 7 -11 13t-3 15q0 7 4.5 14t10.5 13q10 11 25.5 29.5t31.5 42.5t29.5 53t19.5 62h-13q-52 0 -84.5 34.5t-32.5 88.5zM136 860
q0 26 9.5 49t26 40t39.5 27t49 10t49 -10t40 -27t27 -40t10 -49q0 -27 -10 -49.5t-27 -39.5t-40 -26.5t-49 -9.5t-49 9.5t-39.5 26.5t-26 39.5t-9.5 49.5z" />
    <glyph glyph-name="colon" unicode=":" horiz-adv-x="500" 
d="M125 0zM125 110q0 26 9.5 49t26 40t39.5 27t49 10t49 -10t40 -27t27 -40t10 -49q0 -27 -10 -49.5t-27 -39.5t-40 -26.5t-49 -9.5t-49 9.5t-39.5 26.5t-26 39.5t-9.5 49.5zM125 860q0 26 9.5 49t26 40t39.5 27t49 10t49 -10t40 -27t27 -40t10 -49q0 -27 -10 -49.5
t-27 -39.5t-40 -26.5t-49 -9.5t-49 9.5t-39.5 26.5t-26 39.5t-9.5 49.5z" />
    <glyph glyph-name="period" unicode="." horiz-adv-x="472" 
d="M111 110q0 26 9.5 49t26 40t39.5 27t49 10t49 -10t40 -27t27 -40t10 -49q0 -27 -10 -49.5t-27 -39.5t-40 -26.5t-49 -9.5t-49 9.5t-39.5 26.5t-26 39.5t-9.5 49.5z" />
    <glyph glyph-name="ellipsis" unicode="&#x2026;" horiz-adv-x="1500" 
d="M111 0zM111 110q0 26 9.5 49t26 40t39.5 27t49 10t49 -10t40 -27t27 -40t10 -49q0 -27 -10 -49.5t-27 -39.5t-40 -26.5t-49 -9.5t-49 9.5t-39.5 26.5t-26 39.5t-9.5 49.5zM1140 110q0 26 9.5 49t26 40t39.5 27t49 10t49 -10t40 -27t27 -40t10 -49q0 -27 -10 -49.5
t-27 -39.5t-40 -26.5t-49 -9.5t-49 9.5t-39.5 26.5t-26 39.5t-9.5 49.5zM625 110q0 26 9.5 49t26 40t39.5 27t49 10t49 -10t40 -27t27 -40t10 -49q0 -27 -10 -49.5t-27 -39.5t-40 -26.5t-49 -9.5t-49 9.5t-39.5 26.5t-26 39.5t-9.5 49.5z" />
    <glyph glyph-name="quoteleft" unicode="&#x2018;" horiz-adv-x="428" 
d="M170 950q-42 71 -57 149.5t-3 155.5t50 147.5t101 126.5l54 -34q15 -10 13.5 -24.5t-9.5 -22.5q-26 -32 -44.5 -78t-23.5 -98.5t5 -108.5t41 -108q13 -21 7.5 -37.5t-24.5 -24.5z" />
    <glyph glyph-name="quoteright" unicode="&#x2019;" horiz-adv-x="427" 
d="M264 1529q42 -71 57 -150t3 -156t-50 -148t-101 -126l-54 35q-15 9 -13.5 23.5t9.5 23.5q26 32 44.5 77.5t24 98t-5 108.5t-41.5 108q-13 21 -7.5 37.5t24.5 24.5z" />
    <glyph glyph-name="quotedblleft" unicode="&#x201c;" horiz-adv-x="731" 
d="M98 950zM170 950q-42 71 -57 149.5t-3 155.5t50 147.5t101 126.5l54 -34q15 -10 13.5 -24.5t-9.5 -22.5q-26 -32 -44.5 -78t-23.5 -98.5t5 -108.5t41 -108q13 -21 7.5 -37.5t-24.5 -24.5zM474 950q-42 71 -57 149.5t-3 155.5t50 147.5t101 126.5l54 -34
q15 -10 13.5 -24.5t-9.5 -22.5q-26 -32 -44.5 -78t-23.5 -98.5t5 -108.5t41 -108q13 -21 7.5 -37.5t-24.5 -24.5z" />
    <glyph glyph-name="quotedblright" unicode="&#x201d;" horiz-adv-x="731" 
d="M104 949zM264 1529q42 -71 57 -150t3 -156t-50 -148t-101 -126l-54 35q-15 9 -13.5 23.5t9.5 23.5q26 32 44.5 77.5t24 98t-5 108.5t-41.5 108q-13 21 -7.5 37.5t24.5 24.5zM568 1529q42 -71 57 -150t3 -156t-50 -148t-101 -126l-54 35q-15 9 -13.5 23.5t9.5 23.5
q26 32 44.5 77.5t24 98t-5 108.5t-41.5 108q-13 21 -7.5 37.5t24.5 24.5z" />
    <glyph glyph-name="quotesinglbase" unicode="&#x201a;" horiz-adv-x="431" 
d="M252 262q42 -71 57 -150t3 -156t-50 -148t-101 -126l-54 35q-15 9 -13.5 23.5t9.5 23.5q26 32 44.5 77.5t24 98t-5 108.5t-41.5 108q-13 21 -7.5 37.5t24.5 24.5z" />
    <glyph glyph-name="quotedblbase" unicode="&#x201e;" horiz-adv-x="735" 
d="M92 0zM252 262q42 -71 57 -150t3 -156t-50 -148t-101 -126l-54 35q-15 9 -13.5 23.5t9.5 23.5q26 32 44.5 77.5t24 98t-5 108.5t-41.5 108q-13 21 -7.5 37.5t24.5 24.5zM556 262q42 -71 57 -150t3 -156t-50 -148t-101 -126l-54 35q-15 9 -13.5 23.5t9.5 23.5
q26 32 44.5 77.5t24 98t-5 108.5t-41.5 108q-13 21 -7.5 37.5t24.5 24.5z" />
    <glyph glyph-name="guilsinglleft" unicode="&#x2039;" horiz-adv-x="562" 
d="M100 518v23l249 389l58 -28q23 -11 27.5 -31.5t-9.5 -43.5l-158 -261q-14 -24 -28 -37q15 -14 28 -36l158 -261q14 -23 9.5 -43.5t-27.5 -31.5l-58 -28z" />
    <glyph glyph-name="guilsinglright" unicode="&#x203a;" horiz-adv-x="563" 
d="M463 541v-23l-249 -389l-58 28q-23 11 -27.5 31.5t9.5 43.5l158 261q7 12 14 21t14 15q-14 13 -28 37l-158 261q-14 23 -9.5 43.5t27.5 31.5l58 28z" />
    <glyph glyph-name="guillemotleft" unicode="&#xab;" horiz-adv-x="858" 
d="M100 129zM100 518v23l249 389l58 -28q23 -11 27.5 -31.5t-9.5 -43.5l-158 -261q-14 -24 -28 -37q15 -14 28 -36l158 -261q14 -23 9.5 -43.5t-27.5 -31.5l-58 -28zM396 518v23l249 389l58 -28q23 -11 27.5 -31.5t-9.5 -43.5l-158 -261q-14 -24 -28 -37q15 -14 28 -36
l158 -261q14 -23 9.5 -43.5t-27.5 -31.5l-58 -28z" />
    <glyph glyph-name="guillemotright" unicode="&#xbb;" horiz-adv-x="859" 
d="M124 129zM463 541v-23l-249 -389l-58 28q-23 11 -27.5 31.5t9.5 43.5l158 261q7 12 14 21t14 15q-14 13 -28 37l-158 261q-14 23 -9.5 43.5t27.5 31.5l58 28zM759 541v-23l-249 -389l-58 28q-23 11 -27.5 31.5t9.5 43.5l158 261q7 12 14 21t14 15q-14 13 -28 37l-158 261
q-14 23 -9.5 43.5t27.5 31.5l58 28z" />
    <glyph glyph-name="slash" unicode="/" horiz-adv-x="904" 
d="M239 -21q-13 -35 -40.5 -52t-56.5 -17h-75l601 1497q12 32 36.5 49t56.5 17h76z" />
    <glyph glyph-name="bar" unicode="|" horiz-adv-x="501" 
d="M181 1533h139v-1882h-139v1882z" />
    <glyph glyph-name="backslash" unicode="\" horiz-adv-x="904" 
d="M67 1473h76q32 0 56.5 -17t36.5 -49l601 -1497h-75q-29 0 -57 17t-40 52z" />
    <glyph glyph-name="hyphen" unicode="-" horiz-adv-x="743" 
d="M125 675h494v-151h-494v151z" />
    <glyph glyph-name="hyphen" unicode="&#x2010;" horiz-adv-x="743" 
d="M125 675h494v-151h-494v151z" />
    <glyph glyph-name="hyphen" unicode="&#xad;" horiz-adv-x="743" 
d="M125 675h494v-151h-494v151z" />
    <glyph glyph-name="endash" unicode="&#x2013;" horiz-adv-x="1160" 
d="M180 655h800v-130h-800v130z" />
    <glyph glyph-name="emdash" unicode="&#x2014;" horiz-adv-x="1587" 
d="M128 655h1330v-130h-1330v130z" />
    <glyph glyph-name="underscore" unicode="_" horiz-adv-x="918" 
d="M853 -165v-120h-788v120h788z" />
    <glyph glyph-name="bullet" unicode="&#x2022;" horiz-adv-x="1160" 
d="M209 595q0 77 29.5 145t79.5 118.5t117.5 80t143.5 29.5q77 0 144.5 -29.5t118 -80t80 -118.5t29.5 -145t-29.5 -144.5t-80 -117.5t-118 -79.5t-144.5 -29.5q-76 0 -143.5 29.5t-117.5 79.5t-79.5 117.5t-29.5 144.5z" />
    <glyph glyph-name="periodcentered" unicode="&#xb7;" horiz-adv-x="520" 
d="M111 593q0 31 11.5 59t32 48t47 32t56.5 12q31 0 59 -12t48 -32t32 -48t12 -59q0 -30 -12 -57t-32 -47.5t-48 -32t-59 -11.5q-30 0 -56.5 11.5t-47 32t-32 47.5t-11.5 57z" />
    <glyph glyph-name="periodcentered" unicode="&#x2219;" horiz-adv-x="520" 
d="M111 593q0 31 11.5 59t32 48t47 32t56.5 12q31 0 59 -12t48 -32t32 -48t12 -59q0 -30 -12 -57t-32 -47.5t-48 -32t-59 -11.5q-30 0 -56.5 11.5t-47 32t-32 47.5t-11.5 57z" />
    <glyph glyph-name="parenleft" unicode="(" horiz-adv-x="534" 
d="M245 629q0 -214 54.5 -416t159.5 -384q16 -31 8 -47.5t-23 -26.5l-79 -48q-75 115 -127.5 228t-85 227t-47.5 229.5t-15 237.5q0 121 15 237t47.5 229.5t85 226.5t127.5 229l79 -49q15 -10 23 -26.5t-8 -46.5q-105 -182 -159.5 -384t-54.5 -416z" />
    <glyph glyph-name="parenright" unicode=")" horiz-adv-x="534" 
d="M289 629q0 214 -54.5 416t-159.5 384q-8 15 -10 26.5t1 20t9.5 15t14.5 11.5l79 49q75 -116 127.5 -229t85 -226.5t47.5 -229.5t15 -237q0 -122 -15 -237.5t-47.5 -229.5t-85 -227t-127.5 -228l-79 48q-8 5 -14.5 11.5t-9.5 15t-1 20.5t10 27q105 182 159.5 384t54.5 416
z" />
    <glyph glyph-name="bracketleft" unicode="[" horiz-adv-x="612" 
d="M182 -289v1822h368v-70q0 -20 -13.5 -33.5t-35.5 -13.5h-169v-1587h169q22 0 35.5 -14t13.5 -34v-70h-368z" />
    <glyph glyph-name="bracketright" unicode="]" horiz-adv-x="612" 
d="M62 -219q0 20 13.5 34t35.5 14h169v1587h-169q-22 0 -35.5 13.5t-13.5 33.5v70h368v-1822h-368v70z" />
    <glyph glyph-name="braceleft" unicode="{" horiz-adv-x="602" 
d="M204 425q0 63 -35 103.5t-101 40.5v107q66 0 101 40t35 104q0 50 -8 99t-17 98t-17 99t-8 102q0 69 20.5 127t62 100t103 65t142.5 23h54v-79q0 -20 -14 -29t-26 -9h-20q-78 0 -122 -50.5t-44 -136.5q0 -56 7 -108t16 -101.5t16 -98.5t7 -99q0 -38 -11 -70.5t-31.5 -58
t-48 -44t-60.5 -27.5q33 -9 60.5 -27.5t48 -44.5t31.5 -58t11 -69q0 -50 -7 -99t-16 -98.5t-16 -101.5t-7 -108q0 -87 44 -137t122 -50h20q12 0 26 -9t14 -29v-80h-54q-81 0 -142.5 23.5t-103 65.5t-62 100t-20.5 127q0 52 8 101.5t17 99t17 98.5t8 99z" />
    <glyph glyph-name="braceright" unicode="}" horiz-adv-x="602" 
d="M398 425q0 -50 8 -99t17 -98.5t17 -99t8 -101.5q0 -69 -20.5 -127t-62 -100t-103 -65.5t-142.5 -23.5h-54v80q0 20 14.5 29t25.5 9h20q78 0 122 50t44 137q0 56 -7 108t-16 101.5t-16 98.5t-7 99q0 37 11 69t31.5 58t48 44.5t60.5 27.5q-33 9 -60.5 27.5t-48 44t-31.5 58
t-11 70.5q0 50 7 99t16 98.5t16 101.5t7 108q0 86 -44 136.5t-122 50.5h-20q-11 0 -25.5 9t-14.5 29v79h54q81 0 142.5 -23t103 -65t62 -100t20.5 -127q0 -52 -8 -102t-17 -99t-17 -98t-8 -99q0 -64 35 -104t101 -40v-107q-66 0 -101 -40.5t-35 -103.5z" />
    <glyph glyph-name="asterisk" unicode="*" horiz-adv-x="850" 
d="M381 863v197q0 19 2.5 36t9.5 33q-20 -25 -53 -45l-172 -99l-44 75l172 100q36 21 73 24q-20 2 -37.5 7.5t-35.5 17.5l-173 101l44 75l173 -100q18 -11 32 -23t25 -29q-9 18 -12.5 36.5t-3.5 38.5v198h88v-197q0 -41 -14 -72q11 15 24.5 26t30.5 22l172 99l44 -75
l-172 -100q-17 -11 -33.5 -17t-34.5 -8q18 -2 34.5 -7.5t33.5 -16.5l173 -101l-44 -75l-173 100q-18 11 -32 22t-25 27q16 -33 16 -72v-198h-88z" />
    <glyph glyph-name="dagger" unicode="&#x2020;" horiz-adv-x="1160" 
d="M118 918q0 31 20 55t64 24q69 -1 149.5 -14t159.5 -20l-24 488q40 23 93 23t93 -23l-24 -488q39 3 79 9t80 11t77.5 9.5t72.5 4.5q44 0 64 -24t20 -55v-60h-393v-416l24 -777q-40 -23 -93 -23t-93 23l24 777v416h-393v60z" />
    <glyph glyph-name="daggerdbl" unicode="&#x2021;" horiz-adv-x="1160" 
d="M118 258h393v600h-393v60q0 31 20 55t64 24q69 -1 149.5 -14t159.5 -20l-24 488q40 23 93 23t93 -23l-24 -488q39 3 79 9t80 11t77.5 9.5t72.5 4.5q44 0 64 -24t20 -55v-60h-393v-600h393v-60q0 -31 -20 -55t-64 -24q-69 1 -150 13.5t-159 19.5l24 -487q-40 -23 -93 -23
t-93 23l24 487q-79 -7 -159.5 -19.5t-149.5 -13.5q-44 0 -64 24t-20 55v60z" />
    <glyph glyph-name="section" unicode="&#xa7;" horiz-adv-x="990" 
d="M805 1265q-14 -22 -37 -22q-15 0 -34.5 11t-47 24.5t-65.5 25t-90 11.5q-48 0 -86 -12.5t-65 -33.5t-41 -49t-14 -59q0 -38 24.5 -66.5t64 -52t90.5 -45t103.5 -44.5t103.5 -50.5t90.5 -63t64 -81.5t24.5 -107q0 -81 -39 -144.5t-123 -101.5q49 -37 80 -86t31 -118
q0 -70 -25 -129.5t-73.5 -103t-120 -68.5t-163.5 -25q-106 0 -192 34.5t-146 88.5l42 68q8 13 19 20t28 7q18 0 38 -14t49.5 -31.5t71.5 -31.5t105 -14q51 0 90.5 12.5t66.5 35t41 53.5t14 69q0 45 -25 78t-66 58.5t-93.5 46.5t-107 43t-107 47.5t-93.5 60.5t-66 81.5
t-25 110.5q0 78 43 140.5t136 97.5q-50 38 -81.5 90.5t-31.5 127.5q0 58 24 111.5t70 93.5t113.5 64t153.5 24q99 0 178.5 -31t137.5 -86zM259 726q0 -51 35 -86.5t89.5 -64.5t120.5 -55t128 -57q54 26 78 63.5t24 84.5q0 36 -15 64t-41 51t-61 42t-74.5 36.5t-81.5 35
t-82 37.5q-66 -30 -93 -66.5t-27 -84.5z" />
    <glyph glyph-name="paragraph" unicode="&#xb6;" horiz-adv-x="1401" 
d="M1330 1433v-153h-219v-1481h-157v1481h-277v-1481h-157v861q-104 0 -187 30.5t-141.5 83t-90 123.5t-31.5 152q0 86 31.5 156.5t90 121t141.5 78.5t187 28h810z" />
    <glyph glyph-name="asciicircum" unicode="^" horiz-adv-x="1160" 
d="M1028 696h-130q-17 0 -29.5 9.5t-19.5 24.5l-230 443q-26 53 -40 97q-7 -23 -16 -47t-20 -50l-223 -443q-6 -14 -19 -24t-33 -10h-136l388 737h115z" />
    <glyph glyph-name="asciitilde" unicode="~" horiz-adv-x="1160" 
d="M763 613q65 0 101.5 42.5t37.5 112.5h144q0 -67 -18.5 -123t-53 -96t-85.5 -62t-115 -22q-52 0 -103 16t-98.5 35.5t-90.5 36t-79 16.5q-65 0 -101.5 -42t-37.5 -113h-144q0 67 18.5 123t53 96t85 62.5t115.5 22.5q52 0 103 -16.5t98.5 -36t90.5 -36t79 -16.5z" />
    <glyph glyph-name="quotesingle" unicode="'" horiz-adv-x="408" 
d="M282 1433v-290l-16 -155q-5 -32 -18.5 -49.5t-43.5 -17.5q-27 0 -41.5 17.5t-19.5 49.5l-16 155v290h155z" />
    <glyph glyph-name="quotedbl" unicode="&#x22;" horiz-adv-x="741" 
d="M127 921zM282 1433v-290l-16 -155q-5 -32 -18.5 -49.5t-43.5 -17.5q-27 0 -41.5 17.5t-19.5 49.5l-16 155v290h155zM615 1433v-290l-16 -155q-5 -32 -18.5 -49.5t-43.5 -17.5q-27 0 -41.5 17.5t-19.5 49.5l-16 155v290h155z" />
    <glyph glyph-name="ampersand" unicode="&#x26;" horiz-adv-x="1424" 
d="M667 1449q79 0 144 -25.5t112 -67.5t74.5 -97.5t31.5 -115.5l-111 -22q-33 -8 -49 31q-7 26 -22.5 54t-40 51t-59 38t-80.5 15q-50 0 -90.5 -16t-69 -44.5t-43.5 -67t-15 -83.5q0 -35 8 -67t25.5 -65t44.5 -67t65 -72l412 -419q38 68 60.5 141t30.5 147q2 19 12 30t28 11
h109q-1 -115 -36.5 -225.5t-100.5 -207.5l300 -305h-173q-29 0 -47 7t-39 29l-145 145q-94 -91 -216.5 -144t-269.5 -53q-80 0 -156.5 27t-137.5 78.5t-98 125.5t-37 167q0 70 23.5 132.5t65 115.5t99 95t125.5 72q-62 77 -90.5 150t-28.5 151q0 73 26.5 137t76.5 111.5
t121.5 75t160.5 27.5zM548 129q112 0 201 41t157 109l-423 427q-106 -57 -159.5 -136.5t-53.5 -173.5q0 -65 24 -114.5t63 -83.5t89 -51.5t102 -17.5z" />
    <glyph glyph-name="at" unicode="@" horiz-adv-x="1673" 
d="M1185 186q-77 0 -126 37t-63 115q-58 -80 -126 -115t-146 -35q-59 0 -103.5 20.5t-73.5 57t-43.5 86.5t-14.5 108q0 85 32.5 171.5t96.5 156t159 113.5t220 44q67 0 118 -10.5t96 -30.5l-94 -361q-20 -76 -19 -123.5t15.5 -74.5t40.5 -36.5t57 -9.5q49 0 93 28t77.5 79
t53 122.5t19.5 158.5q0 138 -44 242t-121.5 173.5t-183 104t-227.5 34.5q-134 0 -251 -51t-204 -141t-137.5 -213t-50.5 -268q0 -170 53.5 -298.5t146 -215.5t217.5 -131t268 -44q152 0 268.5 33t201.5 84q20 12 35 7.5t22 -22.5l26 -66q-108 -72 -244.5 -113t-308.5 -41
q-174 0 -323 55t-258.5 158.5t-172 253.5t-62.5 340q0 109 27.5 210t77.5 188.5t120 160t156 124t185.5 80t207.5 28.5q92 0 180 -20t166.5 -59t144 -96.5t113.5 -132t74.5 -166t26.5 -198.5q0 -108 -30.5 -199.5t-84 -158.5t-126.5 -105t-157 -38zM759 306q31 0 62.5 10
t61 35t54.5 68t42 108l76 295q-39 9 -86 9q-75 0 -137.5 -31.5t-107.5 -82.5t-70.5 -117t-25.5 -135q0 -72 33 -115.5t98 -43.5z" />
    <glyph glyph-name="copyright" unicode="&#xa9;" horiz-adv-x="1663" 
d="M1087 474q15 1 27 -11l60 -64q-57 -66 -139.5 -102.5t-198.5 -36.5q-98 0 -178.5 34t-138 95t-89 145t-31.5 184q0 101 34 185.5t95 145t144.5 94t181.5 33.5q109 0 184.5 -33.5t132.5 -89.5l-46 -65q-5 -6 -13 -12t-19 -6q-14 0 -29.5 11t-40.5 24.5t-63.5 25
t-96.5 11.5q-71 0 -127 -22.5t-96 -64.5t-61 -102t-21 -135q0 -77 21.5 -137.5t59.5 -101.5t90.5 -62.5t114.5 -21.5q52 0 87 8t61.5 19.5t48 25.5t46.5 26zM101 716q0 101 26 194.5t74 175t114.5 148t147.5 114.5t174 74t194 26t194.5 -26t174.5 -74t148 -114.5t114.5 -148
t73.5 -175t26 -194.5q0 -100 -26 -193.5t-73.5 -174.5t-114.5 -147.5t-148 -114.5t-174.5 -74t-194.5 -26t-194 26t-174 74t-147.5 114.5t-114.5 147.5t-74 174t-26 194zM202 716q0 -89 22 -171t62.5 -153.5t98 -129.5t127 -99.5t150.5 -64t169 -22.5t169.5 22.5t152 64
t128 99.5t98.5 129.5t63.5 153.5t22.5 171q0 134 -49.5 251.5t-135 205t-201.5 138t-248 50.5q-88 0 -169 -23t-150.5 -64.5t-127 -100.5t-98 -130.5t-62.5 -154.5t-22 -172z" />
    <glyph glyph-name="registered" unicode="&#xae;" horiz-adv-x="1663" 
d="M101 716q0 101 26 194.5t74 175t114.5 148t147.5 114.5t174 74t194 26t194.5 -26t174.5 -74t148 -114.5t114.5 -148t73.5 -175t26 -194.5q0 -100 -26 -193.5t-73.5 -174.5t-114.5 -147.5t-148 -114.5t-174.5 -74t-194.5 -26t-194 26t-174 74t-147.5 114.5t-114.5 147.5
t-74 174t-26 194zM202 716q0 -89 22 -171t62.5 -153.5t98 -129.5t127 -99.5t150.5 -64t169 -22.5t169.5 22.5t152 64t128 99.5t98.5 129.5t63.5 153.5t22.5 171q0 134 -49.5 251.5t-135 205t-201.5 138t-248 50.5q-88 0 -169 -23t-150.5 -64.5t-127 -100.5t-98 -130.5
t-62.5 -154.5t-22 -172zM688 626v-354h-156v892h287q173 0 255.5 -62.5t82.5 -184.5q0 -94 -53 -160t-159 -91q17 -10 29.5 -25t23.5 -35l228 -334h-149q-33 0 -48 25l-202 302q-9 13 -21.5 20t-38.5 7h-79zM688 740h115q111 0 156 40.5t45 116.5q0 37 -9.5 65t-31 46
t-57 27t-87.5 9h-131v-304z" />
    <glyph glyph-name="trademark" unicode="&#x2122;" horiz-adv-x="1501" 
d="M988 1109q6 -14 10.5 -26.5t9.5 -26.5q7 25 21 53l169 303q10 13 17.5 17t24.5 4h105v-592h-109v365l8 74l-183 -335q-12 -28 -43 -28h-18q-31 0 -44 28l-184 334l9 -73v-365h-111v592h106q17 0 24.5 -4t18.5 -17zM574 1433v-105h-180v-487h-125v487h-181v105h486z" />
    <glyph glyph-name="degree" unicode="&#xb0;" horiz-adv-x="829" 
d="M89 1128q0 67 25 126t69 102.5t103 68.5t128 25t128.5 -25t103.5 -68.5t69.5 -102.5t25.5 -126q0 -66 -25.5 -124.5t-69.5 -102t-103.5 -69t-128.5 -25.5t-128 25.5t-103 69t-69 102t-25 124.5zM215 1127q0 -42 15 -78.5t42 -63.5t63.5 -42.5t78.5 -15.5t78.5 15.5
t63.5 42.5t42 63.5t15 78.5t-15 79t-42 64.5t-63.5 43t-78.5 15.5t-78.5 -15.5t-63.5 -43t-42 -64.5t-15 -79z" />
    <glyph glyph-name="Euro" unicode="&#x20ac;" horiz-adv-x="1160" 
d="M23 899h147q20 126 67.5 227.5t118 173t162 109.5t199.5 38q67 0 124 -13t105.5 -37t89.5 -59t76 -79l-62 -68q-7 -9 -15.5 -15.5t-22.5 -6.5q-17 0 -35.5 19t-49.5 42t-79 42t-123 19q-146 0 -242.5 -100t-128.5 -292h547v-55q0 -18 -13.5 -32.5t-38.5 -14.5h-507
q-1 -20 -1.5 -40t-0.5 -41v-31t1 -30h467v-56q0 -17 -14.5 -31.5t-37.5 -14.5h-406q28 -206 123.5 -309t241.5 -103q54 0 95 10.5t71 26.5t51.5 34.5t37.5 34.5t28.5 26.5t24.5 10.5q9 0 15 -3t14 -11l75 -70q-71 -101 -175 -158t-246 -57q-116 0 -209 39.5t-161.5 113
t-111.5 179t-59 236.5h-142v102h134q-1 15 -1 30v31q0 20 0.5 40.5t1.5 40.5h-135v102z" />
    <glyph glyph-name="dollar" unicode="$" horiz-adv-x="1160" 
d="M490 -12q-121 11 -220.5 59.5t-171.5 123.5l54 82q8 11 20 18t26 7q19 0 43 -19t59 -43.5t83.5 -47.5t116.5 -31l37 531q-70 21 -137.5 47.5t-121 69t-86 107t-32.5 161.5q0 73 28.5 142.5t83.5 123.5t135 88.5t183 38.5l10 144q1 19 14.5 34t35.5 15h66l-14 -198
q105 -13 181.5 -54t135.5 -99l-43 -66q-20 -30 -46 -30q-14 0 -34.5 12.5t-49 29t-67 33t-87.5 23.5l-33 -484q72 -22 142 -48t126 -67t90.5 -102.5t34.5 -153.5q0 -90 -30 -169t-87.5 -139t-141 -97.5t-190.5 -43.5l-12 -176q-1 -19 -15 -33.5t-35 -14.5h-66zM883 407
q0 50 -18.5 86t-50.5 62t-75 45t-92 35l-34 -498q66 6 116 28.5t84.5 57.5t52 81.5t17.5 102.5zM328 1071q0 -48 17 -83.5t47 -62.5t70 -47t87 -36l30 451q-65 -6 -112.5 -26t-78 -50t-45.5 -67.5t-15 -78.5z" />
    <glyph glyph-name="cent" unicode="&#xa2;" horiz-adv-x="1160" 
d="M562 -11q-92 10 -169.5 49.5t-134 105.5t-88 157t-31.5 205q0 111 33 204.5t96 162.5t155 109.5t211 43.5l13 179q2 20 15 34.5t34 14.5h67l-16 -233q82 -12 147.5 -43.5t119.5 -80.5l-46 -62q-8 -11 -15.5 -16.5t-21.5 -5.5q-12 0 -28 8.5t-39 20.5t-54 24t-73 19
l-53 -762q63 4 105.5 19.5t72 32.5t48.5 31t35 14q11 0 20 -4.5t14 -11.5l49 -63q-60 -71 -153 -108.5t-200 -44.5l-12 -175q-2 -19 -15 -33.5t-35 -14.5h-66zM316 506q0 -161 67.5 -257.5t188.5 -119.5l53 760q-153 -11 -231 -112t-78 -271z" />
    <glyph glyph-name="sterling" unicode="&#xa3;" horiz-adv-x="1160" 
d="M48 672q0 26 16 44t45 18h134v261q0 94 27 176.5t82 144t136.5 97t191.5 35.5q78 0 139 -19.5t108 -53.5t81.5 -79t58.5 -97l-72 -46q-26 -13 -48.5 -11t-42.5 25q-19 27 -39.5 50t-46.5 40.5t-59.5 27.5t-78.5 10q-63 0 -110.5 -21t-79.5 -60t-48 -94t-16 -123v-263h440
v-72q0 -18 -14.5 -33t-37.5 -15h-388v-243q0 -75 -28.5 -129.5t-78.5 -99.5q28 5 57 8.5t58 3.5h677v-76q0 -14 -5.5 -27.5t-16 -25t-24.5 -18.5t-32 -7h-964v115q34 10 65.5 27t55.5 42.5t38.5 60t14.5 80.5v289h-195v58z" />
    <glyph glyph-name="yen" unicode="&#xa5;" horiz-adv-x="1160" 
d="M150 625h307l-408 808h148q26 0 42.5 -12.5t24.5 -32.5l277 -566q14 -34 23.5 -63t16.5 -58q7 29 16 58t23 63l276 566q8 17 24.5 31t41.5 14h149l-409 -808h308v-102h-341v-105h341v-103h-341v-315h-178v315h-341v103h341v105h-341v102z" />
    <glyph glyph-name="numbersign" unicode="#" horiz-adv-x="1160" 
d="M793 423l-84 -423h-81q-13 0 -24 6t-18.5 16t-10.5 24t0 31l71 346h-247l-71 -355q-6 -37 -29 -52.5t-52 -15.5h-80l85 423h-146q-28 0 -40.5 16.5t-6.5 57.5l8 57h204l65 326h-232l13 74q5 29 23.5 43t56.5 14h158l72 358q6 30 27.5 47t51.5 17h80l-84 -422h247l84 422
h79q29 0 45.5 -19t11.5 -48l-73 -355h212l-13 -75q-5 -29 -23.5 -42.5t-56.5 -13.5h-138l-65 -326h179q29 0 41.5 -16.5t6.5 -57.5l-9 -57h-237zM418 554h247l65 326h-247z" />
    <glyph glyph-name="zero" unicode="0" horiz-adv-x="1160" 
d="M1100 716q0 -188 -40.5 -325.5t-110.5 -227.5t-165.5 -134t-204.5 -44q-110 0 -204.5 44t-164.5 134t-110 227.5t-40 325.5t40 326t110 228.5t164.5 134.5t204.5 44q109 0 204.5 -44t165.5 -134.5t110.5 -228.5t40.5 -326zM915 716q0 164 -27.5 275.5t-74 179.5
t-107.5 97.5t-127 29.5t-127 -29.5t-107 -97.5t-73.5 -179.5t-27.5 -275.5t27.5 -275t73.5 -179t107 -97.5t127 -29.5t127 29.5t107.5 97.5t74 179t27.5 275z" />
    <glyph glyph-name="one" unicode="1" horiz-adv-x="1160" 
d="M250 136h307v977q0 42 3 89l-255 -219q-13 -11 -26 -13.5t-24 -0.5t-20.5 8t-14.5 13l-56 77l427 369h145v-1300h282v-136h-768v136z" />
    <glyph glyph-name="two" unicode="2" horiz-adv-x="1160" 
d="M591 1449q91 0 170 -27t137 -78.5t91 -125.5t33 -168q0 -80 -24 -148.5t-65 -130.5t-94.5 -121t-113.5 -119l-378 -386q40 11 81 17.5t79 6.5h480q29 0 46 -17t17 -44v-108h-956v61q0 19 8 39t25 37l459 461q57 58 104 111.5t80 107.5t51 109.5t18 118.5t-20 110.5
t-54.5 78.5t-81.5 46.5t-101 15.5q-55 0 -101 -16t-81.5 -44.5t-59.5 -67.5t-34 -86q-12 -35 -32.5 -46.5t-57.5 -6.5l-93 16q14 98 54.5 173.5t102 126.5t140.5 77.5t171 26.5z" />
    <glyph glyph-name="three" unicode="3" horiz-adv-x="1160" 
d="M598 1449q91 0 168 -26t132.5 -74t86.5 -116t31 -151q0 -68 -17.5 -121.5t-50 -94t-78.5 -68.5t-103 -45q140 -37 210.5 -124t70.5 -218q0 -99 -37.5 -178t-102.5 -134.5t-151.5 -85t-185.5 -29.5q-114 0 -195 28.5t-137 78.5t-92 118.5t-61 148.5l77 32q30 13 58.5 7
t41.5 -33q13 -28 32.5 -67t53.5 -75t86.5 -61t133.5 -25q75 0 131.5 24.5t94 63.5t56.5 87t19 95q0 58 -15 106t-56 83t-112.5 55t-183.5 20v129q92 1 156.5 20t105 52t59 79t18.5 102q0 62 -19.5 108t-53.5 76t-80.5 45t-100.5 15t-100.5 -16t-82 -44.5t-59.5 -67.5
t-34 -86q-13 -35 -32.5 -46.5t-56.5 -6.5l-93 16q14 98 54 173.5t101.5 126.5t141 77.5t171.5 26.5z" />
    <glyph glyph-name="four" unicode="4" horiz-adv-x="1160" 
d="M886 517h217v-102q0 -16 -9.5 -27t-29.5 -11h-178v-377h-156v377h-636q-20 0 -34.5 11.5t-18.5 28.5l-18 91l697 925h166v-916zM730 1108q0 26 1.5 56.5t6.5 62.5l-522 -710h514v591z" />
    <glyph glyph-name="five" unicode="5" horiz-adv-x="1160" 
d="M982 1355q0 -38 -23.5 -62.5t-80.5 -24.5h-450l-66 -376q57 13 107.5 18.5t98.5 5.5q112 0 198 -33t143.5 -91t87 -137t29.5 -172q0 -114 -39.5 -206t-109 -157.5t-163.5 -100.5t-203 -35q-63 0 -121 12.5t-108.5 33.5t-93.5 48t-76 57l55 76q18 26 47 26q20 0 45 -15.5
t61 -34.5t84.5 -34.5t115.5 -15.5q75 0 135 24t103 68.5t66 106.5t23 139q0 67 -19.5 121t-59 92t-98.5 59t-138 21q-54 0 -112.5 -9t-119.5 -29l-112 33l115 670h679v-78z" />
    <glyph glyph-name="seven" unicode="7" horiz-adv-x="1160" 
d="M1081 1433v-80q0 -34 -7.5 -56t-14.5 -37l-594 -1197q-13 -26 -36 -44.5t-61 -18.5h-128l602 1182q13 25 26.5 46t30.5 40h-748q-17 0 -30 13.5t-13 30.5v121h973z" />
    <glyph glyph-name="nine" unicode="9" horiz-adv-x="1160" 
d="M699 571q22 29 41 55t36 52q-55 -44 -124 -67t-146 -23q-81 0 -153.5 27t-127.5 79.5t-87.5 129t-32.5 175.5q0 94 35 176t98 143t150 96t191 35q103 0 187 -34t144 -95t92.5 -146t32.5 -188q0 -62 -11.5 -117.5t-33 -109t-52.5 -106t-70 -107.5l-349 -504
q-13 -19 -37 -30.5t-55 -11.5h-164zM864 1007q0 67 -21.5 121.5t-59.5 92.5t-90.5 58.5t-115.5 20.5q-66 0 -120 -21.5t-93 -59.5t-60 -91t-21 -116q0 -68 19.5 -121.5t56 -90.5t89 -56t117.5 -19q72 0 127.5 23.5t93.5 62.5t58 90t20 106z" />
    <glyph glyph-name="fraction" unicode="&#x2044;" horiz-adv-x="280" 
d="M-187 53q-19 -31 -41 -42t-51 -11h-76l818 1372q18 29 41 45t55 16h77z" />
    <glyph glyph-name="plus" unicode="+" horiz-adv-x="1160" 
d="M652 1166v-427h408v-135h-408v-430h-145v430h-406v135h406v427h145z" />
    <glyph glyph-name="divide" unicode="&#xf7;" horiz-adv-x="1160" 
d="M100 739h959v-135h-959v135zM454 1026q0 26 9.5 49t26.5 40t39.5 27t49.5 10q26 0 48.5 -10t39.5 -27t27 -40t10 -49q0 -27 -10 -49.5t-27 -39.5t-39.5 -26.5t-48.5 -9.5q-27 0 -49.5 9.5t-39.5 26.5t-26.5 39.5t-9.5 49.5zM454 314q0 26 9.5 49t26.5 40t39.5 27t49.5 10
q26 0 48.5 -10t39.5 -27t27 -40t10 -49q0 -27 -10 -49.5t-27 -39.5t-39.5 -26.5t-48.5 -9.5q-27 0 -49.5 9.5t-39.5 26.5t-26.5 39.5t-9.5 49.5z" />
    <glyph glyph-name="equal" unicode="=" horiz-adv-x="1160" 
d="M150 574h860v-135h-860v135zM150 909h860v-135h-860v135z" />
    <glyph glyph-name="notequal" unicode="&#x2260;" horiz-adv-x="1160" 
d="M151 909h490l114 241h129l-114 -241h241v-135h-304l-95 -200h399v-135h-462l-119 -252h-129l119 252h-269v135h332l95 200h-427v135z" />
    <glyph glyph-name="approxequal" unicode="&#x2248;" horiz-adv-x="1160" 
d="M786 858q29 0 56 7t50 17.5t40.5 22.5t26.5 23l24 -114q-34 -47 -90.5 -70t-117.5 -23q-52 0 -103.5 16.5t-102 36.5t-98 36.5t-92.5 16.5q-30 0 -57.5 -6.5t-51 -17t-40.5 -23t-26 -24.5l-29 109q35 51 92 75.5t123 24.5q53 0 105 -16.5t102 -37t97.5 -37t91.5 -16.5z
M786 520q29 0 56 6.5t50 17t40.5 22.5t26.5 23l24 -113q-34 -48 -90.5 -71t-117.5 -23q-52 0 -103.5 16.5t-102 37t-98 37t-92.5 16.5q-30 0 -57.5 -7t-51 -17.5t-40.5 -23t-26 -24.5l-29 109q35 51 92 75.5t123 24.5q53 0 105 -16.5t102 -36.5t97.5 -36.5t91.5 -16.5z" />
    <glyph glyph-name="less" unicode="&#x3c;" horiz-adv-x="1160" 
d="M162 710l773 401v-127q0 -17 -8 -29.5t-28 -22.5l-449 -228q-20 -11 -42.5 -18.5t-47.5 -13.5q25 -5 47.5 -13t42.5 -18l449 -227q20 -10 28 -23t8 -29v-128l-773 402v74z" />
    <glyph glyph-name="greater" unicode="&#x3e;" horiz-adv-x="1160" 
d="M225 234v128q0 16 8 29t28 23l449 227q20 10 42 18t47 13q-25 6 -47 13.5t-42 18.5l-449 228q-20 10 -28 22.5t-8 29.5v127l773 -401v-74z" />
    <glyph glyph-name="plusminus" unicode="&#xb1;" horiz-adv-x="1160" 
d="M652 1202v-376h407v-136h-407v-368h-146v368h-405v136h405v376h146zM101 215h958v-135h-958v135z" />
    <glyph glyph-name="lessequal" unicode="&#x2264;" horiz-adv-x="1160" 
d="M185 791l774 377v-122q0 -16 -9 -30t-35 -25l-441 -207q-46 -18 -97 -30q26 -5 50.5 -13t46.5 -17l441 -209q26 -11 35 -25t9 -30v-122l-774 379v74zM185 215h774v-135h-774v135z" />
    <glyph glyph-name="greaterequal" unicode="&#x2265;" horiz-adv-x="1160" 
d="M975 791v-74l-774 -379v122q0 16 9 30t35 25l441 209q22 9 46 17t51 13q-53 12 -97 30l-441 207q-26 11 -35 25t-9 30v122zM975 80h-774v135h774v-135z" />
    <glyph glyph-name="logicalnot" unicode="&#xac;" horiz-adv-x="1160" 
d="M148 739h860v-424h-151v289h-709v135z" />
    <glyph glyph-name="infinity" unicode="&#x221e;" horiz-adv-x="1474" 
d="M1054 254q-56 0 -101.5 17t-84 46.5t-71 67.5t-60.5 80q-29 -42 -61.5 -80t-70.5 -67.5t-84 -46.5t-101 -17q-62 0 -118 24t-99 68.5t-68 106.5t-25 138t25 138t68 106t99 68.5t118 24.5q55 0 101 -17t84 -46.5t70.5 -67.5t61.5 -80q28 42 60.5 80t71 67.5t84 46.5
t101.5 17q62 0 118.5 -24.5t99 -68.5t67.5 -106t25 -138t-25 -138t-67.5 -106.5t-99 -68.5t-118.5 -24zM427 400q36 0 67 15t58.5 41.5t52.5 61t50 73.5q-25 39 -50 73.5t-52.5 60.5t-58.5 41.5t-67 15.5t-67.5 -12t-55.5 -35.5t-38 -59.5t-14 -84t14 -84t38 -59.5
t55.5 -35.5t67.5 -12zM1047 400q36 0 67.5 12t55 35.5t37.5 59.5t14 84t-14 84t-37.5 59.5t-55 35.5t-67.5 12t-67 -15.5t-59 -41.5t-53 -60.5t-50 -73.5q25 -39 50 -73.5t53 -61t59 -41.5t67 -15z" />
    <glyph glyph-name="partialdiff" unicode="&#x2202;" horiz-adv-x="1154" 
d="M341 1337q39 27 76 48t76 35t82 21t94 7q90 0 164 -37t126 -107t80.5 -171t28.5 -229q0 -202 -37 -370.5t-110.5 -290t-184 -189t-258.5 -67.5q-86 0 -158.5 28.5t-124.5 82t-81 129.5t-29 171q0 115 38 216t106.5 175t162.5 117t206 43q104 0 181 -44.5t125 -129.5
q2 36 2.5 69.5t0.5 59.5q0 198 -69.5 299.5t-192.5 101.5q-43 0 -78.5 -10t-63.5 -22.5t-49 -22.5t-34 -10q-11 0 -20 6t-20 24zM500 127q66 0 125 27.5t107 83t83.5 140.5t55.5 199q-10 44 -28.5 85.5t-49 74t-74 52t-102.5 19.5q-84 0 -149 -31t-109.5 -85.5t-67 -129
t-22.5 -161.5q0 -65 16.5 -116t46.5 -86t72.5 -53.5t95.5 -18.5z" />
    <glyph glyph-name="integral" unicode="&#x222b;" horiz-adv-x="1011" 
d="M486 1243q12 102 45 175t82.5 120t113.5 69.5t140 22.5q35 0 72 -6t67 -23l-10 -75q-3 -12 -7.5 -18.5t-14.5 -9.5t-26 -4t-41 -1q-59 0 -102.5 -13.5t-74 -42.5t-48.5 -75.5t-26 -112.5l-130 -1211q-12 -102 -45 -175t-82.5 -120.5t-114 -70t-139.5 -22.5q-35 0 -72 6.5
t-67 22.5l10 76q3 12 7.5 18.5t14 9.5t25.5 3.5t42 0.5q58 0 101.5 13.5t74 43t49 76t26.5 112.5z" />
    <glyph glyph-name="radical" unicode="&#x221a;" horiz-adv-x="1251" 
d="M684 0h-150l-250 663h-171q-28 0 -48.5 16.5t-20.5 57.5v57h335q23 0 37 -11t19 -26l149 -411q11 -33 17.5 -66.5t10.5 -67.5q5 27 11 55t14 57l433 1351q5 16 19 26.5t33 10.5h115z" />
    <glyph glyph-name="product" unicode="&#x220f;" horiz-adv-x="1383" 
d="M1313 1433v-153h-187v-1623h-184v1623h-501v-1623h-184v1623h-187v153h1243z" />
    <glyph glyph-name="summation" unicode="&#x2211;" horiz-adv-x="1366" 
d="M74 1433h1199v-153h-923l573 -709v-52l-573 -709h923v-153h-1199v65q0 14 4 28.5t15 26.5l629 770l-629 765q-11 13 -15 27.5t-4 28.5v65z" />
    <glyph glyph-name="lozenge" unicode="&#x25ca;" horiz-adv-x="1160" 
d="M106 701l412 821h124l412 -821l-412 -820h-124zM281 701l256 -528q29 -64 43 -130q8 32 18 64.5t26 64.5l258 529l-262 537q-28 57 -40 119q-7 -31 -16 -60t-23 -58z" />
    <glyph glyph-name="florin" unicode="&#x192;" horiz-adv-x="676" 
d="M187 861l-112 13q-22 5 -35 15.5t-13 30.5v73h160v98q0 87 24.5 154.5t69.5 114t109 70.5t144 24q68 0 126 -20l-5 -89q-2 -24 -26 -26t-66 -2q-46 0 -83.5 -12t-64 -39t-41 -71t-14.5 -109v-93h291v-129h-286v-895q0 -82 -20 -149t-61 -115t-104 -74t-149 -26
q-48 0 -86.5 8.5t-82.5 26.5l19 78q6 23 17 29.5t24 6.5t34 -7.5t59 -7.5q85 0 128.5 52t43.5 158v912z" />
    <glyph glyph-name="l" unicode="l" horiz-adv-x="472" 
d="M325 1473v-1473h-178v1473h178z" />
    <glyph glyph-name="six" unicode="6" horiz-adv-x="1160" 
d="M474 896q-20 -24 -37 -47t-34 -45q51 35 112.5 54.5t133.5 19.5q87 0 164 -28.5t134.5 -83t91.5 -134t34 -181.5q0 -99 -36 -184t-100.5 -148t-155 -99t-199.5 -36q-108 0 -196 34.5t-149.5 98t-95 154t-33.5 202.5q0 94 41.5 200.5t132.5 227.5l364 489q14 18 38.5 30.5
t56.5 12.5h158zM279 442q0 -69 20 -126t58.5 -98t94 -63.5t126.5 -22.5q72 0 130.5 23t100 64t64 97t22.5 122q0 70 -22 126.5t-62.5 96t-96.5 60.5t-123 21q-72 0 -130 -24.5t-98.5 -66t-62 -96t-21.5 -113.5z" />
    <glyph glyph-name="eight" unicode="8" horiz-adv-x="1160" 
d="M580 -16q-107 0 -196 28.5t-153 81.5t-99 128.5t-35 169.5q0 138 72 227.5t206 127.5q-113 42 -170.5 125.5t-57.5 199.5q0 79 31 148t88 120t136.5 80t177.5 29q97 0 177 -29t137 -80t88 -120t31 -148q0 -116 -58 -199.5t-170 -125.5q134 -38 206 -127.5t72 -227.5
q0 -94 -35.5 -169.5t-99 -128.5t-152.5 -81.5t-196 -28.5zM580 126q70 0 125.5 19.5t94 55t59 85t20.5 109.5q0 74 -24.5 126.5t-66 85.5t-95.5 48.5t-113 15.5t-113 -15.5t-95.5 -48.5t-66 -85.5t-24.5 -126.5q0 -60 20.5 -109.5t59 -85t94 -55t125.5 -19.5zM580 814
q70 0 119.5 21.5t80.5 57t45 81.5t14 95q0 50 -16.5 94t-49 77t-81 52t-112.5 19t-112.5 -19t-81 -52t-49 -77t-16.5 -94q0 -49 14 -95t45 -81.5t80.5 -57t119.5 -21.5z" />
    <glyph glyph-name="percent" unicode="%" horiz-adv-x="1603" 
d="M722 1087q0 -84 -26 -150.5t-69.5 -112t-101 -69.5t-121.5 -24q-67 0 -125 24t-100.5 69.5t-66.5 112t-24 150.5q0 86 24 153t66.5 113t100.5 70t125 24q68 0 126 -24t101 -70t67 -113t24 -153zM584 1087q0 66 -14 112t-38.5 75.5t-57.5 42.5t-70 13t-69 -13t-56 -42.5
t-38 -75.5t-14 -112q0 -65 14 -110.5t38 -74t56 -41t69 -12.5t70 12.5t57.5 41t38.5 74t14 110.5zM1229 1403q10 12 23.5 21t36.5 9h129l-1048 -1404q-9 -13 -23 -21t-34 -8h-131zM1515 338q0 -84 -26 -150t-69.5 -111.5t-101 -69.5t-121.5 -24q-68 0 -125.5 24t-100 69.5
t-66.5 111.5t-24 150q0 86 24 153.5t66.5 113.5t100 70t125.5 24q67 0 125.5 -24t101 -70t67 -113.5t24.5 -153.5zM1377 338q0 66 -14 112.5t-38.5 75.5t-57.5 42t-70 13t-69.5 -13t-56.5 -42t-37.5 -75.5t-13.5 -112.5q0 -65 13.5 -110t37.5 -73.5t56.5 -41t69.5 -12.5
t70 12.5t57.5 41t38.5 73.5t14 110z" />
    <glyph glyph-name="exclamdown" unicode="&#xa1;" horiz-adv-x="504" 
d="M168 -343v541q0 45 2 87.5t5 86t7.5 89.5t10.5 98h120q6 -52 10.5 -98t7.5 -89.5t5 -86t2 -87.5v-541h-170zM125 904q0 27 9.5 49.5t26.5 39.5t39.5 26.5t49.5 9.5q26 0 48.5 -9.5t39.5 -26.5t27 -39.5t10 -49.5q0 -26 -10 -49t-27 -40t-39.5 -27t-48.5 -10
q-27 0 -49.5 10t-39.5 27t-26.5 40t-9.5 49z" />
    <glyph glyph-name="questiondown" unicode="&#xbf;" horiz-adv-x="880" 
d="M808 -212q-31 -29 -68.5 -55t-81.5 -46t-96 -31.5t-112 -11.5q-79 0 -146 22t-116 63t-77 100t-28 134q0 76 22.5 129t57 91t75 65l76.5 51t61.5 48.5t29.5 57.5l18 154h121l12 -167q4 -47 -17 -79.5t-55 -58.5t-75 -50t-76.5 -54t-59.5 -71t-24 -101q0 -44 17 -78.5
t46.5 -59t68.5 -37.5t84 -13q61 0 104.5 15t74 33t49 33t30.5 15q26 0 38 -23zM362 903q0 26 9.5 49t26 40t39.5 27t49 10t49 -10t40 -27t27 -40t10 -49q0 -27 -10 -49.5t-27 -39.5t-40 -26.5t-49 -9.5t-49 9.5t-39.5 26.5t-26 39.5t-9.5 49.5z" />
    <glyph glyph-name="perthousand" unicode="&#x2030;" horiz-adv-x="2327" 
d="M722 1087q0 -84 -26 -150.5t-69.5 -112t-101 -69.5t-121.5 -24q-67 0 -125 24t-100.5 69.5t-66.5 112t-24 150.5q0 86 24 153t66.5 113t100.5 70t125 24q68 0 126 -24t101 -70t67 -113t24 -153zM584 1087q0 66 -14 112t-38.5 75.5t-57.5 42.5t-70 13t-69 -13t-56 -42.5
t-38 -75.5t-14 -112q0 -65 14 -110.5t38 -74t56 -41t69 -12.5t70 12.5t57.5 41t38.5 74t14 110.5zM1229 1403q10 12 23.5 21t36.5 9h129l-1048 -1404q-9 -13 -23 -21t-34 -8h-131zM1515 338q0 -84 -26 -150t-69.5 -111.5t-101 -69.5t-121.5 -24q-68 0 -125.5 24t-100 69.5
t-66.5 111.5t-24 150q0 86 24 153.5t66.5 113.5t100 70t125.5 24q67 0 125.5 -24t101 -70t67 -113.5t24.5 -153.5zM1377 338q0 66 -14 112.5t-38.5 75.5t-57.5 42t-70 13t-69.5 -13t-56.5 -42t-37.5 -75.5t-13.5 -112.5q0 -65 13.5 -110t37.5 -73.5t56.5 -41t69.5 -12.5
t70 12.5t57.5 41t38.5 73.5t14 110zM2248 338q0 -84 -26 -150t-69.5 -111.5t-101 -69.5t-120.5 -24q-68 0 -125.5 24t-100.5 69.5t-67 111.5t-24 150q0 86 24 153.5t67 113.5t100.5 70t125.5 24q67 0 125 -24t101 -70t67 -113.5t24 -153.5zM2110 338q0 66 -14 112.5
t-38.5 75.5t-57 42t-69.5 13t-69.5 -13t-56.5 -42t-37.5 -75.5t-13.5 -112.5q0 -65 13.5 -110t37.5 -73.5t56.5 -41t69.5 -12.5t69.5 12.5t57 41t38.5 73.5t14 110z" />
    <glyph glyph-name="uniF8FF" unicode="&#xf8ff;" horiz-adv-x="1578" 
d="M636 1471q-85 -58 -150.5 -149t-113.5 -201t-80.5 -232t-51.5 -241.5t-27.5 -229.5t-8.5 -195t11 -144.5t30.5 -104.5t45.5 -79t57 -68l-12 -12q-59 55 -106 113t-80.5 127.5t-51.5 155.5t-18 198q0 154 35 308.5t104 296t172.5 262.5t240.5 207zM1080 767h-174v-342
q0 -38 25.5 -60t78.5 -22q9 0 25 0.5t33 3.5l20 -214q-50 -20 -107 -31t-119 -11q-96 0 -160 23t-103 68t-55 111t-16 152v300l-100 46v218l120 12l100 244h258v-252h174v-246zM942 -173q85 57 150.5 148t113.5 200.5t80 231.5t52 241t28 228t8 195t-11 146.5t-30.5 105.5
t-45.5 79.5t-57 68.5l12 12q59 -56 106.5 -114t80.5 -128t51 -156t18 -196q0 -154 -35 -308.5t-104 -296t-172.5 -262.5t-240.5 -207z" />
    <glyph glyph-name="uni000D" unicode="&#xd;" horiz-adv-x="0" 
 />
    <glyph glyph-name="Agrave" unicode="&#xc0;" horiz-adv-x="1354" 
d="M6 0zM1348 0h-150q-26 0 -42 13t-24 33l-134 346h-643l-134 -346q-6 -18 -23 -32t-42 -14h-150l573 1433h196zM409 532h535l-225 583q-11 26 -21.5 60t-21.5 73q-10 -39 -20.5 -73.5t-21.5 -60.5zM500 1852q33 0 50 -5t34 -27l228 -274h-128q-22 0 -34.5 2.5t-27.5 16.5
l-312 287h190z" />
    <glyph glyph-name="Aacute" unicode="&#xc1;" horiz-adv-x="1354" 
d="M6 0zM1348 0h-150q-26 0 -42 13t-24 33l-134 346h-643l-134 -346q-6 -18 -23 -32t-42 -14h-150l573 1433h196zM409 532h535l-225 583q-11 26 -21.5 60t-21.5 73q-10 -39 -20.5 -73.5t-21.5 -60.5zM1055 1852l-326 -286q-15 -14 -29 -17t-34 -3h-128l231 274
q17 22 34.5 27t50.5 5h201z" />
    <glyph glyph-name="Acircumflex" unicode="&#xc2;" horiz-adv-x="1354" 
d="M6 0zM1348 0h-150q-26 0 -42 13t-24 33l-134 346h-643l-134 -346q-6 -18 -23 -32t-42 -14h-150l573 1433h196zM409 532h535l-225 583q-11 26 -21.5 60t-21.5 73q-10 -39 -20.5 -73.5t-21.5 -60.5zM997 1546h-130q-12 0 -28.5 4.5t-33.5 24.5l-117 141q-6 8 -12 17
l-12 -17l-117 -141q-17 -20 -33.5 -24.5t-28.5 -4.5h-125l239 271h160z" />
    <glyph glyph-name="Atilde" unicode="&#xc3;" horiz-adv-x="1354" 
d="M6 0zM1348 0h-150q-26 0 -42 13t-24 33l-134 346h-643l-134 -346q-6 -18 -23 -32t-42 -14h-150l573 1433h196zM409 532h535l-225 583q-11 26 -21.5 60t-21.5 73q-10 -39 -20.5 -73.5t-21.5 -60.5zM802 1663q23 0 40.5 8.5t29.5 23t18 32.5t6 36h109q0 -43 -12 -82.5
t-35.5 -70t-57.5 -48.5t-78 -18q-45 0 -80.5 16.5t-66 36t-57.5 36t-55 16.5q-23 0 -40 -9t-28.5 -23.5t-17.5 -32.5t-6 -36h-111q0 43 12.5 83t35.5 70.5t57 48.5t78 18q45 0 81 -16.5t66 -36t57 -36t55 -16.5z" />
    <glyph glyph-name="Adieresis" unicode="&#xc4;" horiz-adv-x="1354" 
d="M6 0zM1348 0h-150q-26 0 -42 13t-24 33l-134 346h-643l-134 -346q-6 -18 -23 -32t-42 -14h-150l573 1433h196zM409 532h535l-225 583q-11 26 -21.5 60t-21.5 73q-10 -39 -20.5 -73.5t-21.5 -60.5zM577 1666q0 -22 -9 -41.5t-24.5 -34.5t-36 -23.5t-42.5 -8.5
q-21 0 -40.5 8.5t-34.5 23.5t-24 34.5t-9 41.5q0 23 9 43.5t24 35.5t34.5 24t40.5 9q22 0 42.5 -9t36 -24t24.5 -35.5t9 -43.5zM995 1666q0 -22 -9 -41.5t-24 -34.5t-35 -23.5t-42 -8.5q-23 0 -43 8.5t-35 23.5t-23.5 34.5t-8.5 41.5q0 23 8.5 43.5t23.5 35.5t35 24t43 9
q22 0 42 -9t35 -24t24 -35.5t9 -43.5z" />
    <glyph glyph-name="Aring" unicode="&#xc5;" horiz-adv-x="1354" 
d="M6 0zM1348 0h-150q-26 0 -42 13t-24 33l-134 346h-643l-134 -346q-6 -18 -23 -32t-42 -14h-150l573 1433h196zM409 532h535l-225 583q-11 26 -21.5 60t-21.5 73q-10 -39 -20.5 -73.5t-21.5 -60.5zM487 1697q0 39 15.5 72t41 56t59.5 36t72 13q39 0 74 -13t61 -36
t41.5 -56t15.5 -72t-15.5 -71t-41.5 -55t-61 -36t-74 -13q-38 0 -72 13t-59.5 36t-41 55t-15.5 71zM576 1697q0 -44 27 -72t75 -28q45 0 72.5 28t27.5 72q0 45 -27.5 73t-72.5 28q-48 0 -75 -28t-27 -73z" />
    <glyph glyph-name="Egrave" unicode="&#xc8;" horiz-adv-x="1155" 
d="M183 0zM1066 1433v-158h-689v-476h558v-152h-558v-489h690l-1 -158h-883v1433h883zM460 1852q33 0 50 -5t34 -27l228 -274h-128q-22 0 -34.5 2.5t-27.5 16.5l-312 287h190z" />
    <glyph glyph-name="Eacute" unicode="&#xc9;" horiz-adv-x="1155" 
d="M183 0zM1066 1433v-158h-689v-476h558v-152h-558v-489h690l-1 -158h-883v1433h883zM1015 1852l-326 -286q-15 -14 -29 -17t-34 -3h-128l231 274q17 22 34.5 27t50.5 5h201z" />
    <glyph glyph-name="Ecircumflex" unicode="&#xca;" horiz-adv-x="1155" 
d="M183 0zM1066 1433v-158h-689v-476h558v-152h-558v-489h690l-1 -158h-883v1433h883zM958 1546h-130q-12 0 -28.5 4.5t-33.5 24.5l-117 141q-6 8 -12 17l-12 -17l-117 -141q-17 -20 -33.5 -24.5t-28.5 -4.5h-125l239 271h160z" />
    <glyph glyph-name="Edieresis" unicode="&#xcb;" horiz-adv-x="1155" 
d="M183 0zM1066 1433v-158h-689v-476h558v-152h-558v-489h690l-1 -158h-883v1433h883zM538 1666q0 -22 -9 -41.5t-24.5 -34.5t-36 -23.5t-42.5 -8.5q-21 0 -40.5 8.5t-34.5 23.5t-24 34.5t-9 41.5q0 23 9 43.5t24 35.5t34.5 24t40.5 9q22 0 42.5 -9t36 -24t24.5 -35.5
t9 -43.5zM956 1666q0 -22 -9 -41.5t-24 -34.5t-35 -23.5t-42 -8.5q-23 0 -43 8.5t-35 23.5t-23.5 34.5t-8.5 41.5q0 23 8.5 43.5t23.5 35.5t35 24t43 9q22 0 42 -9t35 -24t24 -35.5t9 -43.5z" />
    <glyph glyph-name="Igrave" unicode="&#xcc;" horiz-adv-x="560" 
d="M0 0zM377 0h-194v1433h194v-1433zM106 1852q33 0 50 -5t34 -27l228 -274h-128q-22 0 -34.5 2.5t-27.5 16.5l-312 287h190z" />
    <glyph glyph-name="Iacute" unicode="&#xcd;" horiz-adv-x="560" 
d="M144 0zM377 0h-194v1433h194v-1433zM661 1852l-326 -286q-15 -14 -29 -17t-34 -3h-128l231 274q17 22 34.5 27t50.5 5h201z" />
    <glyph glyph-name="Icircumflex" unicode="&#xce;" horiz-adv-x="560" 
d="M0 0zM377 0h-194v1433h194v-1433zM604 1546h-130q-12 0 -28.5 4.5t-33.5 24.5l-117 141q-6 8 -12 17l-12 -17l-117 -141q-17 -20 -33.5 -24.5t-28.5 -4.5h-125l239 271h160z" />
    <glyph glyph-name="Idieresis" unicode="&#xcf;" horiz-adv-x="560" 
d="M0 0zM377 0h-194v1433h194v-1433zM184 1666q0 -22 -9 -41.5t-24.5 -34.5t-36 -23.5t-42.5 -8.5q-21 0 -40.5 8.5t-34.5 23.5t-24 34.5t-9 41.5q0 23 9 43.5t24 35.5t34.5 24t40.5 9q22 0 42.5 -9t36 -24t24.5 -35.5t9 -43.5zM602 1666q0 -22 -9 -41.5t-24 -34.5
t-35 -23.5t-42 -8.5q-23 0 -43 8.5t-35 23.5t-23.5 34.5t-8.5 41.5q0 23 8.5 43.5t23.5 35.5t35 24t43 9q22 0 42 -9t35 -24t24 -35.5t9 -43.5z" />
    <glyph glyph-name="Ntilde" unicode="&#xd1;" horiz-adv-x="1527" 
d="M283 1433q13 0 22 -1.5t16 -5t14 -10t15 -16.5l829 -1079q-2 26 -3.5 50.5t-1.5 46.5v1015h170v-1433h-97q-23 0 -38.5 8t-30.5 27l-829 1079q2 -25 3 -49t1 -44v-1021h-170v1433h100zM904 1662q23 0 40.5 8.5t29.5 23t18 32.5t6 36h109q0 -43 -12 -82.5t-35.5 -70
t-57.5 -48.5t-78 -18q-45 0 -80.5 16.5t-66 36t-57.5 36t-55 16.5q-23 0 -40 -9t-28.5 -23.5t-17.5 -32.5t-6 -36h-111q0 43 12.5 83t35.5 70.5t57 48.5t78 18q45 0 81 -16.5t66 -36t57 -36t55 -16.5z" />
    <glyph glyph-name="Ograve" unicode="&#xd2;" horiz-adv-x="1601" 
d="M94 0zM1507 716q0 -161 -51 -295.5t-144 -231.5t-223.5 -150.5t-288.5 -53.5t-288 53.5t-223 150.5t-144 231.5t-51 295.5t51 295.5t144 232t223 151.5t288 54t288.5 -54t223.5 -151.5t144 -232t51 -295.5zM1308 716q0 132 -36 237t-102 177.5t-160 111.5t-210 39
q-115 0 -209 -39t-160.5 -111.5t-102.5 -177.5t-36 -237t36 -236.5t102.5 -177t160.5 -111t209 -38.5q116 0 210 38.5t160 111t102 177t36 236.5zM625 1852q33 0 50 -5t34 -27l228 -274h-128q-22 0 -34.5 2.5t-27.5 16.5l-312 287h190z" />
    <glyph glyph-name="Oacute" unicode="&#xd3;" horiz-adv-x="1601" 
d="M94 0zM1507 716q0 -161 -51 -295.5t-144 -231.5t-223.5 -150.5t-288.5 -53.5t-288 53.5t-223 150.5t-144 231.5t-51 295.5t51 295.5t144 232t223 151.5t288 54t288.5 -54t223.5 -151.5t144 -232t51 -295.5zM1308 716q0 132 -36 237t-102 177.5t-160 111.5t-210 39
q-115 0 -209 -39t-160.5 -111.5t-102.5 -177.5t-36 -237t36 -236.5t102.5 -177t160.5 -111t209 -38.5q116 0 210 38.5t160 111t102 177t36 236.5zM1180 1852l-326 -286q-15 -14 -29 -17t-34 -3h-128l231 274q17 22 34.5 27t50.5 5h201z" />
    <glyph glyph-name="Ocircumflex" unicode="&#xd4;" horiz-adv-x="1601" 
d="M94 0zM1507 716q0 -161 -51 -295.5t-144 -231.5t-223.5 -150.5t-288.5 -53.5t-288 53.5t-223 150.5t-144 231.5t-51 295.5t51 295.5t144 232t223 151.5t288 54t288.5 -54t223.5 -151.5t144 -232t51 -295.5zM1308 716q0 132 -36 237t-102 177.5t-160 111.5t-210 39
q-115 0 -209 -39t-160.5 -111.5t-102.5 -177.5t-36 -237t36 -236.5t102.5 -177t160.5 -111t209 -38.5q116 0 210 38.5t160 111t102 177t36 236.5zM1123 1546h-130q-12 0 -28.5 4.5t-33.5 24.5l-117 141q-6 8 -12 17l-12 -17l-117 -141q-17 -20 -33.5 -24.5t-28.5 -4.5h-125
l239 271h160z" />
    <glyph glyph-name="Otilde" unicode="&#xd5;" horiz-adv-x="1601" 
d="M94 0zM1507 716q0 -161 -51 -295.5t-144 -231.5t-223.5 -150.5t-288.5 -53.5t-288 53.5t-223 150.5t-144 231.5t-51 295.5t51 295.5t144 232t223 151.5t288 54t288.5 -54t223.5 -151.5t144 -232t51 -295.5zM1308 716q0 132 -36 237t-102 177.5t-160 111.5t-210 39
q-115 0 -209 -39t-160.5 -111.5t-102.5 -177.5t-36 -237t36 -236.5t102.5 -177t160.5 -111t209 -38.5q116 0 210 38.5t160 111t102 177t36 236.5zM928 1663q23 0 40.5 8.5t29.5 23t18 32.5t6 36h109q0 -43 -12 -82.5t-35.5 -70t-57.5 -48.5t-78 -18q-45 0 -80.5 16.5t-66 36
t-57.5 36t-55 16.5q-23 0 -40 -9t-28.5 -23.5t-17.5 -32.5t-6 -36h-111q0 43 12.5 83t35.5 70.5t57 48.5t78 18q45 0 81 -16.5t66 -36t57 -36t55 -16.5z" />
    <glyph glyph-name="Odieresis" unicode="&#xd6;" horiz-adv-x="1601" 
d="M94 0zM1507 716q0 -161 -51 -295.5t-144 -231.5t-223.5 -150.5t-288.5 -53.5t-288 53.5t-223 150.5t-144 231.5t-51 295.5t51 295.5t144 232t223 151.5t288 54t288.5 -54t223.5 -151.5t144 -232t51 -295.5zM1308 716q0 132 -36 237t-102 177.5t-160 111.5t-210 39
q-115 0 -209 -39t-160.5 -111.5t-102.5 -177.5t-36 -237t36 -236.5t102.5 -177t160.5 -111t209 -38.5q116 0 210 38.5t160 111t102 177t36 236.5zM703 1666q0 -22 -9 -41.5t-24.5 -34.5t-36 -23.5t-42.5 -8.5q-21 0 -40.5 8.5t-34.5 23.5t-24 34.5t-9 41.5q0 23 9 43.5
t24 35.5t34.5 24t40.5 9q22 0 42.5 -9t36 -24t24.5 -35.5t9 -43.5zM1121 1666q0 -22 -9 -41.5t-24 -34.5t-35 -23.5t-42 -8.5q-23 0 -43 8.5t-35 23.5t-23.5 34.5t-8.5 41.5q0 23 8.5 43.5t23.5 35.5t35 24t43 9q22 0 42 -9t35 -24t24 -35.5t9 -43.5z" />
    <glyph glyph-name="Ugrave" unicode="&#xd9;" horiz-adv-x="1471" 
d="M165 0zM736 154q89 0 159 30t118.5 84t74 129t25.5 165v871h193v-871q0 -124 -39.5 -230t-113 -183.5t-179.5 -121.5t-238 -44t-238 44t-180 121.5t-113.5 183.5t-39.5 230v871h193v-870q0 -90 25.5 -165t74 -129t119 -84.5t159.5 -30.5zM559 1852q33 0 50 -5t34 -27
l228 -274h-128q-22 0 -34.5 2.5t-27.5 16.5l-312 287h190z" />
    <glyph glyph-name="Uacute" unicode="&#xda;" horiz-adv-x="1471" 
d="M165 0zM736 154q89 0 159 30t118.5 84t74 129t25.5 165v871h193v-871q0 -124 -39.5 -230t-113 -183.5t-179.5 -121.5t-238 -44t-238 44t-180 121.5t-113.5 183.5t-39.5 230v871h193v-870q0 -90 25.5 -165t74 -129t119 -84.5t159.5 -30.5zM1114 1852l-326 -286
q-15 -14 -29 -17t-34 -3h-128l231 274q17 22 34.5 27t50.5 5h201z" />
    <glyph glyph-name="Ucircumflex" unicode="&#xdb;" horiz-adv-x="1471" 
d="M165 0zM736 154q89 0 159 30t118.5 84t74 129t25.5 165v871h193v-871q0 -124 -39.5 -230t-113 -183.5t-179.5 -121.5t-238 -44t-238 44t-180 121.5t-113.5 183.5t-39.5 230v871h193v-870q0 -90 25.5 -165t74 -129t119 -84.5t159.5 -30.5zM1057 1546h-130q-12 0 -28.5 4.5
t-33.5 24.5l-117 141q-6 8 -12 17l-12 -17l-117 -141q-17 -20 -33.5 -24.5t-28.5 -4.5h-125l239 271h160z" />
    <glyph glyph-name="Udieresis" unicode="&#xdc;" horiz-adv-x="1471" 
d="M165 0zM736 154q89 0 159 30t118.5 84t74 129t25.5 165v871h193v-871q0 -124 -39.5 -230t-113 -183.5t-179.5 -121.5t-238 -44t-238 44t-180 121.5t-113.5 183.5t-39.5 230v871h193v-870q0 -90 25.5 -165t74 -129t119 -84.5t159.5 -30.5zM637 1666q0 -22 -9 -41.5
t-24.5 -34.5t-36 -23.5t-42.5 -8.5q-21 0 -40.5 8.5t-34.5 23.5t-24 34.5t-9 41.5q0 23 9 43.5t24 35.5t34.5 24t40.5 9q22 0 42.5 -9t36 -24t24.5 -35.5t9 -43.5zM1055 1666q0 -22 -9 -41.5t-24 -34.5t-35 -23.5t-42 -8.5q-23 0 -43 8.5t-35 23.5t-23.5 34.5t-8.5 41.5
q0 23 8.5 43.5t23.5 35.5t35 24t43 9q22 0 42 -9t35 -24t24 -35.5t9 -43.5z" />
    <glyph glyph-name="Ydieresis" unicode="&#x178;" horiz-adv-x="1248" 
d="M2 0zM721 571v-571h-194v571l-525 862h170q26 0 41 -12.5t26 -32.5l328 -557q18 -35 32.5 -65.5t25.5 -60.5q11 30 25 60.5t32 65.5l327 557q9 17 25 31t41 14h171zM527 1666q0 -22 -9 -41.5t-24.5 -34.5t-36 -23.5t-42.5 -8.5q-21 0 -40.5 8.5t-34.5 23.5t-24 34.5
t-9 41.5q0 23 9 43.5t24 35.5t34.5 24t40.5 9q22 0 42.5 -9t36 -24t24.5 -35.5t9 -43.5zM945 1666q0 -22 -9 -41.5t-24 -34.5t-35 -23.5t-42 -8.5q-23 0 -43 8.5t-35 23.5t-23.5 34.5t-8.5 41.5q0 23 8.5 43.5t23.5 35.5t35 24t43 9q22 0 42 -9t35 -24t24 -35.5t9 -43.5z
" />
    <glyph glyph-name="agrave" unicode="&#xe0;" horiz-adv-x="994" 
d="M65 0zM785 0q-26 0 -40 8.5t-22 33.5l-20 95q-40 -36 -78.5 -64.5t-80 -48t-89 -30t-105.5 -10.5q-59 0 -111 16.5t-90.5 49.5t-61 83.5t-22.5 119.5q0 60 33 115.5t107 98.5t193 70.5t292 31.5v79q0 118 -51 178.5t-149 60.5q-66 0 -110.5 -16.5t-77 -37t-56 -37
t-46.5 -16.5q-18 0 -31 9.5t-22 23.5l-32 57q84 81 181 121t215 40q85 0 151 -28t111 -78t68 -121t23 -156v-648h-79zM403 109q47 0 86 9.5t73.5 27t66 43t61.5 57.5v210q-123 -4 -209.5 -19.5t-141 -40.5t-79 -59t-24.5 -76q0 -40 13 -69t35.5 -47.5t53 -27t65.5 -8.5z
M389 1449q33 0 49 -10.5t30 -33.5l149 -242h-102q-21 0 -34 6.5t-27 21.5l-234 258h169z" />
    <glyph glyph-name="aacute" unicode="&#xe1;" horiz-adv-x="994" 
d="M65 0zM785 0q-26 0 -40 8.5t-22 33.5l-20 95q-40 -36 -78.5 -64.5t-80 -48t-89 -30t-105.5 -10.5q-59 0 -111 16.5t-90.5 49.5t-61 83.5t-22.5 119.5q0 60 33 115.5t107 98.5t193 70.5t292 31.5v79q0 118 -51 178.5t-149 60.5q-66 0 -110.5 -16.5t-77 -37t-56 -37
t-46.5 -16.5q-18 0 -31 9.5t-22 23.5l-32 57q84 81 181 121t215 40q85 0 151 -28t111 -78t68 -121t23 -156v-648h-79zM403 109q47 0 86 9.5t73.5 27t66 43t61.5 57.5v210q-123 -4 -209.5 -19.5t-141 -40.5t-79 -59t-24.5 -76q0 -40 13 -69t35.5 -47.5t53 -27t65.5 -8.5z
M780 1449l-233 -258q-14 -15 -27.5 -21.5t-34.5 -6.5h-106l148 242q14 23 30.5 33.5t48.5 10.5h174z" />
    <glyph glyph-name="acircumflex" unicode="&#xe2;" horiz-adv-x="994" 
d="M65 0zM785 0q-26 0 -40 8.5t-22 33.5l-20 95q-40 -36 -78.5 -64.5t-80 -48t-89 -30t-105.5 -10.5q-59 0 -111 16.5t-90.5 49.5t-61 83.5t-22.5 119.5q0 60 33 115.5t107 98.5t193 70.5t292 31.5v79q0 118 -51 178.5t-149 60.5q-66 0 -110.5 -16.5t-77 -37t-56 -37
t-46.5 -16.5q-18 0 -31 9.5t-22 23.5l-32 57q84 81 181 121t215 40q85 0 151 -28t111 -78t68 -121t23 -156v-648h-79zM403 109q47 0 86 9.5t73.5 27t66 43t61.5 57.5v210q-123 -4 -209.5 -19.5t-141 -40.5t-79 -59t-24.5 -76q0 -40 13 -69t35.5 -47.5t53 -27t65.5 -8.5z
M795 1169h-119q-11 0 -22.5 4t-22.5 15l-123 132q-5 4 -8.5 9t-8.5 10q-8 -11 -16 -19l-124 -132q-21 -19 -45 -19h-123l223 264h166z" />
    <glyph glyph-name="atilde" unicode="&#xe3;" horiz-adv-x="994" 
d="M65 0zM785 0q-26 0 -40 8.5t-22 33.5l-20 95q-40 -36 -78.5 -64.5t-80 -48t-89 -30t-105.5 -10.5q-59 0 -111 16.5t-90.5 49.5t-61 83.5t-22.5 119.5q0 60 33 115.5t107 98.5t193 70.5t292 31.5v79q0 118 -51 178.5t-149 60.5q-66 0 -110.5 -16.5t-77 -37t-56 -37
t-46.5 -16.5q-18 0 -31 9.5t-22 23.5l-32 57q84 81 181 121t215 40q85 0 151 -28t111 -78t68 -121t23 -156v-648h-79zM403 109q47 0 86 9.5t73.5 27t66 43t61.5 57.5v210q-123 -4 -209.5 -19.5t-141 -40.5t-79 -59t-24.5 -76q0 -40 13 -69t35.5 -47.5t53 -27t65.5 -8.5z
M599 1325q36 0 55.5 21t20.5 65h108q0 -47 -12.5 -86.5t-36 -67.5t-56 -43.5t-72.5 -15.5q-35 0 -65.5 14.5t-57.5 31.5t-51 31.5t-47 14.5q-72 0 -74 -88h-111q0 48 13 87.5t37 68t57 44t72 15.5q35 0 65.5 -14.5t57.5 -31.5t50.5 -31.5t46.5 -14.5z" />
    <glyph glyph-name="adieresis" unicode="&#xe4;" horiz-adv-x="994" 
d="M65 0zM785 0q-26 0 -40 8.5t-22 33.5l-20 95q-40 -36 -78.5 -64.5t-80 -48t-89 -30t-105.5 -10.5q-59 0 -111 16.5t-90.5 49.5t-61 83.5t-22.5 119.5q0 60 33 115.5t107 98.5t193 70.5t292 31.5v79q0 118 -51 178.5t-149 60.5q-66 0 -110.5 -16.5t-77 -37t-56 -37
t-46.5 -16.5q-18 0 -31 9.5t-22 23.5l-32 57q84 81 181 121t215 40q85 0 151 -28t111 -78t68 -121t23 -156v-648h-79zM403 109q47 0 86 9.5t73.5 27t66 43t61.5 57.5v210q-123 -4 -209.5 -19.5t-141 -40.5t-79 -59t-24.5 -76q0 -40 13 -69t35.5 -47.5t53 -27t65.5 -8.5z
M411 1289q0 -23 -9 -43t-25 -35t-36.5 -24t-43.5 -9q-22 0 -42 9t-35.5 24t-24.5 35t-9 43t9 44t24.5 36.5t35.5 24.5t42 9q23 0 43.5 -9t36.5 -24.5t25 -36.5t9 -44zM792 1289q0 -23 -9 -43t-24.5 -35t-36 -24t-43.5 -9t-43.5 9t-35.5 24t-24 35t-9 43t9 44t24 36.5
t35.5 24.5t43.5 9t43.5 -9t36 -24.5t24.5 -36.5t9 -44z" />
    <glyph glyph-name="aring" unicode="&#xe5;" horiz-adv-x="994" 
d="M65 0zM785 0q-26 0 -40 8.5t-22 33.5l-20 95q-40 -36 -78.5 -64.5t-80 -48t-89 -30t-105.5 -10.5q-59 0 -111 16.5t-90.5 49.5t-61 83.5t-22.5 119.5q0 60 33 115.5t107 98.5t193 70.5t292 31.5v79q0 118 -51 178.5t-149 60.5q-66 0 -110.5 -16.5t-77 -37t-56 -37
t-46.5 -16.5q-18 0 -31 9.5t-22 23.5l-32 57q84 81 181 121t215 40q85 0 151 -28t111 -78t68 -121t23 -156v-648h-79zM403 109q47 0 86 9.5t73.5 27t66 43t61.5 57.5v210q-123 -4 -209.5 -19.5t-141 -40.5t-79 -59t-24.5 -76q0 -40 13 -69t35.5 -47.5t53 -27t65.5 -8.5z
M290 1315q0 42 16 76t43.5 59t63.5 38.5t76 13.5q41 0 77.5 -13.5t64.5 -38.5t44 -59t16 -76q0 -41 -16 -75t-44 -58t-64.5 -37.5t-77.5 -13.5q-40 0 -76 13.5t-63.5 37.5t-43.5 58t-16 75zM390 1315q0 -44 27 -72t74 -28q45 0 72.5 28t27.5 72q0 45 -27.5 73t-72.5 28
q-47 0 -74 -28t-27 -73z" />
    <glyph glyph-name="egrave" unicode="&#xe8;" horiz-adv-x="1056" 
d="M83 0zM556 1029q91 0 168.5 -30.5t134 -88t88.5 -142t32 -192.5q0 -42 -9 -56t-34 -14h-677q2 -96 26 -167t66 -118.5t100 -71t130 -23.5q67 0 115.5 15.5t83.5 33.5t58.5 33.5t40.5 15.5q22 0 34 -17l50 -65q-33 -40 -79 -69.5t-98.5 -48.5t-108.5 -28.5t-111 -9.5
q-105 0 -193.5 35.5t-153 104t-100.5 169.5t-36 232q0 106 32.5 198t93.5 159.5t149 106t198 38.5zM560 898q-129 0 -203 -74.5t-92 -206.5h554q0 62 -17.5 113.5t-51 89t-81.5 58t-109 20.5zM460 1449q33 0 49 -10.5t30 -33.5l149 -242h-102q-21 0 -34 6.5t-27 21.5
l-234 258h169z" />
    <glyph glyph-name="eacute" unicode="&#xe9;" horiz-adv-x="1056" 
d="M83 0zM556 1029q91 0 168.5 -30.5t134 -88t88.5 -142t32 -192.5q0 -42 -9 -56t-34 -14h-677q2 -96 26 -167t66 -118.5t100 -71t130 -23.5q67 0 115.5 15.5t83.5 33.5t58.5 33.5t40.5 15.5q22 0 34 -17l50 -65q-33 -40 -79 -69.5t-98.5 -48.5t-108.5 -28.5t-111 -9.5
q-105 0 -193.5 35.5t-153 104t-100.5 169.5t-36 232q0 106 32.5 198t93.5 159.5t149 106t198 38.5zM560 898q-129 0 -203 -74.5t-92 -206.5h554q0 62 -17.5 113.5t-51 89t-81.5 58t-109 20.5zM851 1449l-233 -258q-14 -15 -27.5 -21.5t-34.5 -6.5h-106l148 242
q14 23 30.5 33.5t48.5 10.5h174z" />
    <glyph glyph-name="ecircumflex" unicode="&#xea;" horiz-adv-x="1056" 
d="M83 0zM556 1029q91 0 168.5 -30.5t134 -88t88.5 -142t32 -192.5q0 -42 -9 -56t-34 -14h-677q2 -96 26 -167t66 -118.5t100 -71t130 -23.5q67 0 115.5 15.5t83.5 33.5t58.5 33.5t40.5 15.5q22 0 34 -17l50 -65q-33 -40 -79 -69.5t-98.5 -48.5t-108.5 -28.5t-111 -9.5
q-105 0 -193.5 35.5t-153 104t-100.5 169.5t-36 232q0 106 32.5 198t93.5 159.5t149 106t198 38.5zM560 898q-129 0 -203 -74.5t-92 -206.5h554q0 62 -17.5 113.5t-51 89t-81.5 58t-109 20.5zM866 1169h-119q-11 0 -22.5 4t-22.5 15l-123 132q-5 4 -8.5 9t-8.5 10
q-8 -11 -16 -19l-124 -132q-21 -19 -45 -19h-123l223 264h166z" />
    <glyph glyph-name="edieresis" unicode="&#xeb;" horiz-adv-x="1056" 
d="M83 0zM556 1029q91 0 168.5 -30.5t134 -88t88.5 -142t32 -192.5q0 -42 -9 -56t-34 -14h-677q2 -96 26 -167t66 -118.5t100 -71t130 -23.5q67 0 115.5 15.5t83.5 33.5t58.5 33.5t40.5 15.5q22 0 34 -17l50 -65q-33 -40 -79 -69.5t-98.5 -48.5t-108.5 -28.5t-111 -9.5
q-105 0 -193.5 35.5t-153 104t-100.5 169.5t-36 232q0 106 32.5 198t93.5 159.5t149 106t198 38.5zM560 898q-129 0 -203 -74.5t-92 -206.5h554q0 62 -17.5 113.5t-51 89t-81.5 58t-109 20.5zM482 1289q0 -23 -9 -43t-25 -35t-36.5 -24t-43.5 -9q-22 0 -42 9t-35.5 24
t-24.5 35t-9 43t9 44t24.5 36.5t35.5 24.5t42 9q23 0 43.5 -9t36.5 -24.5t25 -36.5t9 -44zM863 1289q0 -23 -9 -43t-24.5 -35t-36 -24t-43.5 -9t-43.5 9t-35.5 24t-24 35t-9 43t9 44t24 36.5t35.5 24.5t43.5 9t43.5 -9t36 -24.5t24.5 -36.5t9 -44z" />
    <glyph glyph-name="igrave" unicode="&#xec;" horiz-adv-x="480" 
d="M0 0zM329 1013v-1013h-179v1013h179zM145 1449q33 0 49 -10.5t30 -33.5l149 -242h-102q-21 0 -34 6.5t-27 21.5l-234 258h169z" />
    <glyph glyph-name="iacute" unicode="&#xed;" horiz-adv-x="480" 
d="M135 0zM330 1013v-1013h-179v1013h179zM536 1449l-233 -258q-14 -15 -27.5 -21.5t-34.5 -6.5h-106l148 242q14 23 30.5 33.5t48.5 10.5h174z" />
    <glyph glyph-name="icircumflex" unicode="&#xee;" horiz-adv-x="480" 
d="M0 0zM329 1013v-1013h-179v1013h179zM551 1169h-119q-11 0 -22.5 4t-22.5 15l-123 132q-5 4 -8.5 9t-8.5 10q-8 -11 -16 -19l-124 -132q-21 -19 -45 -19h-123l223 264h166z" />
    <glyph glyph-name="idieresis" unicode="&#xef;" horiz-adv-x="480" 
d="M0 0zM329 1013v-1013h-179v1013h179zM202 1289q0 -23 -9 -43t-25 -35t-36.5 -24t-43.5 -9t-43 9t-35.5 24t-24.5 35t-9 43t9 44t24.5 36.5t35.5 24.5t43 9t43.5 -9t36.5 -24.5t25 -36.5t9 -44zM514 1289q0 -23 -9 -43t-24.5 -35t-36.5 -24t-44 -9t-43.5 9t-35.5 24
t-24 35t-9 43t9 44t24 36.5t35.5 24.5t43.5 9t44 -9t36.5 -24.5t24.5 -36.5t9 -44z" />
    <glyph glyph-name="ntilde" unicode="&#xf1;" horiz-adv-x="1116" 
d="M141 0zM141 0v1013h107q38 0 47 -37l14 -110q66 73 148 118t189 45q83 0 146.5 -27.5t106 -78t64.5 -121.5t22 -157v-645h-179v645q0 115 -52.5 178.5t-159.5 63.5q-80 0 -148.5 -38t-125.5 -103v-746h-179zM674 1325q36 0 55.5 21t20.5 65h108q0 -47 -12.5 -86.5
t-36 -67.5t-56 -43.5t-72.5 -15.5q-35 0 -65.5 14.5t-57.5 31.5t-51 31.5t-47 14.5q-72 0 -74 -88h-111q0 48 13 87.5t37 68t57 44t72 15.5q35 0 65.5 -14.5t57.5 -31.5t50.5 -31.5t46.5 -14.5z" />
    <glyph glyph-name="ograve" unicode="&#xf2;" horiz-adv-x="1134" 
d="M84 0zM568 1029q111 0 200 -37t152 -105t96.5 -164.5t33.5 -215.5q0 -120 -33.5 -216t-96.5 -164t-152 -104.5t-200 -36.5q-112 0 -201.5 36.5t-152.5 104.5t-96.5 164t-33.5 216q0 119 33.5 215.5t96.5 164.5t152.5 105t201.5 37zM568 125q150 0 224 100.5t74 280.5
q0 181 -74 282t-224 101q-76 0 -132.5 -26t-94 -75t-56 -120.5t-18.5 -161.5q0 -180 74.5 -280.5t226.5 -100.5zM469 1449q33 0 49 -10.5t30 -33.5l149 -242h-102q-21 0 -34 6.5t-27 21.5l-234 258h169z" />
    <glyph glyph-name="oacute" unicode="&#xf3;" horiz-adv-x="1134" 
d="M84 0zM568 1029q111 0 200 -37t152 -105t96.5 -164.5t33.5 -215.5q0 -120 -33.5 -216t-96.5 -164t-152 -104.5t-200 -36.5q-112 0 -201.5 36.5t-152.5 104.5t-96.5 164t-33.5 216q0 119 33.5 215.5t96.5 164.5t152.5 105t201.5 37zM568 125q150 0 224 100.5t74 280.5
q0 181 -74 282t-224 101q-76 0 -132.5 -26t-94 -75t-56 -120.5t-18.5 -161.5q0 -180 74.5 -280.5t226.5 -100.5zM860 1449l-233 -258q-14 -15 -27.5 -21.5t-34.5 -6.5h-106l148 242q14 23 30.5 33.5t48.5 10.5h174z" />
    <glyph glyph-name="ocircumflex" unicode="&#xf4;" horiz-adv-x="1134" 
d="M84 0zM568 1029q111 0 200 -37t152 -105t96.5 -164.5t33.5 -215.5q0 -120 -33.5 -216t-96.5 -164t-152 -104.5t-200 -36.5q-112 0 -201.5 36.5t-152.5 104.5t-96.5 164t-33.5 216q0 119 33.5 215.5t96.5 164.5t152.5 105t201.5 37zM568 125q150 0 224 100.5t74 280.5
q0 181 -74 282t-224 101q-76 0 -132.5 -26t-94 -75t-56 -120.5t-18.5 -161.5q0 -180 74.5 -280.5t226.5 -100.5zM875 1169h-119q-11 0 -22.5 4t-22.5 15l-123 132q-5 4 -8.5 9t-8.5 10q-8 -11 -16 -19l-124 -132q-21 -19 -45 -19h-123l223 264h166z" />
    <glyph glyph-name="otilde" unicode="&#xf5;" horiz-adv-x="1134" 
d="M84 0zM568 1029q111 0 200 -37t152 -105t96.5 -164.5t33.5 -215.5q0 -120 -33.5 -216t-96.5 -164t-152 -104.5t-200 -36.5q-112 0 -201.5 36.5t-152.5 104.5t-96.5 164t-33.5 216q0 119 33.5 215.5t96.5 164.5t152.5 105t201.5 37zM568 125q150 0 224 100.5t74 280.5
q0 181 -74 282t-224 101q-76 0 -132.5 -26t-94 -75t-56 -120.5t-18.5 -161.5q0 -180 74.5 -280.5t226.5 -100.5zM679 1325q36 0 55.5 21t20.5 65h108q0 -47 -12.5 -86.5t-36 -67.5t-56 -43.5t-72.5 -15.5q-35 0 -65.5 14.5t-57.5 31.5t-51 31.5t-47 14.5q-72 0 -74 -88h-111
q0 48 13 87.5t37 68t57 44t72 15.5q35 0 65.5 -14.5t57.5 -31.5t50.5 -31.5t46.5 -14.5z" />
    <glyph glyph-name="odieresis" unicode="&#xf6;" horiz-adv-x="1134" 
d="M84 0zM568 1029q111 0 200 -37t152 -105t96.5 -164.5t33.5 -215.5q0 -120 -33.5 -216t-96.5 -164t-152 -104.5t-200 -36.5q-112 0 -201.5 36.5t-152.5 104.5t-96.5 164t-33.5 216q0 119 33.5 215.5t96.5 164.5t152.5 105t201.5 37zM568 125q150 0 224 100.5t74 280.5
q0 181 -74 282t-224 101q-76 0 -132.5 -26t-94 -75t-56 -120.5t-18.5 -161.5q0 -180 74.5 -280.5t226.5 -100.5zM491 1289q0 -23 -9 -43t-25 -35t-36.5 -24t-43.5 -9q-22 0 -42 9t-35.5 24t-24.5 35t-9 43t9 44t24.5 36.5t35.5 24.5t42 9q23 0 43.5 -9t36.5 -24.5t25 -36.5
t9 -44zM872 1289q0 -23 -9 -43t-24.5 -35t-36 -24t-43.5 -9t-43.5 9t-35.5 24t-24 35t-9 43t9 44t24 36.5t35.5 24.5t43.5 9t43.5 -9t36 -24.5t24.5 -36.5t9 -44z" />
    <glyph glyph-name="ugrave" unicode="&#xf9;" horiz-adv-x="1115" 
d="M131 0zM309 1013v-646q0 -115 52.5 -178t160.5 -63q78 0 147 37t127 103v747h178v-1013h-106q-38 0 -48 37l-14 109q-66 -73 -148 -117.5t-188 -44.5q-83 0 -146.5 27.5t-106.5 77.5t-64.5 121t-21.5 157v646h178zM458 1449q33 0 49 -10.5t30 -33.5l149 -242h-102
q-21 0 -34 6.5t-27 21.5l-234 258h169z" />
    <glyph glyph-name="uacute" unicode="&#xfa;" horiz-adv-x="1115" 
d="M131 0zM309 1013v-646q0 -115 52.5 -178t160.5 -63q78 0 147 37t127 103v747h178v-1013h-106q-38 0 -48 37l-14 109q-66 -73 -148 -117.5t-188 -44.5q-83 0 -146.5 27.5t-106.5 77.5t-64.5 121t-21.5 157v646h178zM849 1449l-233 -258q-14 -15 -27.5 -21.5t-34.5 -6.5
h-106l148 242q14 23 30.5 33.5t48.5 10.5h174z" />
    <glyph glyph-name="ucircumflex" unicode="&#xfb;" horiz-adv-x="1115" 
d="M131 0zM309 1013v-646q0 -115 52.5 -178t160.5 -63q78 0 147 37t127 103v747h178v-1013h-106q-38 0 -48 37l-14 109q-66 -73 -148 -117.5t-188 -44.5q-83 0 -146.5 27.5t-106.5 77.5t-64.5 121t-21.5 157v646h178zM864 1169h-119q-11 0 -22.5 4t-22.5 15l-123 132
q-5 4 -8.5 9t-8.5 10q-8 -11 -16 -19l-124 -132q-21 -19 -45 -19h-123l223 264h166z" />
    <glyph glyph-name="udieresis" unicode="&#xfc;" horiz-adv-x="1115" 
d="M131 0zM309 1013v-646q0 -115 52.5 -178t160.5 -63q78 0 147 37t127 103v747h178v-1013h-106q-38 0 -48 37l-14 109q-66 -73 -148 -117.5t-188 -44.5q-83 0 -146.5 27.5t-106.5 77.5t-64.5 121t-21.5 157v646h178zM480 1289q0 -23 -9 -43t-25 -35t-36.5 -24t-43.5 -9
q-22 0 -42 9t-35.5 24t-24.5 35t-9 43t9 44t24.5 36.5t35.5 24.5t42 9q23 0 43.5 -9t36.5 -24.5t25 -36.5t9 -44zM861 1289q0 -23 -9 -43t-24.5 -35t-36 -24t-43.5 -9t-43.5 9t-35.5 24t-24 35t-9 43t9 44t24 36.5t35.5 24.5t43.5 9t43.5 -9t36 -24.5t24.5 -36.5t9 -44z" />
    <glyph glyph-name="ydieresis" unicode="&#xff;" horiz-adv-x="1031" 
d="M21 0zM450 -299q-9 -20 -22.5 -32t-41.5 -12h-132l185 402l-418 954h154q23 0 36.5 -11.5t18.5 -25.5l271 -638q8 -23 15 -44.5t12 -44.5q13 45 30 90l263 637q6 16 20.5 26.5t32.5 10.5h141zM464 1289q0 -23 -9 -43t-25 -35t-36.5 -24t-43.5 -9q-22 0 -42 9t-35.5 24
t-24.5 35t-9 43t9 44t24.5 36.5t35.5 24.5t42 9q23 0 43.5 -9t36.5 -24.5t25 -36.5t9 -44zM845 1289q0 -23 -9 -43t-24.5 -35t-36 -24t-43.5 -9t-43.5 9t-35.5 24t-24 35t-9 43t9 44t24 36.5t35.5 24.5t43.5 9t43.5 -9t36 -24.5t24.5 -36.5t9 -44z" />
    <glyph glyph-name="Delta" unicode="&#x2206;" horiz-adv-x="1429" 
d="M64 55q0 54 23 115l532 1263h196l527 -1259q11 -29 17.5 -58t6.5 -59v-57h-1302v55zM265 156h882l-392 959q-11 28 -23 65.5t-23 80.5q-11 -45 -23 -81.5t-23 -65.5z" />
    <glyph glyph-name="Omega" unicode="&#x2126;" horiz-adv-x="1630" 
d="M932 224q81 15 151 63.5t121 122t80.5 167.5t29.5 200q0 126 -40.5 220t-109 157t-159 94.5t-190.5 31.5q-99 0 -189.5 -31.5t-159 -94.5t-109 -157t-40.5 -220q0 -106 29 -200t80.5 -167.5t121.5 -122t151 -63.5v-224h-521q-30 0 -48 17.5t-18 45.5v100h286q37 0 75 -4
t76 -9q-92 31 -170 90.5t-134.5 141t-88.5 182.5t-32 215q0 150 54.5 273.5t148.5 211.5t220 136t269 48t268.5 -48t219.5 -136t148 -211.5t54 -273.5q0 -114 -32 -215t-89 -182.5t-135 -141t-169 -90.5q38 5 76 9t75 4h287v-100q0 -28 -18.5 -45.5t-47.5 -17.5h-521v224z
" />
    <glyph glyph-name="mu" unicode="&#xb5;" horiz-adv-x="1299" 
d="M359 1013v-613q0 -114 52.5 -180.5t159.5 -66.5q92 0 160.5 49.5t114.5 138.5v672h178v-739q0 -78 40 -114t106 -36h59v-72q0 -23 -31.5 -42.5t-89.5 -19.5q-42 0 -80.5 12t-70 37.5t-54.5 64t-33 91.5q-60 -90 -136.5 -139.5t-172.5 -49.5q-75 0 -130.5 23.5t-93.5 68.5
q6 -41 8.5 -83t2.5 -79v-279h-89q-38 0 -58.5 20t-20.5 56v1280h179z" />
    <glyph glyph-name="Aogonek" unicode="&#x104;" horiz-adv-x="1352" 
d="M1375 -211q7 0 11.5 -4t6.5 -9l28 -66q-30 -23 -76.5 -37.5t-97.5 -14.5q-88 0 -138.5 39.5t-50.5 105.5q0 58 39.5 108.5t99.5 88.5q-26 0 -42 13t-24 33l-134 346h-643l-134 -346q-6 -18 -23 -32t-42 -14h-150l573 1433h196l573 -1433h-36q-20 -11 -41 -26.5t-38 -35
t-28 -43t-11 -49.5q0 -38 24.5 -59.5t66.5 -21.5q23 0 38 3.5t25 8t16.5 8.5t11.5 4zM408 532h535l-225 583q-11 26 -21.5 60t-21.5 73q-10 -39 -20.5 -73.5t-21.5 -60.5z" />
    <glyph glyph-name="Eth" unicode="&#xd0;" horiz-adv-x="1537" 
d="M3 780h196v653h536q158 0 288 -51.5t223 -146t144 -226.5t51 -293t-51 -293t-144 -226t-223 -145.5t-288 -51.5h-536v666h-196v114zM1242 716q0 132 -36 236t-102 176t-160 110t-209 38h-341v-496h290v-114h-290v-509h341q115 0 209 38t160 109.5t102 175.5t36 236z" />
    <glyph glyph-name="Eogonek" unicode="&#x118;" horiz-adv-x="1155" 
d="M1039 -211q7 0 11.5 -4t6.5 -9l28 -66q-30 -23 -76.5 -37.5t-97.5 -14.5q-88 0 -138.5 39.5t-50.5 105.5q0 58 39.5 108.5t99.5 88.5h-678v1433h883v-158h-689v-476h558v-152h-558v-489h690l-1 -158h-91q-20 -11 -41 -26.5t-38 -35t-28 -43t-11 -49.5q0 -38 24.5 -59.5
t66.5 -21.5q23 0 38 3.5t25 8t16.5 8.5t11.5 4z" />
    <glyph glyph-name="Hbar" unicode="&#x126;" horiz-adv-x="1542" 
d="M1351 1153h164v-115h-164v-1038h-194v652h-773v-652h-194v1038h-163v115h163v280h194v-280h773v280h194v-280zM1157 794v244h-773v-244h773z" />
    <glyph glyph-name="Iogonek" unicode="&#x12e;" horiz-adv-x="561" 
d="M415 -211q7 0 11.5 -4t6.5 -9l28 -66q-30 -23 -76.5 -37.5t-97.5 -14.5q-88 0 -138.5 39.5t-50.5 105.5q0 58 39.5 108.5t99.5 88.5h-53v1433h194v-1433h-27q-20 -11 -41 -26.5t-38 -35t-28 -43t-11 -49.5q0 -38 24.5 -59.5t66.5 -21.5q23 0 38 3.5t25 8t16.5 8.5t11.5 4
z" />
    <glyph glyph-name="Lslash" unicode="&#x141;" horiz-adv-x="1056" 
d="M405 805l385 196v-131q0 -33 -28 -44l-357 -186v-477h620v-163h-813v553l-187 -95v134q0 28 24 39l163 86v716h193v-628z" />
    <glyph glyph-name="Lcaron" unicode="&#x13d;" horiz-adv-x="1027" 
d="M183 0zM376 163h620v-163h-813v1433h193v-1270zM737 1475q22 0 27.5 -10.5t5.5 -22.5q0 -10 -3.5 -26.5t-12.5 -46t-25 -74.5t-41 -111q-10 -22 -24.5 -29t-39.5 -7h-62l57 327h118z" />
    <glyph glyph-name="Eng" unicode="&#x14a;" horiz-adv-x="1527" 
d="M283 1433q13 0 22 -1.5t16 -5t14 -10t15 -16.5l829 -1079q-2 26 -3.5 50.5t-1.5 46.5v1015h170v-1426q0 -82 -18.5 -149t-58 -115t-101 -74.5t-147.5 -26.5q-48 0 -87 8.5t-83 27.5l19 78q6 22 17 28.5t24 6.5t34 -7t59 -7q85 0 128.5 51.5t43.5 158.5v53l-825 1074
q2 -25 3 -49t1 -44v-1021h-170v1433h100v0z" />
    <glyph glyph-name="Thorn" unicode="&#xde;" horiz-adv-x="1197" 
d="M376 272v-272h-193v1433h193v-264h230q136 0 236.5 -31.5t166.5 -89.5t98.5 -140t32.5 -183q0 -100 -35 -183t-102.5 -143t-167 -93.5t-229.5 -33.5h-230zM376 426h230q83 0 146.5 22t107 61.5t65.5 94.5t22 121q0 137 -84.5 214t-256.5 77h-230v-590z" />
    <glyph glyph-name="Scedilla" unicode="&#x15e;" horiz-adv-x="1085" 
d="M435 -253q6 0 14 -3.5t19.5 -8t27 -8t36.5 -3.5q42 0 63.5 17t21.5 43q0 38 -42 53.5t-119 25.5l40 121q-134 4 -243 54t-187 133l56 92q8 11 19.5 18.5t25.5 7.5q13 0 29.5 -10.5t37.5 -26.5t48 -35t61.5 -35t78.5 -26.5t99 -10.5q69 0 123 19t91.5 53.5t57.5 82.5
t20 107q0 65 -29.5 106.5t-77.5 69.5t-110 47.5t-126 40t-126 47.5t-110 70t-77.5 107.5t-29.5 159.5q0 76 29.5 147t86 126t139 88t189.5 33q120 0 218.5 -38t173.5 -110l-47 -92q-9 -15 -19.5 -22.5t-25.5 -7.5q-17 0 -40 17t-57.5 37.5t-83 37.5t-117.5 17
q-65 0 -114.5 -17.5t-83 -47.5t-50.5 -70.5t-17 -87.5q0 -60 29.5 -99.5t78 -67.5t110 -48.5t126 -42.5t126 -49.5t110 -69.5t78 -103t29.5 -150q0 -85 -26.5 -160.5t-76.5 -134.5t-123.5 -98t-167.5 -52l-19 -65q93 -19 134.5 -54t41.5 -89q0 -32 -16 -58t-44.5 -44
t-68.5 -27.5t-88 -9.5q-41 0 -78 8.5t-68 22.5l17 55q6 18 23 18z" />
    <glyph glyph-name="Tbar" unicode="&#x166;" horiz-adv-x="1210" 
d="M1167 1433v-163h-464v-419h326v-113h-326v-738h-193v738h-328v113h328v419h-465v163h1122z" />
    <glyph glyph-name="Uogonek" unicode="&#x172;" horiz-adv-x="1471" 
d="M903 -216q7 0 11.5 -4t6.5 -9l28 -66q-30 -23 -76.5 -37.5t-97.5 -14.5q-88 0 -138.5 39.5t-50.5 105.5q0 54 33.5 101t87.5 85q-126 5 -226.5 50.5t-170.5 123t-107.5 181t-37.5 223.5v871h193v-870q0 -90 25.5 -165t74 -129t119 -84.5t159.5 -30.5t159 30t118.5 84
t74 129t25.5 165v871h193v-871q0 -113 -33 -210.5t-94.5 -173t-150 -124.5t-199.5 -64q-19 -11 -38.5 -26.5t-35 -34.5t-25 -41t-9.5 -47q0 -38 24.5 -59.5t66.5 -21.5q23 0 38 3.5t25 8t16.5 8.5t11.5 4z" />
    <glyph glyph-name="aogonek" unicode="&#x105;" horiz-adv-x="994" 
d="M928 -211q7 0 11.5 -4t6.5 -9l28 -66q-30 -23 -76.5 -37.5t-97.5 -14.5q-88 0 -138.5 39.5t-50.5 105.5q0 29 11 57t30.5 53.5t46 48t57.5 41.5q-25 7 -33 39l-20 95q-40 -36 -78.5 -64.5t-80 -48t-89 -30t-105.5 -10.5q-59 0 -111 16.5t-90.5 49.5t-61 83.5t-22.5 119.5
q0 60 33 115.5t107 98.5t193 70.5t292 31.5v79q0 118 -51 178.5t-149 60.5q-66 0 -110.5 -16.5t-77 -37t-56 -37t-46.5 -16.5q-18 0 -31 9.5t-22 23.5l-32 57q84 81 181 121t215 40q85 0 151 -28t111 -78t68 -121t23 -156v-648q-20 -11 -41 -26.5t-38 -35t-28 -43t-11 -49.5
q0 -38 24.5 -59.5t66.5 -21.5q23 0 38 3.5t25 8t16.5 8.5t11.5 4zM403 109q47 0 86 9.5t73.5 27t66 43t61.5 57.5v210q-123 -4 -209.5 -19.5t-141 -40.5t-79 -59t-24.5 -76q0 -40 13 -69t35.5 -47.5t53 -27t65.5 -8.5z" />
    <glyph glyph-name="_238" horiz-adv-x="2080" 
d="M846 833q-8 -11 -16 -17t-22 -6q-15 0 -33 12.5t-44.5 27.5t-65 27.5t-94.5 12.5q-75 0 -132 -26.5t-95.5 -76.5t-58 -121t-19.5 -159q0 -92 21 -163.5t59.5 -120t93 -74t122.5 -25.5q65 0 107 15.5t69.5 34.5t46 34.5t36.5 15.5q22 0 34 -17l50 -65q-33 -41 -75 -70
t-90.5 -48.5t-101.5 -28.5t-108 -9q-95 0 -176.5 35t-141.5 101.5t-94 163.5t-34 221q0 113 31.5 209t92 165.5t149 108.5t203.5 39q21 0 40.5 -2t39.5 -4q-29 50 -45 104t-16 110q0 69 25 128.5t72 103.5t116 69t158 25q66 0 116.5 -13.5t89 -30t68 -31t54.5 -15.5h5v-596
q65 69 144 110.5t182 41.5q83 0 146.5 -27.5t106 -78t64.5 -121.5t22 -157v-645h-179v645q0 115 -52.5 178.5t-159.5 63.5q-80 0 -148.5 -38t-125.5 -103v-746h-179v1384q-23 41 -76.5 63t-119.5 22q-61 0 -106.5 -18.5t-75.5 -50t-45 -73.5t-15 -88q0 -70 32 -137.5
t87 -124.5q59 -31 108 -80z" />
    <glyph glyph-name="_239" horiz-adv-x="1979" 
d="M846 833q-8 -11 -16 -17t-22 -6q-15 0 -33 12.5t-44.5 27.5t-65 27.5t-94.5 12.5q-75 0 -132 -26.5t-95.5 -76.5t-58 -121t-19.5 -159q0 -92 21 -163.5t59.5 -120t93 -74t122.5 -25.5q65 0 107 15.5t69.5 34.5t46 34.5t36.5 15.5q22 0 34 -17l50 -65q-33 -41 -75 -70
t-90.5 -48.5t-101.5 -28.5t-108 -9q-95 0 -176.5 35t-141.5 101.5t-94 163.5t-34 221q0 113 31.5 209t92 165.5t149 108.5t203.5 39q21 0 40.5 -2t39.5 -4q-29 50 -45 104t-16 110q0 69 25 128.5t72 103.5t116 69t158 25q68 0 119.5 -14t90.5 -31t68.5 -31t54.5 -14v-867h46
q20 0 33.5 5.5t28.5 22.5l320 343q14 17 29.5 26.5t41.5 9.5h161l-373 -397q-27 -34 -58 -53q18 -12 32.5 -27.5t27.5 -35.5l396 -500h-159q-23 0 -39.5 7.5t-28.5 27.5l-333 415q-15 21 -29.5 27.5t-44.5 6.5h-51v-484h-179v1384q-23 41 -76.5 63t-119.5 22
q-61 0 -106.5 -18.5t-75.5 -50t-45 -73.5t-15 -88q0 -70 32 -137.5t87 -124.5q59 -31 108 -80z" />
    <glyph glyph-name="_240" horiz-adv-x="1658" 
d="M1323 993h292v-129h-292v-608q0 -64 31 -95t79 -31q28 0 49 7.5t36 16.5t25 16.5t18 7.5q9 0 14.5 -4t10.5 -13l53 -85q-47 -43 -112 -67.5t-134 -24.5q-119 0 -184 67t-65 193v620h-122q-16 0 -26.5 9.5t-10.5 29.5v71l172 22q8 30 15.5 63.5t13.5 68t10 69t4 65.5
q0 48 -12.5 89t-40.5 71t-71.5 47t-104.5 17q-73 0 -128 -22t-92 -59t-55.5 -85.5t-18.5 -100.5q0 -61 27.5 -124t80.5 -118q59 -31 108 -80l-47 -64q-8 -11 -16 -17t-22 -6q-15 0 -33 12.5t-44.5 27.5t-65 27.5t-94.5 12.5q-75 0 -132 -26.5t-95.5 -76.5t-58 -121
t-19.5 -159q0 -92 21 -163.5t59.5 -120t93 -74t122.5 -25.5q65 0 107 15.5t69.5 34.5t46 34.5t36.5 15.5q22 0 34 -17l50 -65q-33 -41 -75 -70t-90.5 -48.5t-101.5 -28.5t-108 -9q-95 0 -176.5 35t-141.5 101.5t-94 163.5t-34 221q0 113 31.5 209t92 165.5t149 108.5
t203.5 39q43 0 82 -6q-26 46 -39 95.5t-13 99.5q0 67 24 129.5t72 110.5t119 76.5t166 28.5q92 0 158.5 -27.5t109.5 -73t63.5 -104t20.5 -120.5v-245z" />
    <glyph glyph-name="_241" horiz-adv-x="1660" 
d="M1323 993h292v-129h-292v-608q0 -64 31 -95t79 -31q28 0 49 7.5t36 16.5t25 16.5t18 7.5q9 0 14.5 -4t10.5 -13l53 -85q-47 -43 -112 -67.5t-134 -24.5q-119 0 -184 67t-65 193v620h-122q-16 0 -26.5 9.5t-10.5 29.5v71l172 22q8 30 15.5 63.5t13.5 68t10 69t4 65.5
q0 48 -12.5 89t-40.5 71t-71.5 47t-104.5 17q-73 0 -128 -22t-92 -59t-55.5 -85.5t-18.5 -100.5q0 -61 27.5 -124t80.5 -118q59 -31 108 -80l-47 -64q-8 -11 -16 -17t-22 -6q-15 0 -33 12.5t-44.5 27.5t-65 27.5t-94.5 12.5q-75 0 -132 -26.5t-95.5 -76.5t-58 -121
t-19.5 -159q0 -92 21 -163.5t59.5 -120t93 -74t122.5 -25.5q65 0 107 15.5t69.5 34.5t46 34.5t36.5 15.5q22 0 34 -17l50 -65q-58 -71 -140.5 -108t-177.5 -45l-18 -64q93 -19 134.5 -54t41.5 -89q0 -32 -16 -58t-44.5 -44t-68.5 -27.5t-88 -9.5q-41 0 -78 8.5t-68 22.5
l17 55q6 18 23 18q6 0 14 -3.5t19.5 -8t27 -8t36.5 -3.5q42 0 63.5 17t21.5 43q0 38 -42 53.5t-119 25.5l41 125q-86 8 -159.5 46.5t-127 104.5t-83.5 159t-30 209q0 113 31.5 209t92 165.5t149 108.5t203.5 39q43 0 82 -6q-26 46 -39 95.5t-13 99.5q0 67 24 129.5t72 110.5
t119 76.5t166 28.5q92 0 158.5 -27.5t109.5 -73t63.5 -104t20.5 -120.5v-245z" />
    <glyph glyph-name="dcaron" unicode="&#x10f;" horiz-adv-x="1120" 
d="M86 0zM873 0q-38 0 -48 37l-16 123q-65 -79 -148.5 -126.5t-191.5 -47.5q-87 0 -158 33.5t-121 98.5t-77 162t-27 223q0 112 30 208.5t86 167.5t137.5 111.5t183.5 40.5q93 0 159.5 -31.5t118.5 -88.5v562h178v-1473h-106zM527 130q88 0 153.5 40t120.5 113v489
q-50 66 -108 93t-130 27q-141 0 -217 -101t-76 -288q0 -99 17 -169.5t50 -116t81 -66.5t109 -21zM1257 1475q22 0 27.5 -10.5t5.5 -22.5q0 -10 -3.5 -26.5t-12.5 -46t-25 -74.5t-41 -111q-10 -22 -24.5 -29t-39.5 -7h-62l57 327h118z" />
    <glyph glyph-name="dcroat" unicode="&#x111;" horiz-adv-x="1121" 
d="M565 1256h237v217h178v-217h148v-113h-148v-1143h-106q-38 0 -48 37l-16 123q-64 -79 -148 -126.5t-192 -47.5q-87 0 -158 32t-121 95t-77 158t-27 221q0 112 30 207t86 164t137.5 107.5t183.5 38.5q93 0 159.5 -31.5t118.5 -88.5v254h-237v113zM528 130q88 0 153.5 40
t120.5 113v467q-50 66 -108 93.5t-130 27.5q-141 0 -217 -96t-76 -283q0 -99 17 -168t50 -112t81 -62.5t109 -19.5z" />
    <glyph glyph-name="eth" unicode="&#xf0;" horiz-adv-x="1132" 
d="M423 1065q-12 18 -8 35t22 28l103 72q-45 20 -95.5 36.5t-107.5 30.5q-23 7 -37 28t-1 57l20 62q96 -16 186.5 -46t171.5 -78l166 122l35 -57q11 -17 7 -33.5t-21 -27.5l-97 -67q60 -49 109.5 -111t84.5 -139.5t54.5 -170t19.5 -202.5q0 -143 -31 -257t-92.5 -194
t-153 -123t-211.5 -43q-98 0 -182.5 33t-147.5 94.5t-99 150.5t-36 201q0 94 31 177.5t89 146.5t140.5 100t186.5 37q101 0 189.5 -43t152.5 -130q-20 136 -78.5 231t-152.5 159l-184 -135zM551 125q71 0 128.5 27t98 81.5t63.5 137t26 193.5q-16 43 -42 83.5t-63 72
t-86.5 50t-111.5 18.5q-75 0 -132 -25t-95 -68.5t-57.5 -103t-19.5 -127.5q0 -81 23 -144.5t63 -106.5t92.5 -65.5t112.5 -22.5z" />
    <glyph glyph-name="eogonek" unicode="&#x119;" horiz-adv-x="1056" 
d="M750 -211q7 0 11.5 -4t6.5 -9l28 -66q-30 -23 -76.5 -37.5t-97.5 -14.5q-88 0 -138.5 39.5t-50.5 105.5q0 53 33 100t85 84q-102 2 -188 38.5t-148 105t-97 168t-35 228.5q0 106 32.5 198t93.5 159.5t149 106t198 38.5q91 0 168.5 -30.5t134 -88t88.5 -142t32 -192.5
q0 -42 -9 -56t-34 -14h-677q2 -96 26 -167t66 -118.5t100 -71t130 -23.5q67 0 115.5 15.5t83.5 33.5t58.5 33.5t40.5 15.5q22 0 34 -17l50 -65q-51 -60 -126 -96t-159 -50q-20 -11 -39.5 -26.5t-35 -34.5t-25.5 -41.5t-10 -47.5q0 -38 24.5 -59.5t66.5 -21.5q23 0 38 3.5
t25 8t16.5 8.5t11.5 4zM560 898q-129 0 -203 -74.5t-92 -206.5h554q0 62 -17.5 113.5t-51 89t-81.5 58t-109 20.5z" />
    <glyph glyph-name="_275" horiz-adv-x="1120" 
d="M980 1013v-957q0 -91 -31.5 -167.5t-91.5 -132t-147.5 -87t-199.5 -31.5q-125 0 -214.5 36.5t-149.5 90.5l41 67q8 13 19.5 20t28.5 7q18 0 39 -14t51 -31t73.5 -31t107.5 -14q73 0 128.5 21t92.5 58.5t55.5 88.5t18.5 111v117q-33 -38 -67.5 -67t-72.5 -48.5t-82.5 -29
t-96.5 -9.5q-92 0 -165.5 33.5t-124.5 98t-78.5 159.5t-27.5 217q0 108 30 201.5t86.5 162t138 108t183.5 39.5q99 0 168 -35t122 -99l12 80q9 37 47 37h107zM528 155q87 0 152.5 40t120.5 114v464q-48 64 -106.5 91.5t-130.5 27.5q-142 0 -218 -97t-76 -276
q0 -95 17.5 -164t50.5 -113.5t81 -65.5t109 -21z" />
    <glyph glyph-name="hcircumflex" unicode="&#x125;" horiz-adv-x="1116" 
d="M0 0zM141 0v1473h179v-596q65 69 144 110.5t182 41.5q83 0 146.5 -27.5t106 -78t64.5 -121.5t22 -157v-645h-179v645q0 115 -52.5 178.5t-159.5 63.5q-80 0 -148.5 -38t-125.5 -103v-746h-179zM548 1546h-130q-12 0 -28.5 4.5t-33.5 24.5l-117 141q-6 8 -12 17l-12 -17
l-117 -141q-17 -20 -33.5 -24.5t-28.5 -4.5h-125l239 271h160z" />
    <glyph glyph-name="hbar" unicode="&#x127;" horiz-adv-x="1116" 
d="M-13 1270h154v203h178v-203h293v-113h-293v-302q65 69 144 110.5t182 41.5q83 0 146.5 -27.5t106 -78t64.5 -121t22 -156.5v-624h-178v624q0 114 -52.5 177.5t-160.5 63.5q-79 0 -147.5 -37.5t-126.5 -103.5v-724h-178v1157h-154v113z" />
    <glyph glyph-name="iogonek" unicode="&#x12f;" horiz-adv-x="480" 
d="M61 0zM329 1013v-1013h-178v1013h178zM367 1331q0 -26 -10.5 -48.5t-28 -40t-41 -27.5t-49.5 -10t-48.5 10t-39.5 27.5t-27 40t-10 48.5t10 49.5t27 41t39.5 27.5t48.5 10t49.5 -10t41 -27.5t28 -41t10.5 -49.5zM378 -211q7 0 11.5 -4t6.5 -9l28 -66q-30 -23 -76.5 -37.5
t-97.5 -14.5q-88 0 -138.5 39.5t-50.5 105.5q0 31 12.5 60.5t34 56.5t51 50.5t63.5 42.5l92 -13q-20 -11 -41 -26.5t-38 -35t-28 -43t-11 -49.5q0 -38 24.5 -59.5t66.5 -21.5q23 0 38 3.5t25 8t16.5 8.5t11.5 4z" />
    <glyph glyph-name="_279" horiz-adv-x="1047" 
d="M309 1013v-646q0 -115 51 -177.5t158 -62.5q37 0 66 6t53 19.5t45.5 35.5t44.5 55v770h179v-1010q0 -82 -22 -149.5t-68 -115.5t-116.5 -74.5t-167.5 -26.5q-33 0 -67 5t-61 15l12 96q3 9 7.5 13.5t13.5 5.5t23 0.5t36 -0.5q116 0 173.5 55t57.5 176v103
q-53 -60 -114 -90t-149 -30q-85 0 -147.5 27t-104 77t-61.5 120.5t-20 156.5v646h178zM947 1331q0 -26 -10.5 -48.5t-28 -40t-41 -27.5t-49.5 -10q-25 0 -47.5 10t-40 27.5t-27.5 40t-10 48.5t10 49.5t27.5 41t40 27.5t47.5 10q26 0 49.5 -10t41 -27.5t28 -41t10.5 -49.5z
M352 1331q0 -26 -10.5 -48.5t-28 -40t-40.5 -27.5t-49 -10t-48.5 10t-39.5 27.5t-27 40t-10 48.5t10 49.5t27 41t39.5 27.5t48.5 10t49 -10t40.5 -27.5t28 -41t10.5 -49.5z" />
    <glyph glyph-name="uni0237" unicode="&#x237;" horiz-adv-x="481" 
d="M330 1013v-1088q0 -61 -16.5 -113.5t-51 -91.5t-89 -61.5t-130.5 -22.5q-33 0 -59.5 5t-53.5 15l7 96q2 9 6 13.5t12 5.5t20.5 0.5t31.5 -0.5q78 0 111 36.5t33 117.5v1088h179z" />
    <glyph glyph-name="kgreenlandic" unicode="&#x138;" horiz-adv-x="1016" 
d="M320 1013v-407h46q20 0 33.5 5.5t28.5 22.5l320 343q14 17 29.5 26.5t41.5 9.5h161l-373 -397q-27 -34 -58 -53q18 -12 32.5 -27.5t27.5 -35.5l396 -500h-159q-23 0 -39.5 7.5t-28.5 27.5l-333 415q-15 21 -29.5 27.5t-44.5 6.5h-51v-484h-179v1013h179z" />
    <glyph glyph-name="lslash" unicode="&#x142;" horiz-adv-x="617" 
d="M402 1473v-545l188 80v-101q0 -33 -27 -44l-161 -71v-792h-178v727l-181 -79v105q0 27 25 40l156 70v610h178z" />
    <glyph glyph-name="lcaron" unicode="&#x13e;" horiz-adv-x="472" 
d="M147 0zM325 1473v-1473h-178v1473h178zM615 1475q22 0 27.5 -10.5t5.5 -22.5q0 -10 -3.5 -26.5t-12.5 -46t-25 -74.5t-41 -111q-10 -22 -24.5 -29t-39.5 -7h-62l57 327h118z" />
    <glyph glyph-name="eng" unicode="&#x14b;" horiz-adv-x="1116" 
d="M141 0v1013h107q38 0 47 -37l14 -110q66 73 148 118t189 45q83 0 146.5 -27.5t106 -78t64.5 -121.5t22 -157v-645q0 -82 -20 -149t-61 -115t-104 -74.5t-149 -26.5q-48 0 -86.5 8.5t-82.5 27.5l19 77q6 23 17 29.5t24 6.5q12 0 33.5 -7.5t59.5 -7.5q84 0 127.5 52
t43.5 159v665q0 115 -52.5 178.5t-159.5 63.5q-80 0 -148.5 -38t-125.5 -103v-746h-179z" />
    <glyph glyph-name="thorn" unicode="&#xfe;" horiz-adv-x="1121" 
d="M141 -343v1816h179v-607q64 75 145 119t186 44q88 0 159 -33t121 -98.5t77 -162t27 -222.5q0 -112 -30 -208.5t-86.5 -167t-138 -111t-183.5 -40.5q-94 0 -160 34.5t-117 97.5v-461h-179zM593 887q-87 0 -152.5 -40t-120.5 -113v-490q48 -66 106.5 -93t130.5 -27
q142 0 218 101t76 288q0 99 -17.5 170t-50.5 116.5t-81 66.5t-109 21z" />
    <glyph glyph-name="scedilla" unicode="&#x15f;" horiz-adv-x="866" 
d="M295 -253q6 0 14 -3.5t19.5 -8t27 -8t36.5 -3.5q42 0 63.5 17t21.5 43q0 38 -42 53.5t-119 25.5l41 123q-90 8 -163.5 40.5t-126.5 80.5l42 68q8 13 19 20t28 7q18 0 38 -14t48.5 -31t69.5 -31t102 -14q52 0 91 13.5t65 36.5t38.5 53t12.5 64q0 42 -22.5 69.5t-59.5 47
t-84.5 34t-97 30.5t-97 36.5t-84.5 51.5t-59.5 76.5t-22.5 110.5q0 58 24 111.5t70 94t113 64.5t153 24q100 0 179.5 -31.5t137.5 -86.5l-40 -65q-12 -22 -37 -22q-15 0 -34 11t-46.5 24.5t-65.5 25t-90 11.5q-45 0 -81 -11.5t-61.5 -31.5t-39 -46.5t-13.5 -57.5
q0 -39 22.5 -65t59.5 -45t84 -33.5t96.5 -31t96.5 -36.5t84 -50t59.5 -73.5t22.5 -104.5q0 -65 -21.5 -120.5t-63 -98.5t-103 -70t-140.5 -34l-18 -62q93 -19 134.5 -54t41.5 -89q0 -32 -16 -58t-44.5 -44t-68.5 -27.5t-88 -9.5q-41 0 -78 8.5t-68 22.5l17 55q6 18 23 18z
" />
    <glyph glyph-name="_287" horiz-adv-x="1592" 
d="M731 846q-12 -22 -37 -22q-15 0 -34 11t-46.5 24.5t-65.5 25t-90 11.5q-45 0 -81 -11.5t-61.5 -31.5t-39 -46.5t-13.5 -57.5q0 -39 22.5 -65t59.5 -45t84 -33.5t96.5 -31t96.5 -36.5t84 -50t59.5 -73.5t22.5 -104.5q0 -70 -25 -129.5t-74 -103t-120 -68.5t-164 -25
q-106 0 -192 34.5t-146 88.5l42 68q8 13 19 20t28 7q18 0 38 -14t48.5 -31t69.5 -31t102 -14q52 0 91 13.5t65 36.5t38.5 53t12.5 64q0 42 -22.5 69.5t-59.5 47t-84.5 34t-97 30.5t-97 36.5t-84.5 51.5t-59.5 76.5t-22.5 110.5q0 58 24 111.5t70 94t113 64.5t153 24
q58 0 111 -12q-47 89 -47 191q0 72 23 136.5t69.5 113t117.5 77t166 28.5q94 0 162 -28t112.5 -74.5t66 -105.5t21.5 -121v-241h293v-129h-293v-608q0 -64 31 -95t80 -31q28 0 48.5 7.5t35.5 16.5t25.5 16.5t18.5 7.5q15 0 25 -17l53 -85q-47 -43 -112 -67.5t-134 -24.5
q-120 0 -184.5 67t-64.5 193v620h-122q-16 0 -27 9.5t-11 29.5v71l173 22q15 60 28.5 129t13.5 132q0 49 -14 91t-43 72.5t-74 48t-108 17.5q-72 0 -126.5 -22.5t-90.5 -60.5t-54 -88t-18 -106q0 -72 32.5 -140t94.5 -126q11 -8 20.5 -16t18.5 -16z" />
    <glyph glyph-name="_288" horiz-adv-x="1593" 
d="M295 -253q6 0 14 -3.5t19.5 -8t27 -8t36.5 -3.5q42 0 63.5 17t21.5 43q0 38 -42 53.5t-119 25.5l41 123q-90 8 -163.5 40.5t-126.5 80.5l42 68q8 13 19 20t28 7q18 0 38 -14t48.5 -31t69.5 -31t102 -14q52 0 91 13.5t65 36.5t38.5 53t12.5 64q0 42 -22.5 69.5t-59.5 47
t-84.5 34t-97 30.5t-97 36.5t-84.5 51.5t-59.5 76.5t-22.5 110.5q0 58 24 111.5t70 94t113 64.5t153 24q58 0 111 -12q-47 89 -47 191q0 72 23 136.5t69.5 113t117.5 77t166 28.5q94 0 162 -28t112.5 -74.5t66 -105.5t21.5 -121v-241h293v-129h-293v-608q0 -64 31 -95
t80 -31q28 0 48.5 7.5t35.5 16.5t25.5 16.5t18.5 7.5q15 0 25 -17l53 -85q-47 -43 -112 -67.5t-134 -24.5q-120 0 -184.5 67t-64.5 193v620h-122q-16 0 -27 9.5t-11 29.5v71l173 22q15 60 28.5 129t13.5 132q0 49 -14 91t-43 72.5t-74 48t-108 17.5q-72 0 -126.5 -22.5
t-90.5 -60.5t-54 -88t-18 -106q0 -72 32.5 -140t94.5 -126q11 -8 20.5 -16t18.5 -16l-40 -65q-12 -22 -37 -22q-15 0 -34 11t-46.5 24.5t-65.5 25t-90 11.5q-45 0 -81 -11.5t-61.5 -31.5t-39 -46.5t-13.5 -57.5q0 -39 22.5 -65t59.5 -45t84 -33.5t96.5 -31t96.5 -36.5
t84 -50t59.5 -73.5t22.5 -104.5q0 -65 -21.5 -120.5t-63 -98.5t-103 -70t-140.5 -34l-18 -62q93 -19 134.5 -54t41.5 -89q0 -32 -16 -58t-44.5 -44t-68.5 -27.5t-88 -9.5q-41 0 -78 8.5t-68 22.5l17 55q6 18 23 18z" />
    <glyph glyph-name="longs" unicode="&#x17f;" horiz-adv-x="568" 
d="M209 0v861l-112 13q-22 5 -35 15.5t-13 30.5v73h160v98q0 87 24.5 154.5t69.5 114t109.5 70.5t144.5 24q68 0 126 -20l-7 -92q-1 -10 -8 -14.5t-19 -5.5t-28 -0.5t-35 0.5q-46 0 -83 -12.5t-62.5 -40.5t-39.5 -73t-14 -110v-1086h-178z" />
    <glyph glyph-name="tcaron" unicode="&#x165;" horiz-adv-x="715" 
d="M41 0zM450 -16q-120 0 -184.5 67t-64.5 193v620h-122q-16 0 -27 9.5t-11 29.5v71l166 21l41 313q3 15 13.5 24.5t27.5 9.5h90v-349h293v-129h-293v-608q0 -64 31 -95t80 -31q28 0 48.5 7.5t35.5 16.5t25.5 16.5t18.5 7.5q14 0 25 -17l52 -85q-46 -43 -111 -67.5
t-134 -24.5zM771 1475q22 0 27.5 -10.5t5.5 -22.5q0 -10 -3.5 -26.5t-12.5 -46t-25 -74.5t-41 -111q-10 -22 -24.5 -29t-39.5 -7h-62l57 327h118z" />
    <glyph glyph-name="tbar" unicode="&#x167;" horiz-adv-x="725" 
d="M64 692h142v172h-122q-16 0 -27 9.5t-11 29.5v71l166 21l41 313q3 15 13.5 24.5t27.5 9.5h90v-349h293v-129h-293v-172h295v-113h-295v-323q0 -64 31 -95t80 -31q28 0 48.5 7.5t35.5 16.5t25.5 16.5t18.5 7.5q14 0 25 -17l52 -85q-46 -43 -111 -67.5t-134 -24.5
q-120 0 -184.5 67t-64.5 193v335h-142v113z" />
    <glyph glyph-name="uogonek" unicode="&#x173;" horiz-adv-x="1115" 
d="M1039 -211q7 0 11.5 -4t6.5 -9l28 -66q-30 -23 -76.5 -37.5t-97.5 -14.5q-88 0 -138.5 39.5t-50.5 105.5q0 58 39.5 108.5t99.5 88.5q-32 3 -41 37l-14 109q-66 -73 -148 -117.5t-188 -44.5q-83 0 -146.5 27.5t-106.5 77.5t-64.5 121t-21.5 157v646h178v-646
q0 -115 52.5 -178t160.5 -63q78 0 147 37t127 103v747h178v-1013h1q-20 -11 -41 -26.5t-38 -35t-28 -43t-11 -49.5q0 -38 24.5 -59.5t66.5 -21.5q23 0 38 3.5t25 8t16.5 8.5t11.5 4z" />
    <glyph glyph-name="_300" horiz-adv-x="812" 
d="M700 841h-101q-29 0 -37 26l-40 107h-232l-40 -107q-4 -11 -14 -18.5t-24 -7.5h-101l237 592h116zM325 1068h161l-66 176q-9 20 -15 47q-3 -13 -6 -25t-8 -23z" />
    <glyph glyph-name="_301" horiz-adv-x="551" 
d="M418 915q-18 0 -27.5 5t-15.5 22l-11 36q-20 -17 -38.5 -30.5t-39 -22.5t-43 -13.5t-50.5 -4.5q-66 0 -108.5 35t-42.5 105q0 29 15 57.5t51 52t95.5 38.5t148.5 17v29q0 51 -22 75.5t-64 24.5q-30 0 -49.5 -7t-34.5 -15.5t-27.5 -15.5t-27.5 -7q-13 0 -22.5 6.5
t-15.5 16.5l-22 41q88 82 216 82q45 0 81 -15t60.5 -41.5t37.5 -63.5t13 -81v-326h-57zM232 994q38 0 65.5 13.5t54.5 41.5v85q-54 -2 -90.5 -9t-58 -17.5t-31 -24t-9.5 -29.5q0 -32 19 -46t50 -14z" />
    <glyph glyph-name="_302" horiz-adv-x="611" 
d="M209 1370q30 32 68.5 51.5t90.5 19.5q42 0 77.5 -17.5t61 -51t39.5 -82.5t14 -113q0 -58 -16 -107.5t-45 -85.5t-70 -56.5t-92 -20.5q-49 0 -80.5 18.5t-57.5 50.5l-3 -37q-3 -14 -10.5 -19t-19.5 -5h-84v749h127v-294zM322 1341q-35 0 -61 -15.5t-52 -45.5v-231
q21 -25 45.5 -34.5t53.5 -9.5q55 0 88 41t33 131t-28.5 127t-78.5 37z" />
    <glyph glyph-name="_303" horiz-adv-x="526" 
d="M449 1321q-6 -8 -11 -12t-16 -4q-9 0 -18.5 6t-21.5 13t-29.5 13t-42.5 6q-66 0 -98.5 -45t-32.5 -124q0 -82 34 -125.5t93 -43.5q30 0 48 7t30.5 16t22 16t21.5 7q15 0 23 -12l36 -47q-42 -50 -95.5 -67.5t-108.5 -17.5q-48 0 -90.5 18t-74 52t-50 84t-18.5 113
q0 57 16.5 106t48 84.5t78.5 56t108 20.5q59 0 102.5 -19t78.5 -55z" />
    <glyph glyph-name="_304" horiz-adv-x="611" 
d="M451 915q-25 0 -31 23l-8 52q-32 -38 -73 -60.5t-96 -22.5q-42 0 -77.5 17.5t-60.5 51.5t-39 83t-14 112q0 58 15.5 107.5t45 86t70.5 57t92 20.5q43 0 73 -13.5t54 -36.5v272h127v-749h-78zM293 1009q34 0 60 14.5t49 43.5v233q-21 25 -45.5 34.5t-52.5 9.5
q-56 0 -89 -41.5t-33 -131.5q0 -89 28.5 -125.5t82.5 -36.5z" />
    <glyph glyph-name="_305" horiz-adv-x="575" 
d="M299 1441q49 0 90.5 -16t71.5 -46t46.5 -74t16.5 -100q0 -29 -6 -39t-23 -10h-319q6 -78 43 -114t97 -36q30 0 52 7t38.5 15.5t29 15.5t23.5 7q16 0 24 -12l36 -47q-21 -25 -47 -41.5t-54 -26t-57 -13.5t-56 -4q-54 0 -100.5 18t-81 53t-54 87t-19.5 120q0 52 17 99
t49.5 81.5t78.5 55t104 20.5zM301 1349q-54 0 -84 -30t-38 -85h232q0 23 -7 44t-20.5 36.5t-34 25t-48.5 9.5z" />
    <glyph glyph-name="_306" horiz-adv-x="395" 
d="M114 915v421l-45 8q-14 3 -23 10.5t-9 21.5v52h77v38q0 89 51.5 140t142.5 51q34 0 67 -9l-4 -65q-1 -14 -12 -18.5t-35 -4.5q-40 0 -64 -21t-24 -78v-33h133v-91h-129v-422h-126z" />
    <glyph glyph-name="_307" horiz-adv-x="571" 
d="M264 1442q33 0 62.5 -7t54.5 -20h149v-48q0 -22 -28 -28l-45 -9q10 -24 10 -56q0 -39 -15.5 -70t-42.5 -52.5t-64.5 -33.5t-80.5 -12q-28 0 -56 5q-24 -14 -24 -31q0 -20 25 -26.5t62 -8.5t81 -4.5t81 -14t62 -37.5t25 -75q0 -35 -17 -67.5t-49 -57.5t-78.5 -40.5
t-106.5 -15.5q-59 0 -102 11.5t-71.5 30t-42.5 43t-14 51.5q0 35 21 60t59 39q-20 11 -31.5 29t-11.5 47q0 23 16 48t51 42q-39 22 -61.5 57t-22.5 83q0 39 15.5 70t43 52.5t65 33.5t81.5 12zM404 894q0 22 -20 31t-50.5 12.5t-68 4t-73.5 5.5q-20 -11 -32 -26t-12 -33
q0 -29 28 -49t96 -20q64 0 98 22t34 53zM264 1188q47 0 69 22.5t22 58.5q0 38 -22.5 60.5t-68.5 22.5q-45 0 -67.5 -22.5t-22.5 -60.5q0 -35 22.5 -58t67.5 -23z" />
    <glyph glyph-name="_308" horiz-adv-x="612" 
d="M83 915v749h126v-287q30 29 66 46.5t85 17.5q43 0 75.5 -14.5t54.5 -41t33.5 -62.5t11.5 -79v-329h-127v329q0 46 -21.5 71.5t-64.5 25.5q-32 0 -60 -14.5t-53 -38.5v-373h-126z" />
    <glyph glyph-name="_309" horiz-adv-x="288" 
d="M207 1411v-496h-126v496h126zM227 1582q0 -16 -6.5 -30.5t-18 -25.5t-26.5 -17.5t-31 -6.5t-30.5 6.5t-25 17.5t-17 25.5t-6.5 30.5q0 17 6.5 32t17 26t25 17.5t30.5 6.5q33 0 57.5 -24t24.5 -58z" />
    <glyph glyph-name="_310" horiz-adv-x="289" 
d="M208 1411v-512q0 -34 -9 -64.5t-28.5 -53t-51 -35.5t-77.5 -13q-34 0 -64 10l4 69q2 10 8.5 13t25.5 3q38 0 51.5 15.5t13.5 55.5v512h127zM227 1582q0 -16 -6.5 -30.5t-17.5 -25.5t-26 -17.5t-32 -6.5q-16 0 -30.5 6.5t-25 17.5t-17 25.5t-6.5 30.5q0 17 6.5 32t17 26
t25 17.5t30.5 6.5q34 0 58 -24t24 -58z" />
    <glyph glyph-name="_311" horiz-adv-x="580" 
d="M209 1664v-428h23q13 0 21 3t14 14l127 157q11 23 44 23h115l-159 -192q-14 -23 -38 -38q22 -12 35 -38l171 -250h-114q-14 0 -26 4t-17 18l-130 195q-6 12 -14.5 15t-23.5 3h-28v-235h-126v749h126z" />
    <glyph glyph-name="_312" horiz-adv-x="292" 
d="M209 1664v-749h-126v749h126z" />
    <glyph glyph-name="_313" horiz-adv-x="888" 
d="M83 915v518h77q24 0 30 -25l3 -44q29 33 63 55t83 22t80.5 -26.5t46.5 -70.5q25 52 70.5 74.5t95.5 22.5q87 0 133 -51.5t46 -145.5v-329h-127v329q0 97 -84 97q-37 0 -63.5 -24.5t-26.5 -72.5v-329h-126v329q0 47 -20 72t-62 25q-26 0 -49.5 -12.5t-43.5 -35.5v-378
h-126z" />
    <glyph glyph-name="uni207F" unicode="&#x207f;" horiz-adv-x="610" 
d="M83 915v518h66q14 0 21.5 -6t12.5 -21l8 -46q34 35 73.5 58t95.5 23q42 0 74.5 -14.5t54.5 -41t33.5 -62.5t11.5 -79v-329h-126v329q0 47 -21.5 72t-65.5 25q-32 0 -59.5 -14t-52.5 -39v-373h-126z" />
    <glyph glyph-name="_315" horiz-adv-x="613" 
d="M307 1441q58 0 105 -18.5t80.5 -53.5t52 -84.5t18.5 -110.5q0 -62 -18.5 -111t-52 -84t-80.5 -53.5t-105 -18.5t-105.5 18.5t-81 53.5t-52 84t-18.5 111q0 61 18.5 110.5t52 84.5t81 53.5t105.5 18.5zM307 1005q125 0 125 169q0 83 -30.5 125.5t-94.5 42.5
q-65 0 -96 -42.5t-31 -125.5q0 -169 127 -169z" />
    <glyph glyph-name="_316" horiz-adv-x="612" 
d="M83 746v687h77q27 0 32 -24l6 -52q32 38 73 61.5t98 23.5q42 0 77.5 -17.5t60.5 -51.5t39 -83t14 -113q0 -58 -15.5 -107.5t-44.5 -85.5t-70 -56.5t-92 -20.5q-45 0 -75 13.5t-54 36.5v-211h-126zM326 1341q-39 0 -66.5 -16t-50.5 -45v-231q21 -25 45.5 -34.5t53.5 -9.5
q56 0 89 41t33 131t-28 127t-76 37z" />
    <glyph glyph-name="_317" horiz-adv-x="611" 
d="M528 1433v-687h-126v233q-31 -33 -69.5 -52.5t-89.5 -19.5q-42 0 -77.5 17.5t-60.5 51.5t-39 83t-14 112q0 58 15.5 107.5t44.5 86t70 57t92 20.5q48 0 80.5 -16.5t58.5 -44.5l6 28q7 24 32 24h77zM289 1009q35 0 62 15.5t51 44.5v230q-20 24 -45 34.5t-54 10.5
q-59 0 -90.5 -42.5t-31.5 -130.5q0 -44 7.5 -75t22 -50.5t34.5 -28t44 -8.5z" />
    <glyph glyph-name="_318" horiz-adv-x="408" 
d="M83 915v518h74q20 0 26.5 -7.5t11.5 -25.5l3 -62q25 48 58.5 76t80.5 28q34 0 58 -16l-9 -96q-4 -17 -20 -17q-8 0 -23 2.5t-29 2.5q-42 0 -65 -23t-40 -65v-315h-126z" />
    <glyph glyph-name="_319" horiz-adv-x="481" 
d="M397 1329q-11 -15 -25 -15q-9 0 -19.5 5t-24 11.5t-31 11.5t-40.5 5q-37 0 -57.5 -15.5t-20.5 -39.5q0 -22 18.5 -34.5t46.5 -22t61 -19.5t61 -26.5t46.5 -42.5t18.5 -68q0 -38 -13.5 -69.5t-40 -54t-65 -35.5t-89.5 -13q-53 0 -101 17.5t-79 45.5l30 49q5 8 12.5 13
t19.5 5t22 -6.5t23.5 -14t32 -14t46.5 -6.5q45 0 64.5 18.5t19.5 41.5q0 24 -19 37t-47 22.5t-61 19.5t-61 27t-47 45t-19 75q0 32 12.5 61t37 50.5t61 34.5t84.5 13q54 0 98 -18t73 -47z" />
    <glyph glyph-name="_320" horiz-adv-x="427" 
d="M251 907q-68 0 -104.5 38t-36.5 106v286h-52q-10 0 -17 6.5t-7 19.5v52l82 14l27 139q5 22 28 22h65v-162h139v-91h-139v-277q0 -24 12.5 -37t32.5 -13q22 0 32 8t19 8q10 0 17 -12l38 -62q-27 -23 -62.5 -34t-73.5 -11z" />
    <glyph glyph-name="_321" horiz-adv-x="610" 
d="M202 1433v-330q0 -46 22 -71t65 -25q32 0 59.5 13.5t52.5 37.5v375h127v-518h-77q-25 0 -32 23l-7 42q-32 -33 -70 -53t-91 -20q-42 0 -75 14.5t-55 40.5t-33.5 62t-11.5 79v330h126z" />
    <glyph glyph-name="_322" horiz-adv-x="543" 
d="M9 1433h104q30 0 37 -25l101 -271q6 -26 11 -50.5t10 -48.5q5 24 11 49t13 51l103 270q2 11 12 18t23 7h100l-206 -518h-114z" />
    <glyph glyph-name="_323" horiz-adv-x="845" 
d="M27 1433h103q14 0 24.5 -7.5t12.5 -22.5l75 -264q4 -24 7.5 -46t8.5 -43q5 21 10 43t12 46l86 267q3 13 12.5 20t21.5 7h50q31 0 37 -28l84 -266q5 -23 10 -43.5t9 -40.5l17 84l78 265q3 14 13 21.5t23 7.5h98l-167 -518h-98q-17 0 -24 22l-93 294q-5 14 -8 28.5t-6 28.5
q-2 -15 -5.5 -29.5t-7.5 -28.5l-95 -293q-6 -22 -27 -22h-97z" />
    <glyph glyph-name="_324" horiz-adv-x="571" 
d="M200 1182l-169 251h122q14 0 20.5 -4t11.5 -13l109 -174q2 9 5.5 18t8.5 20l86 134q9 19 29 19h116l-170 -246l177 -272h-121q-14 0 -22.5 7t-13.5 16l-110 181q-4 -19 -12 -34l-95 -147q-5 -9 -13.5 -16t-21.5 -7h-113z" />
    <glyph glyph-name="_325" horiz-adv-x="544" 
d="M258 781q-8 -20 -17.5 -27.5t-27.5 -7.5h-94l96 207l-208 480h111q15 0 23.5 -7.5t11.5 -17.5l109 -262q5 -14 9 -28t7 -28q5 15 9.5 30t9.5 29l107 259q4 11 13.5 18t21.5 7h97z" />
    <glyph glyph-name="_326" horiz-adv-x="498" 
d="M451 1379q0 -28 -19 -52l-242 -314h254v-98h-401v53q0 8 5 21.5t16 27.5l241 317h-247v99h393v-54z" />
    <glyph glyph-name="_327" 
d="M234 1852q33 0 50 -5t34 -27l228 -274h-128q-22 0 -34.5 2.5t-27.5 16.5l-312 287h190z" />
    <glyph glyph-name="_328" 
d="M789 1852l-326 -286q-15 -14 -29 -17t-34 -3h-128l231 274q17 22 34.5 27t50.5 5h201z" />
    <glyph glyph-name="_329" 
d="M721 1546h-130q-12 0 -28.5 4.5t-33.5 24.5l-117 141q-6 8 -12 17l-12 -17l-117 -141q-17 -20 -33.5 -24.5t-28.5 -4.5h-125l239 271h160z" />
    <glyph glyph-name="_330" 
d="M79 1817h130q12 0 28.5 -3t28.5 -20l122 -151q3 -5 6 -9.5t6 -8.5q2 4 5 8.5t7 9.5l121 150q13 18 29.5 21t28.5 3h130l-238 -271h-166z" />
    <glyph glyph-name="uni0315" unicode="&#x315;" 
d="M478 1475q22 0 27.5 -10.5t5.5 -22.5q0 -10 -3.5 -26.5t-12.5 -46t-25 -74.5t-41 -111q-10 -22 -24.5 -29t-39.5 -7h-62l57 327h118z" />
    <glyph glyph-name="_332" 
d="M526 1663q23 0 40.5 8.5t29.5 23t18 32.5t6 36h109q0 -43 -12 -82.5t-35.5 -70t-57.5 -48.5t-78 -18q-45 0 -80.5 16.5t-66 36t-57.5 36t-55 16.5q-23 0 -40 -9t-28.5 -23.5t-17.5 -32.5t-6 -36h-111q0 43 12.5 83t35.5 70.5t57 48.5t78 18q45 0 81 -16.5t66 -36t57 -36
t55 -16.5z" />
    <glyph glyph-name="_333" 
d="M301 1666q0 -22 -9 -41.5t-24.5 -34.5t-36 -23.5t-42.5 -8.5q-21 0 -40.5 8.5t-34.5 23.5t-24 34.5t-9 41.5q0 23 9 43.5t24 35.5t34.5 24t40.5 9q22 0 42.5 -9t36 -24t24.5 -35.5t9 -43.5zM719 1666q0 -22 -9 -41.5t-24 -34.5t-35 -23.5t-42 -8.5q-23 0 -43 8.5
t-35 23.5t-23.5 34.5t-8.5 41.5q0 23 8.5 43.5t23.5 35.5t35 24t43 9q22 0 42 -9t35 -24t24 -35.5t9 -43.5z" />
    <glyph glyph-name="_334" 
d="M121 1694h558v-105h-558v105z" />
    <glyph glyph-name="_335" 
d="M400 1544q-142 0 -221 65t-79 200h138q0 -37 8.5 -65.5t27.5 -48.5t50 -30.5t76 -10.5q90 0 125.5 40.5t35.5 114.5h138q0 -127 -78.5 -196t-220.5 -69z" />
    <glyph glyph-name="_336" 
d="M210 1697q0 39 15.5 72t41 56t59.5 36t72 13q39 0 74 -13t61 -36t41.5 -56t15.5 -72t-15.5 -71t-41.5 -55t-61 -36t-74 -13q-38 0 -72 13t-59.5 36t-41 55t-15.5 71zM299 1697q0 -44 27 -72t75 -28q45 0 72.5 28t27.5 72q0 45 -27.5 73t-72.5 28q-48 0 -75 -28t-27 -73z
" />
    <glyph glyph-name="_337" 
d="M200 1308q0 42 16 76t43.5 59t63.5 38.5t76 13.5q41 0 77.5 -13.5t64.5 -38.5t44 -59t16 -76q0 -41 -16 -75t-44 -58.5t-64.5 -38t-77.5 -13.5q-40 0 -76 13.5t-63.5 38t-43.5 58.5t-16 75zM300 1308q0 -44 27 -72t74 -28q45 0 72.5 28t27.5 72q0 45 -27.5 73t-72.5 28
q-47 0 -74 -28t-27 -73zM750 1847l-234 -258q-14 -15 -27 -21t-34 -6h-107l149 241q13 23 29.5 33.5t49.5 10.5h174z" />
    <glyph glyph-name="_338" 
d="M219 1656q0 37 14.5 68.5t39 54t57 35t68.5 12.5q37 0 70 -12.5t58 -35t39.5 -54t14.5 -68.5t-14.5 -67.5t-39.5 -52.5t-58 -34t-70 -12q-36 0 -68.5 12t-57 34t-39 52.5t-14.5 67.5zM302 1656q0 -42 26 -69.5t71 -27.5q44 0 71 27.5t27 69.5q0 45 -27 71.5t-71 26.5
q-45 0 -71 -26.5t-26 -71.5zM797 2107l-290 -212q-15 -14 -29 -17t-34 -3h-128l195 200q17 22 34.5 27t50.5 5h201z" />
    <glyph glyph-name="_339" 
d="M515 1818l-205 -245q-14 -14 -27.5 -20.5t-34.5 -6.5h-85l148 228q14 21 34 32.5t53 11.5h117zM887 1818l-249 -245q-15 -14 -30.5 -20.5t-35.5 -6.5h-96l185 228q17 21 38 32.5t53 11.5h135z" />
    <glyph glyph-name="_340" 
d="M522 1688q0 -24 -10 -46t-27 -38.5t-39.5 -26.5t-47.5 -10q-24 0 -46 10t-38.5 26.5t-26 38.5t-9.5 46q0 25 9.5 47t26 39t38.5 27t46 10q25 0 47.5 -10t39.5 -27t27 -39t10 -47z" />
    <glyph glyph-name="_341" 
d="M453 -96q23 0 28.5 -10.5t5.5 -22.5q0 -9 -2.5 -26t-10 -43.5t-20 -64.5t-31.5 -90q-10 -22 -24.5 -29t-39.5 -7h-62l49 293h107z" />
    <glyph glyph-name="_342" 
d="M476 1158h-158l95 282h113z" />
    <glyph glyph-name="Gamma" unicode="&#x393;" horiz-adv-x="1096" 
d="M1066 1280h-689v-1280h-194v1433h883v-153z" />
    <glyph glyph-name="uni0394" unicode="&#x394;" horiz-adv-x="1356" 
d="M27 55q0 54 23 115l532 1263h196l527 -1259q11 -29 17.5 -58t6.5 -59v-57h-1302v55zM228 156h882l-392 959q-23 59 -46 147q-11 -45 -22.5 -82t-22.5 -66z" />
    <glyph glyph-name="Theta" unicode="&#x398;" horiz-adv-x="1601" 
d="M519 803h562v-158h-562v158zM1507 716q0 -161 -51 -295.5t-144 -231.5t-223.5 -150.5t-288.5 -53.5t-288 53.5t-223 150.5t-144 231.5t-51 295.5t51 295.5t144 232t223 151.5t288 54t288.5 -54t223.5 -151.5t144 -232t51 -295.5zM1308 716q0 132 -36 237t-102 177.5
t-160 111.5t-210 39q-115 0 -209 -39t-160.5 -111.5t-102.5 -177.5t-36 -237t36 -236.5t102.5 -177t160.5 -111t209 -38.5q116 0 210 38.5t160 111t102 177t36 236.5z" />
    <glyph glyph-name="Lambda" unicode="&#x39b;" horiz-adv-x="1352" 
d="M1347 0h-166q-26 0 -42 13t-24 33l-405 1011q-13 34 -25.5 73.5t-22.5 83.5q-9 -44 -20 -84t-24 -73l-404 -1011q-6 -18 -23 -32t-42 -14h-145l584 1433h175z" />
    <glyph glyph-name="Xi" unicode="&#x39e;" horiz-adv-x="1238" 
d="M1158 1433v-164h-1073v164h1073zM1158 163v-163h-1073v163h1073zM333 809h574v-169h-574v169z" />
    <glyph glyph-name="Pi" unicode="&#x3a0;" horiz-adv-x="1527" 
d="M1344 0h-194v1280h-773v-1280h-194v1433h1161v-1433z" />
    <glyph glyph-name="Sigma" unicode="&#x3a3;" horiz-adv-x="1216" 
d="M743 733q0 -21 -9 -44t-41 -59l-325 -401q-29 -34 -49.5 -53.5t-41.5 -32.5q37 5 69 7t61 2h732v-152h-1073v73q0 22 10.5 43.5t25.5 37.5l470 561l-482 578q-10 11 -17 26t-7 30v84h1073v-153h-710q-46 0 -83 3t-74 10q41 -22 72.5 -47t59.5 -58l289 -362
q31 -36 40 -56.5t10 -36.5z" />
    <glyph glyph-name="Phi" unicode="&#x3a6;" horiz-adv-x="1665" 
d="M925 1362q156 -2 280 -53t210.5 -138.5t133 -203.5t46.5 -247t-46.5 -247.5t-133 -203.5t-210.5 -138t-280 -52v-194h-184v194q-156 1 -280 52t-211 138t-133 203.5t-46 247.5t47 247t134 203.5t211 138.5t278 53v185h184v-185zM258 720q0 -101 34 -189.5t97 -155
t152 -105.5t200 -40v980q-111 -2 -200 -41t-152 -105.5t-97 -155t-34 -188.5zM1407 720q0 100 -34 188.5t-97 155t-152 105.5t-199 41v-980q110 1 199 40.5t152 105.5t97 154.5t34 189.5z" />
    <glyph glyph-name="Psi" unicode="&#x3a8;" horiz-adv-x="1632" 
d="M228 1433q32 0 49 -19.5t17 -48.5v-444q0 -96 24 -171t75.5 -127.5t131.5 -81.5t192 -34v926h195v-926q112 5 192.5 34t132 81.5t76 127.5t24.5 171v444q0 29 17 48.5t48 19.5h129v-512q0 -127 -40 -230t-118 -177t-194 -116t-267 -48v-350h-195v350q-152 6 -267.5 48
t-193.5 116t-117.5 177t-39.5 230v512h129z" />
    <glyph glyph-name="uni03A9" unicode="&#x3a9;" horiz-adv-x="1616" 
d="M925 0v224q81 15 150.5 63.5t121 122t80.5 167.5t29 200q0 126 -40.5 220t-109 157t-158.5 94.5t-190 31.5t-190 -31.5t-158.5 -94.5t-109 -157t-40.5 -220q0 -106 29 -200t80.5 -167.5t121 -122t150.5 -63.5v-224h-520q-30 0 -48 17.5t-18 45.5v100h286q36 0 74.5 -4
t76.5 -9q-92 31 -170 90.5t-134.5 141t-88.5 182.5t-32 215q0 150 54.5 273.5t148 211.5t219.5 136t269 48t269 -48t219.5 -136t148 -211.5t54.5 -273.5q0 -114 -32 -215t-89 -182.5t-135 -141t-169 -90.5q38 5 76 9t75 4h286v-100q0 -28 -18 -45.5t-48 -17.5h-520z" />
    <glyph glyph-name="alpha" unicode="&#x3b1;" horiz-adv-x="1184" 
d="M1051 -8q-39 0 -75.5 11t-67.5 33.5t-54 57.5t-35 83q-32 -51 -71 -87t-82.5 -59t-89.5 -34t-92 -11q-84 0 -157 34.5t-127 99.5t-85 158t-31 211q0 124 34.5 224.5t95 171t142 108.5t176.5 38q54 0 101.5 -12.5t87 -34t72 -51t56.5 -63.5l19 106q12 37 48 37h106
l-55 -541q-2 -49 -6.5 -96.5t-4.5 -87.5q0 -44 12 -74.5t33.5 -50.5t50 -29t61.5 -9h59v-72q0 -23 -32 -42t-89 -19zM526 130q50 0 95.5 19.5t81.5 59t60.5 101t32.5 145.5l26 254q-14 36 -37.5 69t-56 58.5t-74 40.5t-91.5 15q-59 0 -112.5 -23.5t-94 -72.5t-64.5 -124
t-24 -178q0 -96 21 -164.5t56 -113t82 -65.5t99 -21z" />
    <glyph glyph-name="beta" unicode="&#x3b2;" horiz-adv-x="1115" 
d="M595 -14q-88 0 -156.5 28t-119.5 87v-468h-179v1279q0 258 103.5 396.5t315.5 138.5q99 0 171.5 -29t120.5 -77t71 -111t23 -131q0 -115 -58.5 -194t-161.5 -113q74 -18 132 -52t98 -82t61 -109t21 -132q0 -87 -31.5 -165.5t-89.5 -137.5t-139.5 -93.5t-181.5 -34.5z
M515 857q57 0 105 12.5t83 39.5t54.5 70t19.5 105q0 113 -59 172.5t-162 59.5q-61 0 -105.5 -22.5t-74 -71.5t-43.5 -127t-14 -189v-658q43 -63 97.5 -93t135.5 -30q75 0 132 24t95.5 66t58 98t19.5 121q0 77 -25.5 130.5t-69 87.5t-102 49t-124.5 15h-61v141h40z" />
    <glyph glyph-name="_355" horiz-adv-x="1134" 
d="M977 1167q0 -88 -53 -163t-175 -144q72 -1 128.5 -28.5t95.5 -77t59.5 -118t20.5 -149.5q0 -117 -38 -210t-104 -157.5t-154.5 -99t-188.5 -34.5q-116 0 -201.5 45t-142 130t-84 206t-27.5 273q0 199 41.5 350.5t115 253.5t173.5 153.5t218 51.5q85 0 145 -24.5t98 -64.5
t55.5 -90.5t17.5 -102.5zM287 613q3 -127 22.5 -218.5t56 -151t89 -88t120.5 -28.5q66 0 121.5 25.5t96.5 73t64 114t23 148.5q0 81 -25 139.5t-71.5 88.5t-113.5 29t-151 -38zM642 1309q-67 0 -127.5 -31.5t-107.5 -99t-78 -172.5t-39 -253l240 97q80 34 133 71.5t84.5 77
t44.5 79.5t13 79q0 72 -41 112t-122 40z" />
    <glyph glyph-name="gamma" unicode="&#x3b3;" horiz-adv-x="1087" 
d="M464 -342v428q-36 169 -76 315.5t-86.5 254t-100.5 169t-120 61.5h-38v66q0 14 4 26t14 21t28 14.5t47 5.5q91 0 161 -51.5t123.5 -151.5t93 -247t69.5 -337q49 77 90.5 163.5t74.5 178.5t59 187.5t45 190.5q5 35 20.5 48t34.5 13h150q-29 -128 -72 -251t-96.5 -240.5
t-116 -227.5t-130.5 -211v-425h-178z" />
    <glyph glyph-name="delta" unicode="&#x3b4;" horiz-adv-x="1102" 
d="M889 1297q-3 -24 -14.5 -32t-34.5 -8q-13 0 -44 7t-72 15t-86.5 15t-87.5 7q-90 0 -127 -27t-37 -66q0 -36 27.5 -66.5t72 -60t101.5 -61.5t117 -69.5t117 -84.5t101.5 -106.5t72 -135t27.5 -171.5q0 -104 -33 -189.5t-94 -147t-148 -95.5t-194 -34q-113 0 -201 36.5
t-148.5 100t-92 149.5t-31.5 186q0 169 91 287t273 181q-46 27 -87 55.5t-72 62t-49 73t-18 89.5t19.5 93t61 75t106.5 50t156 18q34 0 77.5 -2.5t89 -7.5t91 -12t84.5 -16zM844 446q0 81 -24 143.5t-63.5 111.5t-91 87.5t-106.5 71.5q-59 -21 -112 -54t-94 -81t-65 -112.5
t-24 -148.5q0 -69 17.5 -130.5t53.5 -108t90.5 -74t127.5 -27.5q64 0 118 22t92 64t59.5 101.5t21.5 134.5z" />
    <glyph glyph-name="epsilon" unicode="&#x3b5;" horiz-adv-x="907" 
d="M790 840q-11 -16 -19.5 -21t-21.5 -5t-31 12t-46.5 26t-70 26t-100.5 12q-56 0 -97 -11.5t-68.5 -32t-41 -47.5t-13.5 -57q0 -33 16 -61t47 -48.5t75 -32t100 -11.5h164v-118h-164q-128 0 -190.5 -45.5t-62.5 -120.5q0 -39 16 -72t46.5 -57.5t73.5 -38t97 -13.5
q66 0 110 15.5t73.5 34.5t49 34.5t37.5 15.5q22 0 34 -17l50 -65q-33 -41 -75 -70t-89.5 -48t-98.5 -28t-101 -9q-83 0 -156 21t-128.5 60.5t-87.5 95.5t-32 126q0 87 52 148.5t142 93.5q-47 18 -79.5 43.5t-52.5 55.5t-29.5 62.5t-9.5 64.5q0 53 24.5 102t73.5 86.5t122 60
t171 22.5q112 0 193.5 -33t137.5 -87z" />
    <glyph glyph-name="zeta" unicode="&#x3b6;" horiz-adv-x="784" 
d="M805 1357q2 -9 -0.5 -20.5t-14 -28t-33 -40t-57.5 -58.5q-46 -44 -97.5 -94t-101 -105.5t-94.5 -117t-79 -127t-54 -136t-20 -144.5q0 -68 18 -115.5t52.5 -82t85 -58t115.5 -43.5q94 -28 151.5 -58.5t89 -63.5t42.5 -68.5t11 -74.5q0 -67 -22.5 -129t-60.5 -124l-138 55
q19 32 37 74.5t18 86.5q0 19 -7 39t-29.5 39.5t-65 39t-112.5 39.5q-86 25 -152 59t-112 82t-69.5 113t-23.5 153q0 116 39.5 223.5t110 211.5t167 207.5t209.5 211.5q-66 -9 -138.5 -13t-148.5 -4h-112q-40 0 -56.5 19.5t-16.5 39.5v88h653z" />
    <glyph glyph-name="eta" unicode="&#x3b7;" horiz-adv-x="1167" 
d="M1036 -343h-178v988q0 115 -52.5 178.5t-160.5 63.5q-79 0 -147.5 -38t-126.5 -103v-746h-178v738q0 78 -33 114.5t-99 36.5h-43v72q0 23 21.5 42t74.5 19q82 0 143 -39t84 -122q69 75 158 121.5t198 46.5q84 0 147 -27.5t106 -78t64.5 -121.5t21.5 -157v-988z" />
    <glyph glyph-name="theta" unicode="&#x3b8;" horiz-adv-x="1194" 
d="M598 1449q111 0 200.5 -47.5t152.5 -139.5t96.5 -229t33.5 -315q0 -180 -33.5 -316.5t-96.5 -229t-152.5 -139.5t-200.5 -47q-112 0 -201.5 47t-152.5 139.5t-97 229t-34 316.5q0 178 34 315t97 229t152.5 139.5t201.5 47.5zM598 126q144 0 223 131.5t86 408.5h-620
q7 -277 86 -408.5t225 -131.5zM598 1310q-142 0 -221 -127.5t-89 -392.5h618q-10 265 -88.5 392.5t-219.5 127.5z" />
    <glyph glyph-name="_362" horiz-adv-x="1294" 
d="M1258 940q0 -22 -14 -40t-45 -18h-105q4 -38 5.5 -78t1.5 -83q0 -171 -30 -308t-91.5 -232t-154 -146t-216.5 -51q-102 0 -176.5 32t-124 90t-73.5 138.5t-24 177.5v188q0 67 -23.5 97t-85.5 30h-59v72q0 23 32 42t92 19q48 0 88.5 -13t70.5 -43t46.5 -80t16.5 -124v-188
q0 -65 14 -119.5t42.5 -93.5t73 -61t104.5 -22q69 0 126.5 32t98 103t63 184t22.5 276q0 43 -1.5 83t-5.5 78q-137 1 -250 19.5t-193 56.5t-124 96t-44 138q0 54 20.5 100.5t59.5 80.5t95.5 53.5t128.5 19.5q85 0 158.5 -26t131.5 -79t100 -135t65 -193h184v-73zM477 1187
q0 -47 28.5 -79t83.5 -53t135 -31t182 -11q-32 143 -99 222.5t-175 79.5q-77 0 -116 -35.5t-39 -92.5z" />
    <glyph glyph-name="iota" unicode="&#x3b9;" horiz-adv-x="530" 
d="M134 1013h178v-736q0 -76 33 -115.5t106 -39.5h82v-56q0 -19 -12 -33.5t-32.5 -24.5t-47.5 -15t-58 -5q-61 0 -107.5 20t-78 57t-47.5 88.5t-16 113.5v746z" />
    <glyph glyph-name="lambda" unicode="&#x3bb;" horiz-adv-x="1078" 
d="M437 926l-101 280q-11 30 -24 50.5t-31 33t-43 18t-60 5.5h-72v66q0 14 5 26t17.5 21t34.5 14.5t56 5.5q43 0 83 -8t75 -27.5t63 -52.5t46 -83l392 -1041q22 -59 53.5 -85t88.5 -26h61v-72q0 -38 -23 -49.5t-68 -11.5q-40 0 -78.5 7.5t-73 28.5t-63.5 58t-50 96l-182 469
q-8 21 -13 40t-7 37q-5 -18 -10.5 -36t-13.5 -38l-248 -615q-6 -14 -19.5 -25.5t-36.5 -11.5h-151z" />
    <glyph glyph-name="uni03BC" unicode="&#x3bc;" horiz-adv-x="1195" 
d="M319 1013v-625q2 -109 55 -172t158 -63q91 0 159.5 49t114.5 137v674h179v-739q0 -78 40 -114t106 -36h58v-72q0 -23 -31.5 -42.5t-88.5 -19.5q-42 0 -80.5 12t-70.5 37.5t-55 64t-33 91.5q-59 -90 -136 -139.5t-173 -49.5q-75 0 -130.5 24t-93.5 69q6 -41 9 -83.5
t3 -79.5v-279h-89q-38 0 -58.5 20t-20.5 56v1280h178z" />
    <glyph glyph-name="nu" unicode="&#x3bd;" horiz-adv-x="1027" 
d="M996 1013q-64 -284 -179 -540.5t-272 -472.5h-110l-413 1013h146q21 0 35.5 -11t19.5 -26l257 -652q22 -69 36 -135q52 79 94 171.5t75.5 191.5t59.5 201.5t47 203.5q5 31 20 43.5t35 12.5h149z" />
    <glyph glyph-name="xi" unicode="&#x3be;" horiz-adv-x="788" 
d="M767 1358q0 -32 -22 -51t-48 -19h-88q-68 0 -123.5 -20.5t-95 -55.5t-61.5 -83t-22 -103q0 -94 73.5 -145t213.5 -51h88v-142h-131q-75 0 -130 -18t-91 -50t-53.5 -77t-17.5 -100q0 -56 20 -97t60 -72.5t98.5 -58t136.5 -53.5q65 -23 107.5 -47.5t67 -52.5t34.5 -60.5
t10 -70.5q0 -72 -22.5 -135.5t-60.5 -126.5l-139 56q20 32 38 74.5t18 85.5q0 21 -5.5 40t-22 35.5t-46 31.5t-76.5 29q-77 22 -148.5 54t-126.5 79t-87.5 113.5t-32.5 159.5q0 48 12 98t40 96t73 84.5t110 63.5q-87 35 -131 97.5t-44 147.5q0 48 16.5 90.5t45 78t67 64
t83.5 50.5q-14 -1 -29 -1h-31h-130q-39 0 -56 18.5t-17 50.5v68h676v-75z" />
    <glyph glyph-name="_368" horiz-adv-x="792" 
d="M764 1359q0 -33 -22 -51.5t-48 -18.5h-104q-71 0 -124.5 -16.5t-89.5 -47t-54.5 -73t-18.5 -93.5q0 -108 74 -168.5t213 -60.5h89v-142h-131q-75 0 -130 -18t-91 -50t-53.5 -77t-17.5 -100q0 -56 20 -97t60 -72.5t98.5 -58t136.5 -53.5q65 -23 107.5 -47.5t67 -52.5
t34.5 -60.5t10 -70.5q0 -72 -22.5 -135.5t-60.5 -126.5l-139 56q20 32 38 74.5t18 85.5q0 21 -5.5 40t-22 35.5t-46 31.5t-76.5 29q-77 22 -148.5 54t-126.5 79t-87.5 113.5t-32.5 159.5q0 50 13 101.5t43 98.5t78 85.5t118 62.5q-94 37 -143 108.5t-49 177.5q0 87 30.5 156
t88 117t140.5 73.5t188 25.5h178v-74z" />
    <glyph glyph-name="rho" unicode="&#x3c1;" horiz-adv-x="1125" 
d="M128 580q0 103 31 186t89 141.5t141.5 90t188.5 31.5q96 0 180.5 -34t147 -100t99 -162t36.5 -220q0 -112 -30 -208.5t-86 -167t-137.5 -111t-183.5 -40.5q-91 0 -166 33.5t-132 92.5v-455h-178v923zM306 263q51 -72 118.5 -105.5t139.5 -33.5q141 0 217 101t76 288
q0 99 -20.5 170t-57 116.5t-88 66.5t-113.5 21q-57 0 -106.5 -20.5t-86 -60t-58 -96.5t-21.5 -130v-317z" />
    <glyph glyph-name="sigma" unicode="&#x3c3;" horiz-adv-x="1196" 
d="M887 870q77 -56 119.5 -149.5t42.5 -223.5q0 -113 -33 -206.5t-95 -161.5t-151 -105.5t-201 -37.5q-109 0 -198.5 34.5t-153 100.5t-98.5 160.5t-35 214.5q0 119 36 214t106.5 161t174 101.5t237.5 35.5h549v-84q0 -9 -4 -18.5t-11.5 -17.5t-18.5 -13t-25 -5h-241z
M866 504q0 66 -11 126t-32.5 108.5t-55 82.5t-78.5 49h-51q-99 0 -169.5 -25t-115.5 -73t-65.5 -118.5t-20.5 -161.5q0 -180 77.5 -273.5t223.5 -93.5q151 0 224.5 97.5t73.5 281.5z" />
    <glyph glyph-name="sigma1" unicode="&#x3c2;" horiz-adv-x="928" 
d="M845 833q-8 -11 -16 -17t-22 -6q-15 0 -33 12.5t-44.5 27.5t-65 27.5t-94.5 12.5q-75 0 -132 -26t-95.5 -71.5t-58 -107t-19.5 -132.5q0 -98 25.5 -160t73.5 -104t117.5 -70t157.5 -57q66 -23 108 -48t67 -53t34.5 -60.5t9.5 -69.5q0 -72 -22.5 -136t-60.5 -126l-139 55
q20 32 38.5 74.5t18.5 85.5q0 21 -6 40t-22.5 36t-46 32t-76.5 29q-95 28 -178.5 64t-146 93.5t-99 145t-36.5 219.5q0 100 31.5 188.5t92 154.5t149.5 104.5t204 38.5q107 0 188.5 -34.5t144.5 -97.5z" />
    <glyph glyph-name="tau" unicode="&#x3c4;" horiz-adv-x="934" 
d="M26 945q0 23 15.5 40.5t45.5 17.5h813v-71q0 -31 -16.5 -48t-47.5 -17h-319v-586q0 -76 33 -115.5t106 -39.5h82v-55q0 -19 -12 -33.5t-32.5 -24.5t-47.5 -15t-58 -5q-61 0 -107.5 20t-78 57t-47.5 88t-16 113v596h-313v78z" />
    <glyph glyph-name="upsilon" unicode="&#x3c5;" horiz-adv-x="1105" 
d="M309 1013v-646q0 -57 17 -102t48.5 -75.5t75 -47t97.5 -16.5q49 0 98 20.5t88 69t63.5 128.5t24.5 199q0 103 -18.5 204.5t-35.5 204.5q-3 33 14 47t36 14h122q11 -63 21 -120.5t17.5 -114t12 -114.5t4.5 -121q0 -146 -38 -252t-101.5 -174t-146.5 -100.5t-172 -32.5
q-96 0 -171 26.5t-127.5 76t-80 120.5t-27.5 160v646h179z" />
    <glyph glyph-name="phi" unicode="&#x3c6;" horiz-adv-x="1474" 
d="M260 506q0 -82 25 -152t74 -121.5t121.5 -81.5t168.5 -31v594q0 163 81 239t226 76q97 0 177 -38t137.5 -104t89.5 -156t32 -194q0 -123 -40.5 -224.5t-115.5 -173.5t-181.5 -112t-238.5 -41v-328h-167v328q-131 1 -236.5 41t-179 109.5t-113 164t-39.5 206.5
q0 90 25.5 169.5t72 145.5t112 116.5t145.5 83.5l45 -72q13 -21 5 -44.5t-24 -30.5q-98 -51 -150 -147.5t-52 -221.5zM816 120q98 1 172 31t124 84.5t75.5 131t25.5 170.5q0 79 -21.5 144.5t-57 113t-82 74t-96.5 26.5q-67 0 -103.5 -42.5t-36.5 -138.5v-594z" />
    <glyph glyph-name="_375" horiz-adv-x="1475" 
d="M821 1433v-404q132 -1 238 -38.5t180 -105.5t114 -164t40 -214q0 -119 -40 -215t-114 -163.5t-180 -104.5t-238 -38v-328h-167v328q-132 1 -238 38t-180 104.5t-114 163.5t-40 215q0 118 40 214t114 164t180 105.5t238 38.5v404h167zM261 506q0 -89 25.5 -160.5t75 -121
t123 -76.5t169.5 -28v775q-96 -1 -169.5 -28.5t-123 -77.5t-75 -121.5t-25.5 -161.5zM1214 506q0 90 -25.5 161.5t-75 121.5t-123 77.5t-169.5 28.5v-775q96 1 169.5 28t123 76.5t75 121t25.5 160.5z" />
    <glyph glyph-name="chi" unicode="&#x3c7;" horiz-adv-x="957" 
d="M460 235q-5 -30 -12.5 -58.5t-15.5 -50.5l-214 -429q-5 -14 -18 -25.5t-36 -11.5h-127l343 711l-182 412q-14 30 -28 50t-33 33t-44 18.5t-60 5.5h-35v67q0 14 1 26t7.5 21t22 14.5t45.5 5.5q101 0 167 -39t107 -133l170 -385q5 29 12.5 57.5t15.5 50.5l194 401
q6 14 18.5 25.5t35.5 11.5h127l-325 -679l199 -447q26 -58 57.5 -84t88.5 -26h36v-72q0 -19 -3.5 -31t-11.5 -19t-22.5 -9.5t-36.5 -2.5q-41 0 -78 7.5t-70 28.5t-62.5 58t-54.5 97z" />
    <glyph glyph-name="psi" unicode="&#x3c8;" horiz-adv-x="1527" 
d="M854 1433v-1304q80 7 150 31.5t122 72.5t82 124t30 186q0 70 -6.5 125.5t-15 103t-17.5 90.5t-15 90q-1 33 15 47t35 14h127q12 -63 22.5 -120.5t17.5 -114t11 -114.5t4 -121q0 -149 -46 -251.5t-123 -167t-179 -96.5t-214 -40v-330h-178v329q-272 16 -411 143t-139 346
v537h123q11 0 21 -7t17.5 -17.5t12 -22.5t4.5 -23v-467q0 -77 25.5 -137t73.5 -103.5t117 -70t156 -35.5v1303h178z" />
    <glyph glyph-name="omega" unicode="&#x3c9;" horiz-adv-x="1527" 
d="M495 126q45 0 79 20.5t56 57.5t33 89t11 115v269h179v-269q0 -63 11 -115t33.5 -89t56.5 -57.5t79 -20.5q36 0 76 16.5t73.5 58.5t56 115t22.5 186q0 60 -13.5 123t-33 121t-42 106.5t-40.5 80.5q-9 22 -7 37t10 24.5t19.5 14t20.5 4.5h126q60 -117 99.5 -245t39.5 -266
q0 -120 -29 -215.5t-80.5 -163t-122.5 -103.5t-154 -36q-54 0 -98.5 13t-81 37t-64.5 57t-48 73q-20 -40 -48 -73t-64 -57t-80 -37t-96 -13q-83 0 -154 36t-122.5 103.5t-80.5 163t-29 215.5q0 138 39 266t99 245h127q9 0 20.5 -4.5t19 -14t9.5 -24.5t-7 -37
q-18 -32 -40.5 -80.5t-42 -106.5t-33 -121t-13.5 -123q0 -113 22.5 -186t56 -115t74 -58.5t76.5 -16.5z" />
    <glyph glyph-name="tonos" unicode="&#x384;" 
d="M345 1148l68 345h111q27 0 37 -17.5t0 -46.5l-110 -281h-106z" />
    <glyph glyph-name="dieresistonos" unicode="&#x385;" 
d="M343 1154l68 345h111q27 0 36.5 -17.5t-0.5 -46.5l-109 -281h-106zM788 1282q0 -19 -7.5 -36t-20.5 -29.5t-30.5 -20t-36.5 -7.5q-20 0 -37 7.5t-30 20t-20.5 29.5t-7.5 36q0 20 7.5 37.5t20.5 31t30 21t37 7.5q19 0 36.5 -7.5t30.5 -21t20.5 -31t7.5 -37.5zM286 1282
q0 -19 -8 -36t-21 -29.5t-31 -20t-37 -7.5t-36 7.5t-29.5 20t-20 29.5t-7.5 36q0 20 7.5 37.5t20 31t29.5 21t36 7.5t37 -7.5t31 -21t21 -31t8 -37.5z" />
    <glyph glyph-name="uni0374" unicode="&#x374;" horiz-adv-x="425" 
d="M310 1512q27 -144 -8 -282.5t-142 -254.5l-55 36q-16 11 -17 25t7 25q26 36 46 71t29.5 71.5t5.5 75t-26 80.5v104q0 21 11.5 35t37.5 14h111z" />
    <glyph glyph-name="uni0375" unicode="&#x375;" horiz-adv-x="425" 
d="M310 329q27 -144 -8 -282.5t-142 -254.5l-55 36q-16 11 -17 25t7 25q26 36 46 71t29.5 71.5t5.5 75t-26 80.5v104q0 21 11.5 35t37.5 14h111z" />
    <glyph glyph-name="uni0411" unicode="&#x411;" horiz-adv-x="1240" 
d="M1109 1280h-733v-464h279q131 0 226 -28.5t156.5 -80t91 -122.5t29.5 -155q0 -99 -33.5 -178.5t-98 -135.5t-158.5 -86t-214 -30h-471v1433h926v-153zM376 662v-508h278q83 0 142.5 19t97 52.5t55 81t17.5 104.5q0 60 -17.5 106.5t-55 79t-96.5 49t-142 16.5h-279z" />
    <glyph glyph-name="uni0413" unicode="&#x413;" horiz-adv-x="1076" 
d="M1046 1280h-669v-1280h-194v1433h863v-153z" />
    <glyph glyph-name="uni0490" unicode="&#x490;" horiz-adv-x="1076" 
d="M1046 1280h-669v-1280h-194v1433h712v323h151v-476z" />
    <glyph glyph-name="uni0414" unicode="&#x414;" horiz-adv-x="1572" 
d="M1290 1433v-1281h234v-443q0 -26 -17 -42t-45 -16h-115v349h-1155v-291q0 -26 -17.5 -42t-44.5 -16h-116v501h146q31 15 62 48.5t59.5 96t53.5 157.5t45.5 232.5t35.5 321.5t23 425h851zM621 1280q-12 -246 -34.5 -431t-52.5 -320.5t-67 -227t-79 -149.5h707v1128h-474z
" />
    <glyph glyph-name="uni0416" unicode="&#x416;" horiz-adv-x="2077" 
d="M202 1433q31 0 56.5 -15.5t41.5 -42.5l359 -497q31 -44 65.5 -58.5t80.5 -14.5h142v628h183v-628h143q45 0 79 14.5t66 58.5l359 497q16 27 42 42.5t56 15.5h152l-418 -573q-28 -42 -58 -69t-73 -42q49 -15 87 -45.5t70 -82.5l425 -621h-129q-42 0 -73 18.5t-50 50.5
l-363 508q-27 42 -61.5 60.5t-87.5 18.5h-166v-656h-183v656h-165q-54 0 -88.5 -18.5t-61.5 -60.5l-363 -508q-18 -32 -49 -50.5t-73 -18.5h-130l426 621q32 52 69.5 82.5t85.5 45.5q-42 15 -72 42t-58 69l-417 573h151z" />
    <glyph glyph-name="uni0417" unicode="&#x417;" horiz-adv-x="1151" 
d="M1010 1081q0 -108 -53.5 -190t-150.5 -128q55 -23 100 -56t77.5 -75t50 -92t17.5 -105q0 -94 -35 -176t-101.5 -142.5t-163.5 -95.5t-221 -35q-154 0 -277 50.5t-211 136.5l56 92q8 11 20 18.5t26 7.5q21 0 50 -22.5t74 -49.5t109.5 -49.5t157.5 -22.5q79 0 141.5 19
t105 55t65 88t22.5 117q0 56 -21.5 103t-62.5 80.5t-100 52t-133 18.5h-196v159h188q61 0 113.5 15t90 44t59 71t21.5 96q0 49 -20 90t-58 70.5t-93 45.5t-125 16q-81 0 -138 -17t-96 -37.5t-63.5 -37.5t-42.5 -17q-16 0 -26 7t-19 23l-47 91q81 72 188 110t243 38
q111 0 199.5 -27t150.5 -76t95.5 -116t33.5 -147z" />
    <glyph glyph-name="uni0418" unicode="&#x418;" horiz-adv-x="1527" 
d="M1113 1372q14 23 36 42t51 19h144v-1433h-194v1018q0 42 2 88.5t9 98.5q-17 -45 -36.5 -83.5t-38.5 -67.5l-672 -993q-14 -23 -36 -42t-51 -19h-144v1433h194v-1019q0 -43 -2 -89.5t-9 -99.5q17 46 36.5 84.5t38.5 69.5z" />
    <glyph glyph-name="uni041A" unicode="&#x41a;" horiz-adv-x="1341" 
d="M376 805h149q45 0 76.5 14t62.5 55l375 504q15 24 36.5 39.5t50.5 15.5h163l-433 -589q-25 -36 -56.5 -59t-69.5 -36q53 -14 89 -44.5t70 -84.5l438 -620h-174q-29 0 -49.5 15.5t-38.5 45.5l-379 525q-26 39 -56 54.5t-82 15.5h-172v-656h-193v1433h193v-628z" />
    <glyph glyph-name="uni041B" unicode="&#x41b;" horiz-adv-x="1451" 
d="M1268 1433v-1433h-194v1280h-474q-14 -276 -37.5 -479t-57 -347t-76 -234.5t-93 -142.5t-108.5 -71t-123 -19q-54 0 -83 9.5t-29 28.5v123h70q40 0 79 15.5t75 62.5t68 134t58 230t45 349.5t29 493.5h851z" />
    <glyph glyph-name="uni0409" unicode="&#x409;" horiz-adv-x="2108" 
d="M1268 1433v-617h279q131 0 225.5 -28.5t156 -80t91 -122.5t29.5 -155q0 -99 -33.5 -178.5t-97.5 -135.5t-158 -86t-214 -30h-472v1280h-474q-14 -276 -37.5 -479t-57 -347t-76 -234.5t-93 -142.5t-108.5 -71t-123 -19q-54 0 -83 9.5t-29 28.5v123h70q40 0 79 15.5
t75 62.5t68 134t58 230t45 349.5t29 493.5h851zM1268 662v-508h278q83 0 142 19t97 52.5t55.5 81t17.5 104.5q0 60 -17.5 106.5t-55 79t-96.5 49t-142 16.5h-279z" />
    <glyph glyph-name="uni040A" unicode="&#x40a;" horiz-adv-x="2184" 
d="M1344 816h279q131 0 226 -28.5t156.5 -80t91 -122.5t29.5 -155q0 -99 -33.5 -178.5t-98 -135.5t-158.5 -86t-214 -30h-472v652h-773v-652h-194v1433h194v-639h773v639h194v-617zM1344 662v-508h278q83 0 142.5 19t97 52.5t55 81t17.5 104.5q0 60 -17.5 106.5t-55 79
t-96.5 49t-142 16.5h-279z" />
    <glyph glyph-name="uni0472" unicode="&#x472;" horiz-adv-x="1601" 
d="M1507 716q0 -161 -51 -295.5t-144 -231.5t-223.5 -150.5t-288.5 -53.5t-288 53.5t-223 150.5t-144 231.5t-51 295.5t51 295.5t144 232t223 151.5t288 54t288.5 -54t223.5 -151.5t144 -232t51 -295.5zM800 153q109 0 198.5 34t155 99t105 158t47.5 212h-1012
q8 -119 47.5 -212t105.5 -158t155.5 -99t197.5 -34zM800 1281q-105 0 -193 -32.5t-153 -94t-105.5 -150.5t-52.5 -201h1007q-11 112 -51.5 201t-105.5 150.5t-152.5 94t-193.5 32.5z" />
    <glyph glyph-name="uni041F" unicode="&#x41f;" horiz-adv-x="1471" 
d="M1288 0h-195v1280h-716v-1280h-194v1433h1105v-1433z" />
    <glyph glyph-name="uni0423" unicode="&#x423;" horiz-adv-x="1251" 
d="M333 148q25 0 50 5.5t48 19.5t44 37.5t38 59.5l70 146l-576 1017h181q26 0 41 -12.5t26 -32.5l354 -650q37 -71 60 -144q10 36 24 72t31 72l301 650q8 17 24.5 31t41.5 14h160l-582 -1246q-27 -59 -58.5 -97.5t-67.5 -61t-78 -32t-90 -9.5q-54 0 -83 9.5t-29 28.5v123h70
v0z" />
    <glyph glyph-name="uni0474" unicode="&#x474;" horiz-adv-x="1396" 
d="M3 1433h155q26 0 42 -13t24 -33l405 -1011q13 -34 25 -73.5t22 -82.5q9 43 20.5 82.5t24.5 73.5l297 871q32 97 98 144.5t163 47.5q53 0 74 -9t21 -29v-121h-54q-44 0 -77.5 -26.5t-53.5 -79.5l-428 -1174h-174z" />
    <glyph glyph-name="uni0424" unicode="&#x424;" horiz-adv-x="1565" 
d="M875 1329q137 -3 250 -49.5t193.5 -124.5t125 -181.5t44.5 -220.5q0 -118 -44.5 -222t-125 -182.5t-193.5 -125.5t-250 -50v-173h-184v173q-138 3 -251 50t-193.5 125.5t-125 182.5t-44.5 222q0 117 45 220.5t126 181.5t194 124.5t249 49.5v169h184v-169zM271 753
q0 -88 30 -165t85 -135t132.5 -92t172.5 -35v853q-95 -2 -172.5 -36t-132.5 -91.5t-85 -134.5t-30 -164zM1295 753q0 87 -30 163.5t-85.5 134.5t-133 92t-171.5 36v-853q94 1 171.5 35t133 92t85.5 135t30 165z" />
    <glyph glyph-name="uni0426" unicode="&#x426;" horiz-adv-x="1560" 
d="M183 0v1433h194v-1281h716v1281h195v-1281h219v-443q0 -26 -17.5 -42t-44.5 -16h-116v349h-1146z" />
    <glyph glyph-name="uni040F" unicode="&#x40f;" horiz-adv-x="1471" 
d="M1288 0h-464v-291q0 -26 -17.5 -42t-44.5 -16h-116v349h-463v1433h194v-1281h716v1281h195v-1433z" />
    <glyph glyph-name="uni0427" unicode="&#x427;" horiz-adv-x="1322" 
d="M1140 0h-195v619q-115 -30 -222.5 -47.5t-202.5 -16.5t-173.5 23.5t-135 71t-88 126t-31.5 189.5v468h194v-469q0 -99 40 -160t122 -85t205.5 -13.5t291.5 54.5v673h195v-1433z" />
    <glyph glyph-name="uni0428" unicode="&#x428;" horiz-adv-x="2153" 
d="M1970 0h-1787v1433h194v-1281h600v1281h194v-1281h604v1281h195v-1433z" />
    <glyph glyph-name="uni0429" unicode="&#x429;" horiz-adv-x="2242" 
d="M183 0v1433h194v-1281h600v1281h194v-1281h604v1281h195v-1281h219v-443q0 -26 -17.5 -42t-44.5 -16h-116v349h-1828z" />
    <glyph glyph-name="uni042A" unicode="&#x42a;" horiz-adv-x="1474" 
d="M29 1433h605v-617h279q131 0 226 -28.5t156.5 -80t91 -122.5t29.5 -155q0 -99 -33.5 -178.5t-98 -135.5t-158.5 -86t-214 -30h-471v1275h-412v158zM634 662v-508h278q83 0 142.5 19t97 52.5t55 81t17.5 104.5q0 60 -17.5 106.5t-55 79t-96.5 49t-142 16.5h-279z" />
    <glyph glyph-name="uni042B" unicode="&#x42b;" horiz-adv-x="1799" 
d="M183 0zM376 1433v-617h279q131 0 226 -28.5t156.5 -80t91 -122.5t29.5 -155q0 -99 -33.5 -178.5t-98 -135.5t-158.5 -86t-214 -30h-471v1433h193zM376 662v-508h278q83 0 142.5 19t97 52.5t55 81t17.5 104.5q0 60 -17.5 106.5t-55 79t-96.5 49t-142 16.5h-279zM1615 0
h-194v1433h194v-1433z" />
    <glyph glyph-name="uni042C" unicode="&#x42c;" horiz-adv-x="1216" 
d="M376 1433v-617h279q131 0 226 -28.5t156.5 -80t91 -122.5t29.5 -155q0 -99 -33.5 -178.5t-98 -135.5t-158.5 -86t-214 -30h-471v1433h193zM376 662v-508h278q83 0 142.5 19t97 52.5t55 81t17.5 104.5q0 60 -17.5 106.5t-55 79t-96.5 49t-142 16.5h-279z" />
    <glyph glyph-name="uni042D" unicode="&#x42d;" horiz-adv-x="1351" 
d="M162 296q17 0 34 -15q37 -34 74.5 -58.5t81 -40.5t94.5 -23.5t116 -7.5q99 0 185 34t152 98.5t107 158.5t50 214h-723v147h720q-12 112 -53 201t-106 150.5t-151 94t-187 32.5q-92 0 -155 -19.5t-105 -43.5t-68 -43.5t-44 -19.5q-16 0 -25.5 6.5t-15.5 16.5l-64 89
q89 84 206 133t270 49q156 0 285 -53.5t221.5 -150.5t143.5 -232t51 -297t-49 -297t-138 -231.5t-215 -150t-280 -53.5q-178 0 -303.5 57t-213.5 159l77 83q12 13 28 13z" />
    <glyph glyph-name="uni0404" unicode="&#x404;" horiz-adv-x="1352" 
d="M1189 296q16 0 28 -13l77 -83q-88 -102 -213.5 -159t-303.5 -57q-154 0 -280 53.5t-215 150t-138 231.5t-49 297t51 297t143.5 232t221.5 150.5t285 53.5q153 0 270 -49t206 -133l-64 -89q-6 -10 -15.5 -16.5t-25.5 -6.5q-18 0 -44 19.5t-68 43.5t-105 43.5t-155 19.5
q-101 0 -187 -32.5t-151 -94t-106.5 -150.5t-53.5 -201h720v-147h-722q9 -120 50 -214t107 -158.5t152 -98.5t185 -34q64 0 115.5 7.5t95 23.5t81 40.5t74.5 58.5q17 15 34 15z" />
    <glyph glyph-name="uni042E" unicode="&#x42e;" horiz-adv-x="2088" 
d="M377 792h310q11 145 61.5 266t135 208t199.5 135t255 48q148 0 268.5 -54t206 -151.5t132 -232t46.5 -295.5t-46.5 -295.5t-132 -231t-206 -150t-268.5 -53.5q-140 0 -255 47.5t-199.5 133.5t-135 206.5t-61.5 266.5h-310v-640h-194v1433h194v-641zM1338 148
q104 0 188 39t143.5 112.5t91.5 179t32 237.5t-32 237.5t-91.5 179.5t-143.5 113.5t-188 39.5q-105 0 -189 -39.5t-143.5 -113.5t-91.5 -179.5t-32 -237.5t32 -237.5t91.5 -179t143.5 -112.5t189 -39z" />
    <glyph glyph-name="uni042F" unicode="&#x42f;" horiz-adv-x="1330" 
d="M954 0v617h-206q-25 -1 -47 -6t-43 -17t-41.5 -32.5t-41.5 -50.5l-311 -442q-18 -32 -49 -50.5t-73 -18.5h-146l371 523q60 88 141 125q-86 16 -150 50t-106.5 82.5t-63.5 110.5t-21 134q0 92 33.5 167t98 128.5t158 83t213.5 29.5h477v-1433h-193zM358 1026
q0 -60 17.5 -107.5t55 -80.5t97 -50.5t142.5 -17.5h284v509h-284q-83 0 -142 -18t-97 -51.5t-55.5 -80t-17.5 -103.5z" />
    </font>
</defs>
</svg>
