<?xml version="1.0" standalone="no"?>
<!DOCTYPE svg PUBLIC "-//W3C//DTD SVG 1.1//EN" "http://www.w3.org/Graphics/SVG/1.1/DTD/svg11.dtd" >
<svg>
<metadata>
Created by FontForge 20110222 at Mon Jul  6 05:00:45 2015
 By www-data
Copyright (c) 2010-2014 by tyPoland Lukasz Dziedzic with Reserved Font Name "Lato". Licensed under the SIL Open Font License, Version 1.1. 
</metadata>
<defs>
<font id="Lato-Heavy" horiz-adv-x="800" >
  <font-face 
    font-family="Lato Heavy"
    font-weight="800"
    font-stretch="normal"
    units-per-em="2000"
    panose-1="2 15 9 2 2 2 4 3 2 3"
    ascent="1610"
    descent="-390"
    x-height="1031"
    cap-height="1451"
    bbox="-1252 -583 2690 2215"
    underline-thickness="194"
    underline-position="-6"
    unicode-range="U+000D-FEFF"
  />
<missing-glyph horiz-adv-x="1107" 
d="M235 1149q59 47 134 78.5t177 31.5q73 0 131 -19.5t97.5 -54.5t60.5 -85t21 -110q0 -55 -13.5 -94.5t-34 -69t-45 -50.5t-46.5 -39t-39.5 -35.5t-22.5 -39.5l-25 -94h-188l-19 114q-7 38 3.5 65t30 48.5t45 39.5t47.5 38t37 44t15 57q0 29 -19 48t-61 19q-35 0 -57.5 -6
t-39 -13.5t-30.5 -13.5t-30 -6q-37 0 -56 32zM380 321q0 30 11 56.5t31 46t46.5 31t58.5 11.5q31 0 57.5 -11.5t46 -31t31 -46t11.5 -56.5t-11.5 -56.5t-31 -46t-46 -30.5t-57.5 -11q-32 0 -58.5 11t-46.5 30.5t-31 46t-11 56.5zM41 1451h1025v-1451h-1025v1451zM111 74h876
v1303h-876v-1303z" />
    <glyph glyph-name="fi" unicode="fi" horiz-adv-x="1225" 
d="M189 0v833l-80 14q-31 6 -50.5 22t-19.5 46v110h150v25q0 94 31.5 175.5t97 142t166 95t238.5 34.5q43 0 89 -4.5t79 -13.5l-9 -141q-1 -12 -7.5 -19t-17.5 -11t-24.5 -5t-28.5 -1q-100 0 -167 -16.5t-107 -49.5t-56.5 -82t-16.5 -113v-16h646v-1025h-276v833h-361v-833
h-276z" />
    <glyph glyph-name="fl" unicode="fl" horiz-adv-x="1243" 
d="M189 0v833l-80 14q-31 6 -50.5 22t-19.5 46v110h150v40q0 81 26 156t79.5 133t136 93t195.5 35q94 0 177.5 -6.5t168.5 -6.5h155v-1469h-274v1282q-52 2 -101.5 4.5t-81.5 2.5q-104 0 -159 -57.5t-55 -166.5v-40h234v-192h-225v-833h-276z" />
    <glyph glyph-name="_246" unicode="fb" horiz-adv-x="1883" 
d="M856 0v1310q-37 14 -77.5 22.5t-79.5 8.5q-59 0 -104.5 -19t-76.5 -53t-47 -80.5t-16 -100.5v-63h256v-192h-247v-833h-275v833l-80 14q-31 6 -50.5 22t-19.5 46v110h150v63q0 93 29.5 171.5t93 135.5t163.5 89t242 32q52 0 97.5 -4t93 -8.5t101.5 -8.5t123 -4v-579
q61 61 134.5 98t166.5 37q89 0 160.5 -35.5t122 -101.5t78 -159.5t27.5 -209.5q0 -125 -31.5 -227.5t-89.5 -175.5t-138.5 -113t-179.5 -40q-48 0 -86 9.5t-70 26.5t-59 40.5t-51 52.5l-11 -62q-7 -29 -23 -40.5t-43 -11.5h-183zM1337 836q-65 0 -112.5 -29t-92.5 -83v-452
q39 -45 84.5 -63t94.5 -18q51 0 92.5 18.5t71.5 59t46 105.5t16 157q0 82 -13 139.5t-38.5 94.5t-62.5 54t-86 17z" />
    <glyph glyph-name="_247" unicode="ffb" horiz-adv-x="2538" 
d="M189 0v833l-80 14q-31 6 -50.5 22t-19.5 46v110h150v50q0 88 27.5 159.5t78.5 121t125 76.5t167 27q36 0 68.5 -5t65.5 -14l-6 -136q-2 -30 -26.5 -40t-54.5 -10q-42 0 -75.5 -9t-56.5 -30.5t-35 -58t-12 -90.5v-41h389v63q0 93 29.5 171.5t93 135.5t163.5 89t242 32
q52 0 97.5 -4t93 -8.5t101.5 -8.5t123 -4v-579q61 61 134.5 98t166.5 37q89 0 160.5 -35.5t122 -101.5t78 -159.5t27.5 -209.5q0 -125 -31.5 -227.5t-89.5 -175.5t-138.5 -113t-179.5 -40q-48 0 -86 9.5t-70 26.5t-59 40.5t-51 52.5l-11 -62q-7 -29 -23 -40.5t-43 -11.5
h-183v1310q-37 14 -77 22.5t-80 8.5q-59 0 -104.5 -19t-76 -53t-46.5 -80.5t-16 -100.5v-63h255v-192h-247v-833h-275v833h-380v-833h-275zM1992 836q-65 0 -112.5 -29t-92.5 -83v-452q39 -45 84.5 -63t94.5 -18q51 0 92.5 18.5t71.5 59t46 105.5t16 157q0 82 -13 139.5
t-38.5 94.5t-62.5 54t-86 17z" />
    <glyph glyph-name="f_f" unicode="ff" horiz-adv-x="1379" 
d="M189 0v833l-80 14q-31 6 -50.5 22t-19.5 46v110h150v50q0 88 27.5 159.5t78.5 121t125 76.5t167 27q36 0 68.5 -5t65.5 -14l-6 -136q-2 -30 -26.5 -40t-54.5 -10q-42 0 -75.5 -9t-56.5 -30.5t-35 -58t-12 -90.5v-41h389v85q0 88 27.5 159.5t78.5 121t125 76.5t167 27
q36 0 68.5 -4.5t65.5 -13.5l-6 -136q-2 -31 -26.5 -40.5t-54.5 -9.5q-42 0 -75.5 -9t-56 -30.5t-34.5 -58t-12 -90.5v-77h255v-192h-247v-833h-275v833h-380v-833h-275z" />
    <glyph glyph-name="_249" unicode="fh" horiz-adv-x="1875" 
d="M856 0v1310q-37 14 -77.5 22.5t-79.5 8.5q-59 0 -104.5 -19t-76.5 -53t-47 -80.5t-16 -100.5v-63h256v-192h-247v-833h-275v833l-80 14q-31 6 -50.5 22t-19.5 46v110h150v63q0 93 29.5 171.5t93 135.5t163.5 89t242 32q52 0 97.5 -4t93 -8.5t101.5 -8.5t123 -4v-562
q58 53 127 85.5t164 32.5q84 0 149 -29t109.5 -81t67 -124t22.5 -158v-655h-275v655q0 86 -40 133.5t-118 47.5q-59 0 -109.5 -25.5t-96.5 -69.5v-741h-276z" />
    <glyph glyph-name="_250" unicode="ffh" horiz-adv-x="2531" 
d="M189 0v833l-80 14q-31 6 -50.5 22t-19.5 46v110h150v50q0 88 27.5 159.5t78.5 121t125 76.5t167 27q36 0 68.5 -5t65.5 -14l-6 -136q-2 -30 -26.5 -40t-54.5 -10q-42 0 -75.5 -9t-56.5 -30.5t-35 -58t-12 -90.5v-41h389v63q0 93 29.5 171.5t93 135.5t163.5 89t242 32
q52 0 97.5 -4t93 -8.5t101.5 -8.5t123 -4v-562q58 53 127 85.5t164 32.5q84 0 149 -29t109.5 -81t67 -124t22.5 -158v-655h-275v655q0 86 -40 133.5t-118 47.5q-59 0 -109.5 -25.5t-96.5 -69.5v-741h-276v1310q-37 14 -77 22.5t-80 8.5q-59 0 -104.5 -19t-76 -53
t-46.5 -80.5t-16 -100.5v-63h255v-192h-247v-833h-275v833h-380v-833h-275z" />
    <glyph glyph-name="_251" unicode="f&#xec;" horiz-adv-x="1225" 
d="M766 1497q75 0 120 -24t67 -62l140 -244h-157q-31 0 -50.5 8.5t-39.5 29.5l-94 96q-84 -3 -140.5 -20.5t-91 -50.5t-49.5 -80.5t-15 -108.5v-16h646v-1025h-276v833h-361v-833h-276v833l-80 14q-31 6 -50.5 22t-19.5 46v110h150v25q0 94 29.5 175.5t97.5 142t178.5 95
t271.5 34.5z" />
    <glyph glyph-name="_252" unicode="f&#xee;" horiz-adv-x="1224" 
d="M189 0v833l-80 14q-31 6 -50.5 22t-19.5 46v110h150v112q0 81 21.5 145.5t62.5 109.5t101 69t137 24q29 0 51.5 -2.5t45.5 -10.5v-148q0 -20 -16.5 -27.5t-39.5 -7.5q-53 0 -74.5 -34.5t-21.5 -116.5v-113h646v-1025h-276v833h-361v-833h-276zM1333 1168h-184
q-16 0 -31 5.5t-31 20.5l-88 95q-6 5 -11.5 11.5t-10.5 13.5q-6 -8 -12 -14l-11 -11l-90 -95q-28 -26 -62 -26h-191l232 283h258z" />
    <glyph glyph-name="_253" unicode="f&#x129;" horiz-adv-x="1224" 
d="M39 0zM1071 1372q27 0 43 14.5t16 56.5h168q0 -59 -16.5 -107t-45.5 -81.5t-69 -52t-86 -18.5q-36 0 -67.5 12.5t-59 27t-50.5 27t-41 12.5q-27 0 -42.5 -15.5t-15.5 -57.5h-170q0 59 16.5 107t46 82t69 52.5t85.5 18.5q37 0 69 -12t59 -27t49.5 -27t41.5 -12zM189 0v833
l-80 14q-31 6 -50.5 22t-19.5 46v110h150v112q0 81 21.5 145.5t62.5 109.5t101 69t137 24q29 0 51.5 -2.5t45.5 -10.5v-148q0 -20 -16.5 -27.5t-39.5 -7.5q-53 0 -74.5 -34.5t-21.5 -116.5v-113h646v-1025h-276v833h-361v-833h-276z" />
    <glyph glyph-name="_254" unicode="f&#xef;" horiz-adv-x="1224" 
d="M935 1294q0 -30 -12 -56t-32.5 -45.5t-48 -30.5t-58.5 -11q-29 0 -55.5 11t-46.5 30.5t-32 45.5t-12 56t12 57t32 47.5t46.5 32t55.5 11.5q31 0 58.5 -11.5t48 -32t32.5 -47.5t12 -57zM1292 1294q0 -30 -12 -56t-32 -45.5t-47 -30.5t-58 -11q-30 0 -57 11t-47.5 30.5
t-32 45.5t-11.5 56t11.5 57t32 47.5t47.5 32t57 11.5q31 0 58 -11.5t47 -32t32 -47.5t12 -57zM189 0v833l-80 14q-31 6 -50.5 22t-19.5 46v110h150v112q0 81 21.5 145.5t62.5 109.5t101 69t137 24q29 0 51.5 -2.5t45.5 -10.5v-148q0 -20 -16.5 -27.5t-39.5 -7.5
q-53 0 -74.5 -34.5t-21.5 -116.5v-113h646v-1025h-276v833h-361v-833h-276z" />
    <glyph glyph-name="_255" unicode="f&#x12b;" horiz-adv-x="1224" 
d="M39 0zM661 1381h608v-172h-608v172zM189 0v833l-80 14q-31 6 -50.5 22t-19.5 46v110h150v112q0 81 21.5 145.5t62.5 109.5t101 69t137 24q29 0 51.5 -2.5t45.5 -10.5v-148q0 -20 -16.5 -27.5t-39.5 -7.5q-53 0 -74.5 -34.5t-21.5 -116.5v-113h646v-1025h-276v833h-361
v-833h-276z" />
    <glyph glyph-name="_256" unicode="f&#x12d;" horiz-adv-x="1224" 
d="M39 0zM965 1160q-89 0 -149.5 23t-97 63t-52 93t-15.5 112h193q0 -29 5 -51.5t18.5 -38t37 -23.5t60.5 -8t60.5 8t37 23.5t18.5 38t5 51.5h193q0 -59 -15.5 -112t-52 -93t-97 -63t-149.5 -23zM189 0v833l-80 14q-31 6 -50.5 22t-19.5 46v110h150v112q0 81 21.5 145.5
t62.5 109.5t101 69t137 24q29 0 51.5 -2.5t45.5 -10.5v-148q0 -20 -16.5 -27.5t-39.5 -7.5q-53 0 -74.5 -34.5t-21.5 -116.5v-113h646v-1025h-276v833h-361v-833h-276z" />
    <glyph glyph-name="_257" unicode="f&#x12f;" horiz-adv-x="1224" 
d="M189 0v833l-80 14q-31 6 -50.5 22t-19.5 46v110h150v25q0 94 31.5 175.5t97 142t166 95t238.5 34.5q43 0 89 -4.5t79 -13.5l-9 -141q-1 -12 -7.5 -19t-17.5 -11t-24.5 -5t-28.5 -1q-100 0 -167 -16.5t-107 -49.5t-56.5 -82t-16.5 -113v-16h646v-1025h-33
q-20 -11 -38 -24.5t-31.5 -30t-22 -35t-8.5 -39.5q0 -28 16.5 -44t46.5 -16q17 0 28 1.5t17.5 4t11.5 4t10 1.5q19 0 26 -17l41 -100q-34 -22 -84.5 -36.5t-107.5 -14.5q-103 0 -156.5 41.5t-53.5 106.5q0 54 35.5 105t106.5 93h-80v833h-361v-833h-276z" />
    <glyph glyph-name="_258" unicode="f&#x131;" horiz-adv-x="1225" 
d="M189 0v833l-80 14q-31 6 -50.5 22t-19.5 46v110h150v112q0 81 21.5 145.5t62.5 109.5t101 69t137 24q29 0 51.5 -2.5t45.5 -10.5v-148q0 -20 -16.5 -27.5t-39.5 -7.5q-53 0 -74.5 -34.5t-21.5 -116.5v-113h646v-1025h-276v833h-361v-833h-276z" />
    <glyph glyph-name="f_f_i" unicode="ffi" horiz-adv-x="1880" 
d="M189 0v833l-80 14q-31 6 -50.5 22t-19.5 46v110h150v50q0 88 27.5 159.5t79 121t125 76.5t166.5 27q37 0 69 -5t65 -14l-5 -136q-2 -30 -27 -40t-54 -10q-43 0 -76 -9t-56 -30.5t-35 -58t-12 -90.5v-41h388v25q0 94 31.5 175.5t97 142t166 95t238.5 34.5q43 0 89 -4.5
t79 -13.5l-9 -141q-2 -24 -25 -30t-53 -6q-100 0 -167 -16.5t-107 -49.5t-56.5 -82t-16.5 -113v-16h646v-1025h-276v833h-361v-833h-276v833h-379v-833h-276z" />
    <glyph glyph-name="_260" unicode="ff&#xec;" horiz-adv-x="1880" 
d="M1481 0v833h-362v-833h-275v833h-379v-833h-276v832l-80 15q-31 6 -50.5 22t-19.5 46v110h150v50q0 88 27.5 159.5t79 121t125 76.5t166.5 27q37 0 69 -5t65 -14l-5 -136q-2 -30 -27 -40t-54 -10q-43 0 -76 -9t-56 -30.5t-35 -58t-12 -90.5v-41h388v85q0 89 32 160
t97.5 121t166 76.5t237.5 26.5q99 0 148 -14t64 -39l156 -274h-156q-32 0 -51 8.5t-39 29.5l-104 107h-16q-75 0 -126 -12.5t-82.5 -38.5t-45.5 -65.5t-14 -93.5v-77h645v-1025h-275z" />
    <glyph glyph-name="_261" unicode="ff&#xee;" horiz-adv-x="1879" 
d="M39 0zM189 0v833l-80 14q-31 6 -50.5 22t-19.5 46v110h150v50q0 88 27.5 159.5t79 121t125 76.5t166.5 27q37 0 69 -5t65 -14l-5 -136q-2 -30 -27 -40t-54 -10q-43 0 -76 -9t-56 -30.5t-35 -58t-12 -90.5v-41h388v112q0 81 21.5 145.5t62.5 109.5t101 69t137 24
q29 0 51.5 -2.5t45.5 -10.5v-148q0 -20 -16.5 -27.5t-39.5 -7.5q-53 0 -74.5 -34.5t-21.5 -116.5v-113h646v-1025h-276v833h-361v-833h-276v833h-379v-833h-276zM1985 1168h-184q-16 0 -31 5.5t-31 20.5l-88 95q-6 5 -11.5 11.5t-10.5 13.5q-6 -8 -12 -14l-11 -11l-90 -95
q-28 -26 -62 -26h-191l232 283h258z" />
    <glyph glyph-name="_262" unicode="ff&#x129;" horiz-adv-x="1879" 
d="M39 0zM189 0v833l-80 14q-31 6 -50.5 22t-19.5 46v110h150v50q0 88 27.5 159.5t79 121t125 76.5t166.5 27q37 0 69 -5t65 -14l-5 -136q-2 -30 -27 -40t-54 -10q-43 0 -76 -9t-56 -30.5t-35 -58t-12 -90.5v-41h388v112q0 81 21.5 145.5t62.5 109.5t101 69t137 24
q29 0 51.5 -2.5t45.5 -10.5v-148q0 -20 -16.5 -27.5t-39.5 -7.5q-53 0 -74.5 -34.5t-21.5 -116.5v-113h646v-1025h-276v833h-361v-833h-276v833h-379v-833h-276zM1729 1372q27 0 43 14.5t16 56.5h168q0 -59 -16.5 -107t-45.5 -81.5t-69 -52t-86 -18.5q-36 0 -67.5 12.5
t-59 27t-50.5 27t-41 12.5q-27 0 -42.5 -15.5t-15.5 -57.5h-170q0 59 16.5 107t46 82t69 52.5t85.5 18.5q37 0 69 -12t59 -27t49.5 -27t41.5 -12z" />
    <glyph glyph-name="_263" unicode="ff&#xef;" horiz-adv-x="1879" 
d="M1590 1294q0 -30 -12 -56t-32.5 -45.5t-48 -30.5t-58.5 -11q-29 0 -55.5 11t-46.5 30.5t-32 45.5t-12 56t12 57t32 47.5t46.5 32t55.5 11.5q31 0 58.5 -11.5t48 -32t32.5 -47.5t12 -57zM1947 1294q0 -30 -12 -56t-32 -45.5t-47.5 -30.5t-58.5 -11q-30 0 -57 11t-47 30.5
t-31.5 45.5t-11.5 56t11.5 57t31.5 47.5t47 32t57 11.5q31 0 58.5 -11.5t47.5 -32t32 -47.5t12 -57zM189 0v833l-80 14q-31 6 -50.5 22t-19.5 46v110h150v50q0 88 27.5 159.5t79 121t125 76.5t166.5 27q37 0 69 -5t65 -14l-5 -136q-2 -30 -27 -40t-54 -10q-43 0 -76 -9
t-56 -30.5t-35 -58t-12 -90.5v-41h388v112q0 81 21.5 145.5t62.5 109.5t101 69t137 24q29 0 51.5 -2.5t45.5 -10.5v-148q0 -20 -16.5 -27.5t-39.5 -7.5q-53 0 -74.5 -34.5t-21.5 -116.5v-113h646v-1025h-276v833h-361v-833h-276v833h-379v-833h-276z" />
    <glyph glyph-name="_264" unicode="ff&#x12b;" horiz-adv-x="1879" 
d="M39 0zM189 0v833l-80 14q-31 6 -50.5 22t-19.5 46v110h150v50q0 88 27.5 159.5t79 121t125 76.5t166.5 27q37 0 69 -5t65 -14l-5 -136q-2 -30 -27 -40t-54 -10q-43 0 -76 -9t-56 -30.5t-35 -58t-12 -90.5v-41h388v112q0 81 21.5 145.5t62.5 109.5t101 69t137 24
q29 0 51.5 -2.5t45.5 -10.5v-148q0 -20 -16.5 -27.5t-39.5 -7.5q-53 0 -74.5 -34.5t-21.5 -116.5v-113h646v-1025h-276v833h-361v-833h-276v833h-379v-833h-276zM1320 1381h608v-172h-608v172z" />
    <glyph glyph-name="_265" unicode="ff&#x12d;" horiz-adv-x="1879" 
d="M39 0zM189 0v833l-80 14q-31 6 -50.5 22t-19.5 46v110h150v50q0 88 27.5 159.5t79 121t125 76.5t166.5 27q37 0 69 -5t65 -14l-5 -136q-2 -30 -27 -40t-54 -10q-43 0 -76 -9t-56 -30.5t-35 -58t-12 -90.5v-41h388v112q0 81 21.5 145.5t62.5 109.5t101 69t137 24
q29 0 51.5 -2.5t45.5 -10.5v-148q0 -20 -16.5 -27.5t-39.5 -7.5q-53 0 -74.5 -34.5t-21.5 -116.5v-113h646v-1025h-276v833h-361v-833h-276v833h-379v-833h-276zM1624 1160q-89 0 -149.5 23t-97 63t-52 93t-15.5 112h193q0 -29 5 -51.5t18.5 -38t37 -23.5t60.5 -8t60.5 8
t37 23.5t18.5 38t5 51.5h193q0 -59 -15.5 -112t-52 -93t-97 -63t-149.5 -23z" />
    <glyph glyph-name="_266" unicode="ff&#x12f;" horiz-adv-x="1879" 
d="M189 0v833l-80 14q-31 6 -50.5 22t-19.5 46v110h150v50q0 88 27.5 159.5t79 121t125 76.5t166.5 27q37 0 69 -5t65 -14l-5 -136q-2 -30 -27 -40t-54 -10q-43 0 -76 -9t-56 -30.5t-35 -58t-12 -90.5v-41h388v25q0 94 31.5 175.5t97 142t166 95t238.5 34.5q43 0 89 -4.5
t79 -13.5l-9 -141q-2 -24 -25 -30t-53 -6q-100 0 -167 -16.5t-107 -49.5t-56.5 -82t-16.5 -113v-16h646v-1025h-28q-20 -11 -38 -24.5t-31.5 -30t-22 -35t-8.5 -39.5q0 -28 16.5 -44t46.5 -16q17 0 28 1.5t17.5 4t11.5 4t10 1.5q19 0 26 -17l41 -100q-34 -22 -84.5 -36.5
t-107.5 -14.5q-103 0 -156.5 41.5t-53.5 106.5q0 54 35.5 105t106.5 93h-85v833h-361v-833h-276v833h-379v-833h-276z" />
    <glyph glyph-name="_267" unicode="ff&#x131;" horiz-adv-x="1880" 
d="M189 0v833l-80 14q-31 6 -50.5 22t-19.5 46v110h150v50q0 88 27.5 159.5t79 121t125 76.5t166.5 27q37 0 69 -5t65 -14l-5 -136q-2 -30 -27 -40t-54 -10q-43 0 -76 -9t-56 -30.5t-35 -58t-12 -90.5v-41h388v112q0 81 21.5 145.5t62.5 109.5t101 69t137 24q29 0 51.5 -2.5
t45.5 -10.5v-148q0 -20 -16.5 -27.5t-39.5 -7.5q-53 0 -74.5 -34.5t-21.5 -116.5v-113h646v-1025h-276v833h-361v-833h-276v833h-379v-833h-276z" />
    <glyph glyph-name="_268" unicode="fj" horiz-adv-x="1225" 
d="M189 0v833l-80 14q-31 6 -50.5 22t-19.5 46v110h150v25q0 94 31.5 175.5t97 142t166 95t238.5 34.5q43 0 89 -4.5t79 -13.5l-9 -141q-1 -12 -7.5 -19t-17.5 -11t-24.5 -5t-28.5 -1q-100 0 -167 -16.5t-107 -49.5t-56.5 -82t-16.5 -113v-16h646v-1045q0 -70 -18 -131.5
t-58.5 -107.5t-106 -73t-161.5 -27q-36 0 -67.5 5t-64.5 14l10 146q2 20 14.5 28t49.5 8t61 6.5t38.5 22.5t20.5 42.5t6 66.5v853h-361v-833h-276z" />
    <glyph glyph-name="_269" unicode="ffj" horiz-adv-x="1880" 
d="M189 0v833l-80 14q-31 6 -50.5 22t-19.5 46v110h150v50q0 88 27.5 159.5t79 121t125 76.5t166.5 27q37 0 69 -5t65 -14l-5 -136q-2 -30 -27 -40t-54 -10q-43 0 -76 -9t-56 -30.5t-35 -58t-12 -90.5v-41h388v25q0 94 31.5 175.5t97 142t166 95t238.5 34.5q43 0 89 -4.5
t79 -13.5l-9 -141q-2 -24 -25 -30t-53 -6q-100 0 -167 -16.5t-107 -49.5t-56.5 -82t-16.5 -113v-16h646v-1045q0 -70 -18 -131.5t-58.5 -107.5t-106 -73t-161.5 -27q-36 0 -67.5 5t-63.5 14l9 146q2 20 14.5 28t49.5 8t61 6.5t38.5 22.5t20.5 42.5t6 66.5v853h-361v-833
h-276v833h-379v-833h-276z" />
    <glyph glyph-name="_270" unicode="fk" horiz-adv-x="1832" 
d="M189 0v833l-80 14q-31 6 -50.5 22t-19.5 46v110h150v63q0 93 29.5 171.5t93 135.5t163.5 89t242 32q49 0 92.5 -3.5t88.5 -8t94.5 -8.5t112.5 -5h27v-846h46q26 0 41 7.5t30 27.5l228 304q17 23 38.5 35t54.5 12h252l-296 -376q-35 -47 -81 -74q23 -16 40 -37t33 -47
l319 -497h-248q-32 0 -55 10.5t-38 37.5l-232 379q-14 24 -29 31t-45 7h-58v-465h-276v1310q-37 14 -77.5 22.5t-79.5 8.5q-59 0 -104.5 -19t-76.5 -53t-47 -80.5t-16 -100.5v-63h256v-192h-247v-833h-275z" />
    <glyph glyph-name="_271" unicode="ffk" horiz-adv-x="2488" 
d="M189 0v833l-80 14q-31 6 -50.5 22t-19.5 46v110h150v50q0 88 27.5 159.5t79 121t125 76.5t166.5 27q37 0 69 -5t65 -14l-5 -136q-2 -30 -27 -40t-54 -10q-43 0 -76 -9t-56 -30.5t-35 -58t-12 -90.5v-41h388v63q0 93 29.5 171.5t93 135.5t163.5 89t242 32q49 0 92.5 -3.5
t88.5 -8t95 -8.5t112 -5h27v-846h46q26 0 41 7.5t30 27.5l228 304q17 23 38.5 35t54.5 12h252l-296 -376q-35 -47 -81 -74q23 -16 40 -37t33 -47l319 -497h-248q-32 0 -55 10.5t-38 37.5l-232 379q-14 24 -29 31t-45 7h-58v-465h-276v1311q-37 14 -77 22t-79 8
q-59 0 -104.5 -19t-76.5 -53t-47 -80.5t-16 -100.5v-63h256v-192h-247v-833h-276v833h-379v-833h-276z" />
    <glyph glyph-name="f_f_l" unicode="ffl" horiz-adv-x="1897" 
d="M189 0v833l-80 14q-31 6 -50.5 22t-19.5 46v110h150v50q0 88 27.5 159.5t78.5 121t125 76.5t167 27q36 0 68.5 -5t65.5 -14l-6 -136q-2 -30 -26.5 -40t-54.5 -10q-42 0 -75.5 -9t-56.5 -30.5t-35 -58t-12 -90.5v-41h389v40q0 81 26 156t79.5 133t135.5 93t195 35
q94 0 178.5 -6.5t168.5 -6.5h154v-1469h-274v1282q-52 2 -101.5 4.5t-81.5 2.5q-104 0 -158.5 -57.5t-54.5 -166.5v-40h255v-192h-247v-833h-275v833h-380v-833h-275z" />
    <glyph glyph-name="_273" unicode="ft" horiz-adv-x="1434" 
d="M1135 833v-538q0 -43 21 -68t58 -25q20 0 34 4.5t24 10t18.5 10t17.5 4.5q12 0 20 -5.5t16 -18.5l83 -132q-57 -45 -129 -68t-149 -23q-70 0 -124 20.5t-91 58.5t-56 92t-19 122v556h-395v-833h-275v833l-80 14q-31 6 -50.5 22t-19.5 46v110h150v68q0 88 27.5 159.5
t78.5 121t125 76.5t167 27q36 0 68.5 -4.5t65.5 -13.5l-6 -136q-2 -31 -26.5 -40.5t-54.5 -9.5q-42 0 -75.5 -9t-56.5 -30.5t-35 -58t-12 -90.5v-60h418l58 269q11 45 61 45h143v-314h266v-192h-266z" />
    <glyph glyph-name="_274" unicode="fft" horiz-adv-x="2089" 
d="M189 0v833l-80 14q-31 6 -50.5 22t-19.5 46v110h150v50q0 88 27.5 159.5t79 121t125 76.5t166.5 27q37 0 69 -5t65 -14l-5 -136q-2 -30 -27 -40t-54 -10q-43 0 -76 -9t-56 -30.5t-35 -58t-12 -90.5v-41h388v68q0 88 27.5 159.5t79 121t125 76.5t166.5 27q37 0 69 -4.5
t65 -13.5l-5 -136q-1 -15 -8.5 -25t-18.5 -15.5t-25 -7.5t-29 -2q-43 0 -76 -9t-56 -30.5t-35 -58t-12 -90.5v-60h418l57 269q11 45 61 45h143v-314h267v-192h-267v-538q0 -43 21 -68t59 -25q20 0 33.5 4.5t24 10t19 10t17.5 4.5q12 0 20 -5.5t16 -18.5l83 -132
q-57 -45 -129 -68t-150 -23q-70 0 -124 20.5t-90.5 58.5t-55.5 92t-19 122v556h-395v-833h-276v833h-379v-833h-276z" />
    <glyph glyph-name="_292" unicode="tf" horiz-adv-x="1419" 
d="M882 0v833h-426v-538q0 -43 20.5 -68t58.5 -25q20 0 34 4.5t24 10t18.5 10t17.5 4.5q12 0 20 -5.5t16 -18.5l83 -132q-57 -45 -129 -68t-149 -23q-70 0 -124 20.5t-91 58.5t-56 92t-19 122v556h-97q-22 0 -37.5 14t-15.5 42v108l165 30l56 267q11 45 61 45h144v-314h426
v68q0 88 27.5 159.5t78.5 121t125 76.5t167 27q36 0 68.5 -4.5t65.5 -13.5l-6 -136q-2 -31 -26.5 -40.5t-54.5 -9.5q-42 0 -75.5 -9t-56.5 -30.5t-35 -58t-12 -90.5v-60h256v-192h-247v-833h-275z" />
    <glyph glyph-name="_293" unicode="t&#x12f;" horiz-adv-x="1312" 
d="M1195 -178q20 0 25 -17l42 -100q-34 -22 -84.5 -36.5t-107.5 -14.5q-103 0 -156.5 41.5t-53.5 106.5q0 54 35.5 105t106.5 93h-88v833h-457v-538q0 -43 21 -68t58 -25q20 0 34 4.5t24 10t18.5 10t17.5 4.5q12 0 20 -5.5t16 -18.5l83 -132q-57 -45 -129 -68t-149 -23
q-70 0 -124 20.5t-91 58.5t-56 92t-19 122v556h-97q-22 0 -37 14t-15 42v108l164 30l57 267q11 45 61 45h143v-314h732v-1025h-24q-20 -11 -38 -24.5t-31.5 -30t-22 -35t-8.5 -39.5q0 -28 16 -44t47 -16q17 0 28 1.5t17.5 4t11.5 4t10 1.5zM1223 1324q0 -35 -14 -65
t-37.5 -53t-55 -36t-67.5 -13q-35 0 -65.5 13t-53.5 36t-36.5 53t-13.5 65t13.5 65.5t36.5 53.5t53.5 36t65.5 13q36 0 67.5 -13t55 -36t37.5 -53.5t14 -65.5z" />
    <glyph glyph-name="_294" unicode="t&#x131;" horiz-adv-x="1311" 
d="M1188 1025v-1025h-275v833h-457v-538q0 -43 20.5 -68t58.5 -25q20 0 34 4.5t24 10t18.5 10t17.5 4.5q12 0 20 -5.5t16 -18.5l83 -132q-57 -45 -129 -68t-149 -23q-70 0 -124 20.5t-91 58.5t-56 92t-19 122v556h-97q-22 0 -37.5 14t-15.5 42v108l165 30l56 267
q11 45 61 45h144v-314h732z" />
    <glyph glyph-name="_295" unicode="tt" horiz-adv-x="1423" 
d="M470 -16q-70 0 -124 20.5t-91 58.5t-56 92t-19 122v556h-97q-22 0 -37.5 14t-15.5 42v108l165 30l56 267q11 45 61 45h144v-314h406l58 269q11 45 61 45h143v-314h266v-192h-266v-538q0 -43 21 -68t58 -25q20 0 34 4.5t24 10t18.5 10t17.5 4.5q12 0 20 -5.5t16 -18.5
l83 -132q-57 -45 -129 -68t-149 -23q-70 0 -124 20.5t-91 58.5t-56 92t-19 122v556h-392v-538q0 -43 20.5 -68t58.5 -25q20 0 34 4.5t24 10t18.5 10t17.5 4.5q12 0 20 -5.5t16 -18.5l83 -132q-57 -45 -129 -68t-149 -23z" />
    <glyph glyph-name="_296" unicode="ttf" horiz-adv-x="2087" 
d="M1550 0v833h-426v-538q0 -43 21 -68t58 -25q20 0 34 4.5t24 10t18.5 10t17.5 4.5q12 0 20 -5.5t16 -18.5l83 -132q-57 -45 -129 -68t-149 -23q-70 0 -124 20.5t-91 58.5t-56 92t-19 122v556h-392v-538q0 -43 20.5 -68t58.5 -25q20 0 34 4.5t24 10t18.5 10t17.5 4.5
q12 0 20 -5.5t16 -18.5l83 -132q-57 -45 -129 -68t-149 -23q-70 0 -124 20.5t-91 58.5t-56 92t-19 122v556h-97q-22 0 -37.5 14t-15.5 42v108l165 30l56 267q11 45 61 45h144v-314h406l58 269q11 45 61 45h143v-314h426v68q0 88 27.5 159.5t78.5 121t125 76.5t167 27
q36 0 68.5 -4.5t65.5 -13.5l-6 -136q-2 -31 -26.5 -40.5t-54.5 -9.5q-42 0 -75.5 -9t-56 -30.5t-34.5 -58t-12 -90.5v-60h255v-192h-247v-833h-275z" />
    <glyph glyph-name="_297" unicode="tt&#x12f;" horiz-adv-x="1960" 
d="M1846 -178q19 0 26 -17l41 -100q-34 -22 -84.5 -36.5t-107.5 -14.5q-103 0 -156.5 41.5t-53.5 106.5q0 54 35.5 105t106.5 93h-91v833h-437v-538q0 -43 21 -68t58 -25q20 0 34 4.5t24.5 10t18.5 10t17 4.5q13 0 20.5 -5.5t15.5 -18.5l84 -132q-57 -45 -129 -68t-150 -23
q-70 0 -124 20.5t-90.5 58.5t-55.5 92t-19 122v556h-393v-538q0 -43 21 -68t58 -25q20 0 34 4.5t24 10t18.5 10t17.5 4.5q12 0 20 -5.5t16 -18.5l83 -132q-57 -45 -129 -68t-149 -23q-70 0 -124 20.5t-91 58.5t-56 92t-19 122v556h-97q-22 0 -37 14t-15 42v108l164 30
l57 267q11 45 61 45h143v-314h407l57 269q11 45 61 45h143v-314h713v-1025h-22q-20 -11 -38 -24.5t-31.5 -30t-22 -35t-8.5 -39.5q0 -28 16.5 -44t46.5 -16q17 0 28 1.5t17.5 4t11.5 4t10 1.5zM1871 1324q0 -35 -14 -65t-37.5 -53t-55 -36t-67.5 -13q-34 0 -64.5 13
t-53.5 36t-36.5 53t-13.5 65t13.5 65.5t36.5 53.5t53.5 36t64.5 13q36 0 67.5 -13t55 -36t37.5 -53.5t14 -65.5z" />
    <glyph glyph-name="_298" unicode="tt&#x131;" horiz-adv-x="1959" 
d="M470 -16q-70 0 -124 20.5t-91 58.5t-56 92t-19 122v556h-97q-22 0 -37.5 14t-15.5 42v108l165 30l56 267q11 45 61 45h144v-314h406l58 269q11 45 61 45h143v-314h712v-1025h-275v833h-437v-538q0 -43 21 -68t58 -25q20 0 34 4.5t24 10t18.5 10t17.5 4.5q12 0 20 -5.5
t16 -18.5l83 -132q-57 -45 -129 -68t-149 -23q-70 0 -124 20.5t-91 58.5t-56 92t-19 122v556h-392v-538q0 -43 20.5 -68t58.5 -25q20 0 34 4.5t24 10t18.5 10t17.5 4.5q12 0 20 -5.5t16 -18.5l83 -132q-57 -45 -129 -68t-149 -23z" />
    <glyph glyph-name="_735" unicode="f&#x1d0;" horiz-adv-x="1224" 
d="M189 0v833l-80 14q-31 6 -50.5 22t-19.5 46v110h150v112q0 81 21.5 145.5t62.5 109.5t101 69t137 24q29 0 51.5 -2.5t45.5 -10.5v-148q0 -20 -16.5 -27.5t-39.5 -7.5q-53 0 -74.5 -34.5t-21.5 -116.5v-113h646v-1025h-276v833h-361v-833h-276zM636 1451h190
q17 0 33.5 -4.5t21.5 -13.5l69 -102q6 -10 12.5 -21.5t11.5 -23.5q5 12 10.5 23.5t12.5 21.5l70 102q5 8 21.5 13t32.5 5h184l-205 -283h-259z" />
    <glyph glyph-name="_736" unicode="f&#x209;" horiz-adv-x="1224" 
d="M546 1485q47 0 79.5 -3.5t56 -12t40 -23t31.5 -35.5l177 -244h-130q-31 0 -50.5 8.5t-39.5 29.5l-79 83q-53 -1 -87 -8.5t-53.5 -25t-27 -45.5t-7.5 -71v-113h646v-1025h-276v833h-361v-833h-276v833l-80 14q-31 6 -50.5 22t-19.5 46v110h150v112q0 83 26 147.5t73.5 109
t113 68t144.5 23.5zM996 1467q43 0 65.5 -14t36.5 -42l122 -244h-113q-31 0 -51.5 7.5t-38.5 30.5l-199 262h178z" />
    <glyph glyph-name="_737" unicode="f&#x20b;" horiz-adv-x="1224" 
d="M189 0v833l-80 14q-31 6 -50.5 22t-19.5 46v110h150v112q0 81 21.5 145.5t62.5 109.5t101 69t137 24q29 0 51.5 -2.5t45.5 -10.5v-148q0 -20 -16.5 -27.5t-39.5 -7.5q-53 0 -74.5 -34.5t-21.5 -116.5v-113h646v-1025h-276v833h-361v-833h-276zM972 1461q89 0 149.5 -23.5
t97 -63t52 -92.5t15.5 -112h-193q0 29 -5 51.5t-18.5 38t-37 23.5t-60.5 8t-60.5 -8t-37 -23.5t-18.5 -38t-5 -51.5h-193q0 59 15.5 112t52 92.5t97 63t149.5 23.5z" />
    <glyph glyph-name="_738" unicode="f&#x1e2f;" horiz-adv-x="1224" 
d="M929 1213q0 -27 -10.5 -50t-29 -40.5t-43 -27.5t-51.5 -10q-26 0 -49.5 10t-41.5 27.5t-28.5 40.5t-10.5 50t10.5 51t28.5 42t41.5 28.5t49.5 10.5q27 0 51.5 -10.5t43 -28.5t29 -42t10.5 -51zM1283 1213q0 -27 -10.5 -50t-28.5 -40.5t-42 -27.5t-51 -10t-51 10t-42 27.5
t-28.5 40.5t-10.5 50t10.5 51t28.5 42t42 28.5t51 10.5t51 -10.5t42 -28.5t28.5 -42t10.5 -51zM1350 1605l-226 -207q-23 -20 -48 -29.5t-60 -9.5h-147l112 189q17 27 38 42t64 15h267zM189 0v833l-80 14q-31 6 -50.5 22t-19.5 46v110h150v112q0 81 21.5 145.5t62.5 109.5
t101 69t137 24q29 0 51.5 -2.5t45.5 -10.5v-148q0 -20 -16.5 -27.5t-39.5 -7.5q-53 0 -74.5 -34.5t-21.5 -116.5v-113h646v-1025h-276v833h-361v-833h-276z" />
    <glyph glyph-name="_740" unicode="ff&#x1d0;" horiz-adv-x="1879" 
d="M1481 0v833h-361v-833h-276v833h-379v-833h-276v833l-80 14q-31 6 -50.5 22t-19.5 46v110h150v50q0 88 27.5 159.5t79 121t125 76.5t166.5 27q37 0 69 -5t65 -14l-5 -136q-2 -30 -27 -40t-54 -10q-43 0 -76 -9t-56 -30.5t-35 -58t-12 -90.5v-41h388v112q0 81 21.5 145.5
t62.5 109.5t101 69t137 24q29 0 51.5 -2.5t45.5 -10.5v-148q0 -20 -16.5 -27.5t-39.5 -7.5q-53 0 -74.5 -34.5t-21.5 -116.5v-113h646v-1025h-276zM1284 1451h190q17 0 33.5 -4.5t21.5 -13.5l69 -102q6 -10 12 -21t12 -23q9 24 23 44l69 102q6 8 22.5 13t32.5 5h184
l-205 -283h-259z" />
    <glyph glyph-name="_741" unicode="ff&#x209;" horiz-adv-x="1879" 
d="M189 0v833l-80 14q-31 6 -50.5 22t-19.5 46v110h150v50q0 88 27.5 159.5t79 121t125 76.5t166.5 27q37 0 69 -5t65 -14l-5 -136q-2 -30 -27 -40t-54 -10q-43 0 -76 -9t-56 -30.5t-35 -58t-12 -90.5v-41h388v112q0 81 23.5 145.5t69.5 109.5t115 69t159 24q47 0 79.5 -3.5
t56 -12t40 -23t31.5 -35.5l177 -244h-130q-31 0 -50 9t-40 29l-79 84q-53 -2 -88.5 -9.5t-57 -25t-30.5 -45.5t-9 -71v-113h646v-1025h-276v833h-361v-833h-276v833h-379v-833h-276zM1663 1467q43 0 65 -14t36 -42l122 -244h-112q-32 0 -52.5 7.5t-37.5 30.5l-200 262h179z
" />
    <glyph glyph-name="_742" unicode="ff&#x20b;" horiz-adv-x="1879" 
d="M1481 0v833h-361v-833h-276v833h-379v-833h-276v833l-80 14q-31 6 -50.5 22t-19.5 46v110h150v50q0 88 27.5 159.5t79 121t125 76.5t166.5 27q37 0 69 -5t65 -14l-5 -136q-2 -30 -27 -40t-54 -10q-43 0 -76 -9t-56 -30.5t-35 -58t-12 -90.5v-41h388v112q0 81 21.5 145.5
t62.5 109.5t101 69t137 24q29 0 51.5 -2.5t45.5 -10.5v-148q0 -20 -16.5 -27.5t-39.5 -7.5q-53 0 -74.5 -34.5t-21.5 -116.5v-113h646v-1025h-276zM1611 1461q89 0 149 -23.5t96.5 -63t52 -92.5t15.5 -112h-192q0 29 -5.5 51.5t-19 38t-37 23.5t-59.5 8q-37 0 -60.5 -8
t-37 -23.5t-19 -38t-5.5 -51.5h-192q0 59 15.5 112t52 92.5t97 63t149.5 23.5z" />
    <glyph glyph-name="_743" unicode="ff&#x1e2f;" horiz-adv-x="1879" 
d="M1481 0v833h-361v-833h-276v833h-379v-833h-276v833l-80 14q-31 6 -50.5 22t-19.5 46v110h150v50q0 88 27.5 159.5t79 121t125 76.5t166.5 27q37 0 69 -5t65 -14l-5 -136q-2 -30 -27 -40t-54 -10q-43 0 -76 -9t-56 -30.5t-35 -58t-12 -90.5v-41h388v112q0 81 21.5 145.5
t62.5 109.5t101 69t137 24q29 0 51.5 -2.5t45.5 -10.5v-148q0 -20 -16.5 -27.5t-39.5 -7.5q-53 0 -74.5 -34.5t-21.5 -116.5v-113h646v-1025h-276zM2003 1605l-227 -207q-23 -20 -48 -29.5t-60 -9.5h-147l113 189q16 27 37 42t65 15h267zM1935 1213q0 -27 -10.5 -50
t-28.5 -40.5t-42 -27.5t-51 -10t-51 10t-42 27.5t-28.5 40.5t-10.5 50t10.5 51t28.5 42t42 28.5t51 10.5t51 -10.5t42 -28.5t28.5 -42t10.5 -51zM1581 1213q0 -27 -10.5 -50t-29 -40.5t-43 -27.5t-51.5 -10q-26 0 -49.5 10t-41.5 27.5t-28.5 40.5t-10.5 50t10.5 51t28.5 42
t41.5 28.5t49.5 10.5q27 0 51.5 -10.5t43 -28.5t29 -42t10.5 -51z" />
    <glyph glyph-name="_1525" unicode="f&#x237;" horiz-adv-x="1225" 
d="M189 0v833l-80 14q-31 6 -50.5 22t-19.5 46v110h150v112q0 81 21.5 145.5t62.5 109.5t101 69t137 24q29 0 51.5 -2.5t45.5 -10.5v-148q0 -20 -16.5 -27.5t-39.5 -7.5q-53 0 -74.5 -34.5t-21.5 -116.5v-113h646v-1045q0 -70 -18 -131.5t-58.5 -107.5t-106 -73t-161.5 -27
q-36 0 -67.5 5t-64.5 14l10 146q2 20 14.5 28t49.5 8t61 6.5t38.5 22.5t20.5 42.5t6 66.5v853h-361v-833h-276z" />
    <glyph glyph-name="_1526" unicode="ff&#x237;" horiz-adv-x="1880" 
d="M1757 -20q0 -70 -18 -131.5t-58.5 -107.5t-106 -73t-161.5 -27q-36 0 -67.5 5t-63.5 14l9 146q2 20 14.5 28t49.5 8t61 6.5t38.5 22.5t20.5 42.5t6 66.5v853h-361v-833h-276v833h-379v-833h-276v833l-80 14q-31 6 -50.5 22t-19.5 46v110h150v50q0 88 27.5 159.5t79 121
t125 76.5t166.5 27q37 0 69 -5t65 -14l-5 -136q-2 -30 -27 -40t-54 -10q-43 0 -76 -9t-56 -30.5t-35 -58t-12 -90.5v-41h388v112q0 81 21.5 145.5t62.5 109.5t101 69t137 24q29 0 51.5 -2.5t45.5 -10.5v-148q0 -20 -16.5 -27.5t-39.5 -7.5q-53 0 -74.5 -34.5t-21.5 -116.5
v-113h646v-1045v0z" />
    <glyph glyph-name="_1539" unicode="f&#x135;" horiz-adv-x="1224" 
d="M39 0zM189 0v833l-80 14q-31 6 -50.5 22t-19.5 46v110h150v112q0 81 21.5 145.5t62.5 109.5t101 69t137 24q29 0 51.5 -2.5t45.5 -10.5v-148q0 -20 -16.5 -27.5t-39.5 -7.5q-53 0 -74.5 -34.5t-21.5 -116.5v-113h646v-1045q0 -70 -18 -131.5t-58.5 -107.5t-106 -73
t-161.5 -27q-36 0 -67.5 5t-64.5 14l10 146q2 20 14.5 28t49.5 8t61 6.5t38.5 22.5t20.5 42.5t6 66.5v853h-361v-833h-276zM1327 1168h-184q-16 0 -31 5.5t-31 20.5l-88 95q-6 5 -11.5 11.5t-10.5 13.5q-6 -8 -12 -14l-11 -11l-90 -95q-28 -26 -62 -26h-191l232 283h258z
" />
    <glyph glyph-name="_1540" unicode="f&#x13e;" horiz-adv-x="1242" 
d="M39 0zM189 0v833l-80 14q-31 6 -50.5 22t-19.5 46v110h150v40q0 81 26 156t79.5 133t136 93t195.5 35q94 0 177.5 -6.5t168.5 -6.5h155v-1469h-274v1282q-52 2 -101.5 4.5t-81.5 2.5q-104 0 -159 -57.5t-55 -166.5v-40h234v-192h-225v-833h-276zM1471 1493q30 0 37 -13.5
t7 -25.5q0 -9 -3.5 -24t-14.5 -44.5t-30.5 -77t-52.5 -120.5q-15 -30 -37.5 -39t-57.5 -9h-98l64 353h186z" />
    <glyph glyph-name="_1541" unicode="f&#x13c;" horiz-adv-x="1243" 
d="M39 0zM189 0v833l-80 14q-31 6 -50.5 22t-19.5 46v110h150v40q0 81 26 156t79.5 133t136 93t195.5 35q94 0 177.5 -6.5t168.5 -6.5h155v-1469h-274v1282q-52 2 -101.5 4.5t-81.5 2.5q-104 0 -159 -57.5t-55 -166.5v-40h234v-192h-225v-833h-276zM1068 -88q30 0 37 -13.5
t7 -25.5q0 -9 -2 -24.5t-9.5 -40.5t-21.5 -61.5t-38 -86.5q-15 -31 -37.5 -39.5t-57.5 -8.5h-98l51 300h169z" />
    <glyph glyph-name="_1542" unicode="f&#x21b;" horiz-adv-x="1434" 
d="M39 0zM1135 833v-538q0 -43 21 -68t58 -25q20 0 34 4.5t24 10t18.5 10t17.5 4.5q12 0 20 -5.5t16 -18.5l83 -132q-57 -45 -129 -68t-149 -23q-70 0 -124 20.5t-91 58.5t-56 92t-19 122v556h-395v-833h-275v833l-80 14q-31 6 -50.5 22t-19.5 46v110h150v68
q0 88 27.5 159.5t78.5 121t125 76.5t167 27q36 0 68.5 -4.5t65.5 -13.5l-6 -136q-2 -31 -26.5 -40.5t-54.5 -9.5q-42 0 -75.5 -9t-56.5 -30.5t-35 -58t-12 -90.5v-60h418l58 269q11 45 61 45h143v-314h266v-192h-266zM1201 -88q30 0 37 -13.5t7 -25.5q0 -9 -2 -24.5
t-9.5 -40.5t-21.5 -61.5t-38 -86.5q-15 -31 -37.5 -39.5t-57.5 -8.5h-98l51 300h169z" />
    <glyph glyph-name="_1543" unicode="f&#x165;" horiz-adv-x="1434" 
d="M39 0zM1135 833v-538q0 -43 21 -68t58 -25q20 0 34 4.5t24 10t18.5 10t17.5 4.5q12 0 20 -5.5t16 -18.5l83 -132q-57 -45 -129 -68t-149 -23q-70 0 -124 20.5t-91 58.5t-56 92t-19 122v556h-395v-833h-275v833l-80 14q-31 6 -50.5 22t-19.5 46v110h150v68
q0 88 27.5 159.5t78.5 121t125 76.5t167 27q36 0 68.5 -4.5t65.5 -13.5l-6 -136q-2 -31 -26.5 -40.5t-54.5 -9.5q-42 0 -75.5 -9t-56.5 -30.5t-35 -58t-12 -90.5v-60h418l58 269q11 45 61 45h143v-314h266v-192h-266zM1530 1493q30 0 37 -13.5t7 -25.5q0 -9 -3.5 -24
t-14.5 -44.5t-30.5 -77t-52.5 -120.5q-15 -30 -37.5 -39t-57.5 -9h-98l64 353h186z" />
    <glyph glyph-name="_2305" unicode="f&#x1ecb;" horiz-adv-x="1225" 
d="M39 0zM189 0v833l-80 14q-31 6 -50.5 22t-19.5 46v110h150v25q0 94 31.5 175.5t97 142t166 95t238.5 34.5q43 0 89 -4.5t79 -13.5l-9 -141q-1 -12 -7.5 -19t-17.5 -11t-24.5 -5t-28.5 -1q-100 0 -167 -16.5t-107 -49.5t-56.5 -82t-16.5 -113v-16h646v-1025h-276v833h-361
v-833h-276zM1115 -235q0 -30 -12 -56.5t-33 -46.5t-48.5 -31.5t-58.5 -11.5q-30 0 -57 11.5t-47 31.5t-32 46.5t-12 56.5q0 31 12 58t32 47t47 31.5t57 11.5q31 0 58.5 -11.5t48.5 -31.5t33 -47t12 -58z" />
    <glyph glyph-name="_2306" unicode="f&#x1e2d;" horiz-adv-x="1225" 
d="M39 0zM189 0v833l-80 14q-31 6 -50.5 22t-19.5 46v110h150v25q0 94 31.5 175.5t97 142t166 95t238.5 34.5q43 0 89 -4.5t79 -13.5l-9 -141q-1 -12 -7.5 -19t-17.5 -11t-24.5 -5t-28.5 -1q-100 0 -167 -16.5t-107 -49.5t-56.5 -82t-16.5 -113v-16h646v-1025h-276v833h-361
v-833h-276zM1068 -142q27 0 43 14.5t16 56.5h168q0 -59 -16.5 -107t-45.5 -81.5t-69 -52t-86 -18.5q-36 0 -67.5 12.5t-59 27t-50.5 27t-41 12.5q-27 0 -42.5 -15.5t-15.5 -57.5h-170q0 59 16.5 107t46 82t69 52.5t85.5 18.5q37 0 69 -12t59 -27t49.5 -27t41.5 -12z" />
    <glyph glyph-name="_2307" unicode="f&#x268;" horiz-adv-x="1268" 
d="M826 576v257h-361v-833h-276v833l-80 14q-31 6 -50.5 22t-19.5 46v110h150v25q0 94 31.5 175.5t97 142t166 95t238.5 34.5q43 0 89 -4.5t79 -13.5l-9 -141q-1 -12 -7.5 -19t-17.5 -11t-24.5 -5t-28.5 -1q-100 0 -167 -16.5t-107 -49.5t-56.5 -82t-16.5 -113v-16h646v-449
h137v-191h-137v-385h-276v385h-129v191h129z" />
    <glyph glyph-name="_2308" unicode="f&#xed;" horiz-adv-x="1224" 
d="M39 0zM189 0v833l-80 14q-31 6 -50.5 22t-19.5 46v110h150v112q0 81 21.5 145.5t62.5 109.5t101 69t137 24q29 0 51.5 -2.5t45.5 -10.5v-148q0 -20 -16.5 -27.5t-39.5 -7.5q-53 0 -74.5 -34.5t-21.5 -116.5v-113h646v-1025h-276v833h-361v-833h-276zM1332 1467l-253 -262
q-20 -21 -39.5 -29.5t-50.5 -8.5h-166l140 244q15 28 36.5 42t65.5 14h267z" />
    <glyph glyph-name="_2309" unicode="f&#x1ec9;" horiz-adv-x="1224" 
d="M39 0zM189 0v833l-80 14q-31 6 -50.5 22t-19.5 46v110h150v112q0 81 21.5 145.5t62.5 109.5t101 69t137 24q29 0 51.5 -2.5t45.5 -10.5v-148q0 -20 -16.5 -27.5t-39.5 -7.5q-53 0 -74.5 -34.5t-21.5 -116.5v-113h646v-1025h-276v833h-361v-833h-276zM733 1454
q33 25 94 41t130 16q54 0 94.5 -11t67 -30t39.5 -45t13 -57q0 -54 -35.5 -95t-88.5 -65l-24 -88h-131v157q51 6 68.5 24t17.5 38t-13.5 32.5t-42.5 12.5q-18 0 -33 -4t-27.5 -8.5t-23.5 -8.5t-20 -4q-13 0 -20 6.5t-15 17.5z" />
    <glyph glyph-name="_2313" unicode="ff&#x1ecb;" horiz-adv-x="1880" 
d="M39 0zM189 0v833l-80 14q-31 6 -50.5 22t-19.5 46v110h150v50q0 88 27.5 159.5t79 121t125 76.5t166.5 27q37 0 69 -5t65 -14l-5 -136q-2 -30 -27 -40t-54 -10q-43 0 -76 -9t-56 -30.5t-35 -58t-12 -90.5v-41h388v25q0 94 31.5 175.5t97 142t166 95t238.5 34.5
q43 0 89 -4.5t79 -13.5l-9 -141q-2 -24 -25 -30t-53 -6q-100 0 -167 -16.5t-107 -49.5t-56.5 -82t-16.5 -113v-16h646v-1025h-276v833h-361v-833h-276v833h-379v-833h-276zM1775 -235q0 -30 -12 -56.5t-33 -46.5t-48.5 -31.5t-58.5 -11.5q-30 0 -57 11.5t-47 31.5t-32 46.5
t-12 56.5q0 31 12 58t32 47t47 31.5t57 11.5q31 0 58.5 -11.5t48.5 -31.5t33 -47t12 -58z" />
    <glyph glyph-name="_2314" unicode="ff&#x1e2d;" horiz-adv-x="1880" 
d="M39 0zM189 0v833l-80 14q-31 6 -50.5 22t-19.5 46v110h150v50q0 88 27.5 159.5t79 121t125 76.5t166.5 27q37 0 69 -5t65 -14l-5 -136q-2 -30 -27 -40t-54 -10q-43 0 -76 -9t-56 -30.5t-35 -58t-12 -90.5v-41h388v25q0 94 31.5 175.5t97 142t166 95t238.5 34.5
q43 0 89 -4.5t79 -13.5l-9 -141q-2 -24 -25 -30t-53 -6q-100 0 -167 -16.5t-107 -49.5t-56.5 -82t-16.5 -113v-16h646v-1025h-276v833h-361v-833h-276v833h-379v-833h-276zM1727 -142q27 0 43 14.5t16 56.5h168q0 -59 -16.5 -107t-45.5 -81.5t-69 -52t-86 -18.5
q-36 0 -67.5 12.5t-59 27t-50.5 27t-41 12.5q-27 0 -42.5 -15.5t-15.5 -57.5h-170q0 59 16.5 107t46 82t69 52.5t85.5 18.5q37 0 69 -12t59 -27t49.5 -27t41.5 -12z" />
    <glyph glyph-name="_2315" unicode="ff&#x268;" horiz-adv-x="1927" 
d="M1481 576v257h-361v-833h-276v833h-379v-833h-276v833l-80 14q-31 6 -50.5 22t-19.5 46v110h150v50q0 88 27.5 159.5t79 121t125 76.5t166.5 27q37 0 69 -5t65 -14l-5 -136q-2 -30 -27 -40t-54 -10q-43 0 -76 -9t-56 -30.5t-35 -58t-12 -90.5v-41h388v25q0 94 31.5 175.5
t97 142t166 95t238.5 34.5q43 0 89 -4.5t79 -13.5l-9 -141q-2 -24 -25 -30t-53 -6q-100 0 -167 -16.5t-107 -49.5t-56.5 -82t-16.5 -113v-16h646v-449h140v-191h-140v-385h-276v385h-126v191h126z" />
    <glyph glyph-name="_2316" unicode="ff&#xed;" horiz-adv-x="1879" 
d="M39 0zM189 0v833l-80 14q-31 6 -50.5 22t-19.5 46v110h150v50q0 88 27.5 159.5t79 121t125 76.5t166.5 27q37 0 69 -5t65 -14l-5 -136q-2 -30 -27 -40t-54 -10q-43 0 -76 -9t-56 -30.5t-35 -58t-12 -90.5v-41h388v112q0 81 21.5 145.5t62.5 109.5t101 69t137 24
q29 0 51.5 -2.5t45.5 -10.5v-148q0 -20 -16.5 -27.5t-39.5 -7.5q-53 0 -74.5 -34.5t-21.5 -116.5v-113h646v-1025h-276v833h-361v-833h-276v833h-379v-833h-276zM1992 1467l-253 -262q-20 -21 -39.5 -29.5t-50.5 -8.5h-166l140 244q15 28 36.5 42t65.5 14h267z" />
    <glyph glyph-name="_2317" unicode="ff&#x1ec9;" horiz-adv-x="1871" 
d="M39 0zM189 0v833l-80 14q-31 6 -50.5 22t-19.5 46v110h150v50q0 88 27.5 159.5t79 121t125 76.5t166.5 27q37 0 69 -5t65 -14l-5 -136q-2 -30 -27 -40t-54 -10q-43 0 -76 -9t-56 -30.5t-35 -58t-12 -90.5v-41h388v112q0 81 21.5 145.5t62.5 109.5t101 69t137 24
q29 0 51.5 -2.5t45.5 -10.5v-148q0 -20 -16.5 -27.5t-39.5 -7.5q-53 0 -74.5 -34.5t-21.5 -116.5v-113h646v-1025h-276v833h-361v-833h-276v833h-379v-833h-276zM1392 1454q33 25 94 41t130 16q54 0 94.5 -11t67 -30t39.5 -45t13 -57q0 -54 -35.5 -95t-88.5 -65l-24 -88
h-131v157q51 6 68.5 24t17.5 38t-13.5 32.5t-42.5 12.5q-18 0 -33 -4t-27.5 -8.5t-23.5 -8.5t-20 -4q-13 0 -20 6.5t-15 17.5z" />
    <glyph glyph-name="_2321" unicode="f&#x13a;" horiz-adv-x="1243" 
d="M39 0zM189 0v833l-80 14q-31 6 -50.5 22t-19.5 46v110h150v40q0 81 26 156t79.5 133t136 93t195.5 35q94 0 177.5 -6.5t168.5 -6.5h155v-1469h-274v1282q-52 2 -101.5 4.5t-81.5 2.5q-104 0 -159 -57.5t-55 -166.5v-40h234v-192h-225v-833h-276zM1429 1864l-323 -286
q-11 -9 -21 -14.5t-20.5 -8.5t-23 -4t-27.5 -1h-200l200 271q11 15 21.5 23.5t23 13t28.5 5.5t37 1h305z" />
    <glyph glyph-name="_2471" unicode="ti" horiz-adv-x="1310" 
d="M30 0zM1188 1025v-1025h-275v833h-457v-538q0 -43 20.5 -68t58.5 -25q20 0 34 4.5t24 10t18.5 10t17.5 4.5q12 0 20 -5.5t16 -18.5l83 -132q-57 -45 -129 -68t-149 -23q-70 0 -124 20.5t-91 58.5t-56 92t-19 122v556h-97q-22 0 -37.5 14t-15.5 42v108l165 30l56 267
q11 45 61 45h144v-314h732zM1231 1326q0 -34 -14 -64.5t-37.5 -53t-55 -36t-67.5 -13.5q-34 0 -64.5 13.5t-53.5 36t-36.5 53t-13.5 64.5q0 35 13.5 65.5t36.5 53.5t53.5 36.5t64.5 13.5q36 0 67.5 -13.5t55 -36.5t37.5 -53.5t14 -65.5z" />
    <glyph glyph-name="_2472" unicode="t&#xec;" horiz-adv-x="1310" 
d="M30 0zM1188 1025v-1025h-275v833h-457v-538q0 -43 20.5 -68t58.5 -25q20 0 34 4.5t24 10t18.5 10t17.5 4.5q12 0 20 -5.5t16 -18.5l83 -132q-57 -45 -129 -68t-149 -23q-70 0 -124 20.5t-91 58.5t-56 92t-19 122v556h-97q-22 0 -37.5 14t-15.5 42v108l165 30l56 267
q11 45 61 45h144v-314h732zM975 1467q43 0 64.5 -14t37.5 -42l139 -244h-156q-31 0 -50.5 8.5t-39.5 29.5l-253 262h258z" />
    <glyph glyph-name="_2473" unicode="t&#xed;" horiz-adv-x="1310" 
d="M30 0zM1188 1025v-1025h-275v833h-457v-538q0 -43 20.5 -68t58.5 -25q20 0 34 4.5t24 10t18.5 10t17.5 4.5q12 0 20 -5.5t16 -18.5l83 -132q-57 -45 -129 -68t-149 -23q-70 0 -124 20.5t-91 58.5t-56 92t-19 122v556h-97q-22 0 -37.5 14t-15.5 42v108l165 30l56 267
q11 45 61 45h144v-314h732zM1428 1467l-253 -262q-20 -21 -39.5 -29.5t-50.5 -8.5h-166l140 244q15 28 36.5 42t65.5 14h267z" />
    <glyph glyph-name="_2474" unicode="t&#xee;" horiz-adv-x="1310" 
d="M30 0zM1188 1025v-1025h-275v833h-457v-538q0 -43 20.5 -68t58.5 -25q20 0 34 4.5t24 10t18.5 10t17.5 4.5q12 0 20 -5.5t16 -18.5l83 -132q-57 -45 -129 -68t-149 -23q-70 0 -124 20.5t-91 58.5t-56 92t-19 122v556h-97q-22 0 -37.5 14t-15.5 42v108l165 30l56 267
q11 45 61 45h144v-314h732zM1420 1168h-184q-16 0 -31 5.5t-31 20.5l-88 95q-6 5 -11.5 11.5t-10.5 13.5q-6 -8 -12 -14l-11 -11l-90 -95q-28 -26 -62 -26h-191l232 283h258z" />
    <glyph glyph-name="_2475" unicode="t&#xef;" horiz-adv-x="1310" 
d="M30 0zM1188 1025v-1025h-275v833h-457v-538q0 -43 20.5 -68t58.5 -25q20 0 34 4.5t24 10t18.5 10t17.5 4.5q12 0 20 -5.5t16 -18.5l83 -132q-57 -45 -129 -68t-149 -23q-70 0 -124 20.5t-91 58.5t-56 92t-19 122v556h-97q-22 0 -37.5 14t-15.5 42v108l165 30l56 267
q11 45 61 45h144v-314h732zM1031 1294q0 -30 -12 -56t-32.5 -45.5t-48 -30.5t-58.5 -11q-29 0 -55 11t-46 30.5t-32 45.5t-12 56t12 57t32 47.5t46 32t55 11.5q31 0 58.5 -11.5t48 -32t32.5 -47.5t12 -57zM1383 1294q0 -30 -11.5 -56t-32 -45.5t-47.5 -30.5t-58 -11
q-30 0 -57 11t-47 30.5t-31.5 45.5t-11.5 56t11.5 57t31.5 47.5t47 32t57 11.5q31 0 58 -11.5t47.5 -32t32 -47.5t11.5 -57z" />
    <glyph glyph-name="_2476" unicode="t&#x12b;" horiz-adv-x="1310" 
d="M30 0zM1188 1025v-1025h-275v833h-457v-538q0 -43 20.5 -68t58.5 -25q20 0 34 4.5t24 10t18.5 10t17.5 4.5q12 0 20 -5.5t16 -18.5l83 -132q-57 -45 -129 -68t-149 -23q-70 0 -124 20.5t-91 58.5t-56 92t-19 122v556h-97q-22 0 -37.5 14t-15.5 42v108l165 30l56 267
q11 45 61 45h144v-314h732zM755 1381h608v-172h-608v172z" />
    <glyph glyph-name="_2477" unicode="t&#x129;" horiz-adv-x="1310" 
d="M30 0zM1188 1025v-1025h-275v833h-457v-538q0 -43 20.5 -68t58.5 -25q20 0 34 4.5t24 10t18.5 10t17.5 4.5q12 0 20 -5.5t16 -18.5l83 -132q-57 -45 -129 -68t-149 -23q-70 0 -124 20.5t-91 58.5t-56 92t-19 122v556h-97q-22 0 -37.5 14t-15.5 42v108l165 30l56 267
q11 45 61 45h144v-314h732zM1165 1372q27 0 43 14.5t16 56.5h168q0 -59 -16.5 -107t-45.5 -81.5t-69 -52t-86 -18.5q-36 0 -67.5 12.5t-59 27t-50.5 27t-41 12.5q-27 0 -42.5 -15.5t-15.5 -57.5h-170q0 59 16.5 107t46 82t69 52.5t85.5 18.5q37 0 69 -12t59 -27t49.5 -27
t41.5 -12z" />
    <glyph glyph-name="_2478" unicode="t&#x12d;" horiz-adv-x="1310" 
d="M30 0zM1188 1025v-1025h-275v833h-457v-538q0 -43 20.5 -68t58.5 -25q20 0 34 4.5t24 10t18.5 10t17.5 4.5q12 0 20 -5.5t16 -18.5l83 -132q-57 -45 -129 -68t-149 -23q-70 0 -124 20.5t-91 58.5t-56 92t-19 122v556h-97q-22 0 -37.5 14t-15.5 42v108l165 30l56 267
q11 45 61 45h144v-314h732zM1059 1160q-89 0 -149.5 23t-97 63t-52 93t-15.5 112h193q0 -29 5 -51.5t18.5 -38t37 -23.5t60.5 -8t60.5 8t37 23.5t18.5 38t5 51.5h193q0 -59 -15.5 -112t-52 -93t-97 -63t-149.5 -23z" />
    <glyph glyph-name="_2479" unicode="t&#x1d0;" horiz-adv-x="1310" 
d="M30 0zM1188 1025v-1025h-275v833h-457v-538q0 -43 20.5 -68t58.5 -25q20 0 34 4.5t24 10t18.5 10t17.5 4.5q12 0 20 -5.5t16 -18.5l83 -132q-57 -45 -129 -68t-149 -23q-70 0 -124 20.5t-91 58.5t-56 92t-19 122v556h-97q-22 0 -37.5 14t-15.5 42v108l165 30l56 267
q11 45 61 45h144v-314h732zM698 1451h191q17 0 31.5 -5.5t22.5 -12.5l96 -102q5 -6 11.5 -12.5t12.5 -14.5q5 8 11 14.5t12 12.5l96 102q8 6 23 12t31 6h184l-232 -283h-258z" />
    <glyph glyph-name="_2480" unicode="t&#x1e2d;" horiz-adv-x="1310" 
d="M30 0zM1188 1025v-1025h-275v833h-457v-538q0 -43 20.5 -68t58.5 -25q20 0 34 4.5t24 10t18.5 10t17.5 4.5q12 0 20 -5.5t16 -18.5l83 -132q-57 -45 -129 -68t-149 -23q-70 0 -124 20.5t-91 58.5t-56 92t-19 122v556h-97q-22 0 -37.5 14t-15.5 42v108l165 30l56 267
q11 45 61 45h144v-314h732zM1231 1326q0 -34 -14 -64.5t-37.5 -53t-55 -36t-67.5 -13.5q-34 0 -64.5 13.5t-53.5 36t-36.5 53t-13.5 64.5q0 35 13.5 65.5t36.5 53.5t53.5 36.5t64.5 13.5q36 0 67.5 -13.5t55 -36.5t37.5 -53.5t14 -65.5zM1163 -142q27 0 43 14.5t16 56.5h168
q0 -59 -16.5 -107t-45.5 -81.5t-69 -52t-86 -18.5q-36 0 -67.5 12.5t-59 27t-50.5 27t-41 12.5q-27 0 -42.5 -15.5t-15.5 -57.5h-170q0 59 16.5 107t46 82t69 52.5t85.5 18.5q37 0 69 -12t59 -27t49.5 -27t41.5 -12z" />
    <glyph glyph-name="_2482" unicode="t&#x1e2f;" horiz-adv-x="1310" 
d="M30 0zM1188 1025v-1025h-275v833h-457v-538q0 -43 20.5 -68t58.5 -25q20 0 34 4.5t24 10t18.5 10t17.5 4.5q12 0 20 -5.5t16 -18.5l83 -132q-57 -45 -129 -68t-149 -23q-70 0 -124 20.5t-91 58.5t-56 92t-19 122v556h-97q-22 0 -37.5 14t-15.5 42v108l165 30l56 267
q11 45 61 45h144v-314h732zM1468 1792l-253 -262q-20 -21 -39.5 -29.5t-50.5 -8.5h-166l140 244q15 28 36.5 42t65.5 14h267zM1000 1294q0 -30 -12 -56t-32.5 -45.5t-48 -30.5t-58.5 -11q-29 0 -55.5 11t-46.5 30.5t-32 45.5t-12 56t12 57t32 47.5t46.5 32t55.5 11.5
q31 0 58.5 -11.5t48 -32t32.5 -47.5t12 -57zM1415 1294q0 -30 -12 -56t-32 -45.5t-47.5 -30.5t-58.5 -11q-30 0 -57 11t-47 30.5t-31.5 45.5t-11.5 56t11.5 57t31.5 47.5t47 32t57 11.5q31 0 58.5 -11.5t47.5 -32t32 -47.5t12 -57z" />
    <glyph glyph-name="_2483" unicode="t&#x268;" horiz-adv-x="1368" 
d="M913 576v257h-457v-538q0 -43 20.5 -68t58.5 -25q20 0 34 4.5t24 10t18.5 10t17.5 4.5q12 0 20 -5.5t16 -18.5l83 -132q-57 -45 -129 -68t-149 -23q-70 0 -124 20.5t-91 58.5t-56 92t-19 122v556h-97q-22 0 -37.5 14t-15.5 42v108l165 30l56 267q11 45 61 45h144v-314
h732v-449h146v-191h-146v-385h-275v385h-121v191h121zM1231 1326q0 -34 -14 -64.5t-37.5 -53t-55 -36t-67.5 -13.5q-34 0 -64.5 13.5t-53.5 36t-36.5 53t-13.5 64.5q0 35 13.5 65.5t36.5 53.5t53.5 36.5t64.5 13.5q36 0 67.5 -13.5t55 -36.5t37.5 -53.5t14 -65.5z" />
    <glyph glyph-name="_2485" unicode="t&#x20b;" horiz-adv-x="1310" 
d="M30 0zM1188 1025v-1025h-275v833h-457v-538q0 -43 20.5 -68t58.5 -25q20 0 34 4.5t24 10t18.5 10t17.5 4.5q12 0 20 -5.5t16 -18.5l83 -132q-57 -45 -129 -68t-149 -23q-70 0 -124 20.5t-91 58.5t-56 92t-19 122v556h-97q-22 0 -37.5 14t-15.5 42v108l165 30l56 267
q11 45 61 45h144v-314h732zM1059 1466q89 0 149.5 -23.5t97 -63t52 -92.5t15.5 -112h-193q0 29 -5 51.5t-18.5 38t-37 23.5t-60.5 8t-60.5 -8t-37 -23.5t-18.5 -38t-5 -51.5h-193q0 59 15.5 112t52 92.5t97 63t149.5 23.5z" />
    <glyph glyph-name="_2486" unicode="t&#x209;" horiz-adv-x="1310" 
d="M30 0zM1188 1025v-1025h-275v833h-457v-538q0 -43 20.5 -68t58.5 -25q20 0 34 4.5t24 10t18.5 10t17.5 4.5q12 0 20 -5.5t16 -18.5l83 -132q-57 -45 -129 -68t-149 -23q-70 0 -124 20.5t-91 58.5t-56 92t-19 122v556h-97q-22 0 -37.5 14t-15.5 42v108l165 30l56 267
q11 45 61 45h144v-314h732zM1100 1467q43 0 65 -14t36 -42l122 -244h-112q-32 0 -52.5 7.5t-37.5 30.5l-200 262h179zM755 1467q21 0 36.5 -4t26.5 -11t20.5 -17.5t18.5 -23.5l177 -244h-130q-32 0 -51 8.5t-39 29.5l-256 262h197z" />
    <glyph glyph-name="_2487" unicode="tti" horiz-adv-x="1959" 
d="M30 0zM470 -16q-70 0 -124 20.5t-91 58.5t-56 92t-19 122v556h-97q-22 0 -37.5 14t-15.5 42v108l165 30l56 267q11 45 61 45h144v-314h406l58 269q11 45 61 45h143v-314h712v-1025h-275v833h-437v-538q0 -43 21 -68t58 -25q20 0 34 4.5t24 10t18.5 10t17.5 4.5
q12 0 20 -5.5t16 -18.5l83 -132q-57 -45 -129 -68t-149 -23q-70 0 -124 20.5t-91 58.5t-56 92t-19 122v556h-392v-538q0 -43 20.5 -68t58.5 -25q20 0 34 4.5t24 10t18.5 10t17.5 4.5q12 0 20 -5.5t16 -18.5l83 -132q-57 -45 -129 -68t-149 -23zM1874 1326q0 -34 -14 -64.5
t-37.5 -53t-55 -36t-67.5 -13.5q-34 0 -64.5 13.5t-53.5 36t-36.5 53t-13.5 64.5q0 35 13.5 65.5t36.5 53.5t53.5 36.5t64.5 13.5q36 0 67.5 -13.5t55 -36.5t37.5 -53.5t14 -65.5z" />
    <glyph glyph-name="_2488" unicode="tt&#xec;" horiz-adv-x="1959" 
d="M30 0zM470 -16q-70 0 -124 20.5t-91 58.5t-56 92t-19 122v556h-97q-22 0 -37.5 14t-15.5 42v108l165 30l56 267q11 45 61 45h144v-314h406l58 269q11 45 61 45h143v-314h712v-1025h-275v833h-437v-538q0 -43 21 -68t58 -25q20 0 34 4.5t24 10t18.5 10t17.5 4.5
q12 0 20 -5.5t16 -18.5l83 -132q-57 -45 -129 -68t-149 -23q-70 0 -124 20.5t-91 58.5t-56 92t-19 122v556h-392v-538q0 -43 20.5 -68t58.5 -25q20 0 34 4.5t24 10t18.5 10t17.5 4.5q12 0 20 -5.5t16 -18.5l83 -132q-57 -45 -129 -68t-149 -23zM1618 1467q43 0 64.5 -14
t37.5 -42l139 -244h-156q-31 0 -50.5 8.5t-39.5 29.5l-253 262h258z" />
    <glyph glyph-name="_2489" unicode="tt&#xed;" horiz-adv-x="1958" 
d="M30 0zM470 -16q-70 0 -124 20.5t-91 58.5t-56 92t-19 122v556h-97q-22 0 -37.5 14t-15.5 42v108l165 30l56 267q11 45 61 45h144v-314h406l58 269q11 45 61 45h143v-314h712v-1025h-275v833h-437v-538q0 -43 21 -68t58 -25q20 0 34 4.5t24 10t18.5 10t17.5 4.5
q12 0 20 -5.5t16 -18.5l83 -132q-57 -45 -129 -68t-149 -23q-70 0 -124 20.5t-91 58.5t-56 92t-19 122v556h-392v-538q0 -43 20.5 -68t58.5 -25q20 0 34 4.5t24 10t18.5 10t17.5 4.5q12 0 20 -5.5t16 -18.5l83 -132q-57 -45 -129 -68t-149 -23zM2071 1467l-253 -262
q-20 -21 -39.5 -29.5t-50.5 -8.5h-166l140 244q15 28 36.5 42t65.5 14h267z" />
    <glyph glyph-name="_2490" unicode="tt&#xee;" horiz-adv-x="1959" 
d="M30 0zM470 -16q-70 0 -124 20.5t-91 58.5t-56 92t-19 122v556h-97q-22 0 -37.5 14t-15.5 42v108l165 30l56 267q11 45 61 45h144v-314h406l58 269q11 45 61 45h143v-314h712v-1025h-275v833h-437v-538q0 -43 21 -68t58 -25q20 0 34 4.5t24 10t18.5 10t17.5 4.5
q12 0 20 -5.5t16 -18.5l83 -132q-57 -45 -129 -68t-149 -23q-70 0 -124 20.5t-91 58.5t-56 92t-19 122v556h-392v-538q0 -43 20.5 -68t58.5 -25q20 0 34 4.5t24 10t18.5 10t17.5 4.5q12 0 20 -5.5t16 -18.5l83 -132q-57 -45 -129 -68t-149 -23zM2063 1168h-184
q-16 0 -31 5.5t-31 20.5l-88 95q-6 5 -11.5 11.5t-10.5 13.5q-6 -8 -12 -14l-11 -11l-90 -95q-28 -26 -62 -26h-191l232 283h258z" />
    <glyph glyph-name="_2491" unicode="tt&#xef;" horiz-adv-x="1959" 
d="M30 0zM470 -16q-70 0 -124 20.5t-91 58.5t-56 92t-19 122v556h-97q-22 0 -37.5 14t-15.5 42v108l165 30l56 267q11 45 61 45h144v-314h406l58 269q11 45 61 45h143v-314h712v-1025h-275v833h-437v-538q0 -43 21 -68t58 -25q20 0 34 4.5t24 10t18.5 10t17.5 4.5
q12 0 20 -5.5t16 -18.5l83 -132q-57 -45 -129 -68t-149 -23q-70 0 -124 20.5t-91 58.5t-56 92t-19 122v556h-392v-538q0 -43 20.5 -68t58.5 -25q20 0 34 4.5t24 10t18.5 10t17.5 4.5q12 0 20 -5.5t16 -18.5l83 -132q-57 -45 -129 -68t-149 -23zM1674 1294q0 -30 -12 -56
t-32.5 -45.5t-48 -30.5t-58.5 -11q-29 0 -55 11t-46 30.5t-32 45.5t-12 56t12 57t32 47.5t46 32t55 11.5q31 0 58.5 -11.5t48 -32t32.5 -47.5t12 -57zM2026 1294q0 -30 -11.5 -56t-32 -45.5t-47.5 -30.5t-58 -11q-30 0 -57 11t-47 30.5t-31.5 45.5t-11.5 56t11.5 57
t31.5 47.5t47 32t57 11.5q31 0 58 -11.5t47.5 -32t32 -47.5t11.5 -57z" />
    <glyph glyph-name="_2492" unicode="tt&#x12b;" horiz-adv-x="1959" 
d="M30 0zM470 -16q-70 0 -124 20.5t-91 58.5t-56 92t-19 122v556h-97q-22 0 -37.5 14t-15.5 42v108l165 30l56 267q11 45 61 45h144v-314h406l58 269q11 45 61 45h143v-314h712v-1025h-275v833h-437v-538q0 -43 21 -68t58 -25q20 0 34 4.5t24 10t18.5 10t17.5 4.5
q12 0 20 -5.5t16 -18.5l83 -132q-57 -45 -129 -68t-149 -23q-70 0 -124 20.5t-91 58.5t-56 92t-19 122v556h-392v-538q0 -43 20.5 -68t58.5 -25q20 0 34 4.5t24 10t18.5 10t17.5 4.5q12 0 20 -5.5t16 -18.5l83 -132q-57 -45 -129 -68t-149 -23zM1398 1381h608v-172h-608v172
z" />
    <glyph glyph-name="_2493" unicode="tt&#x129;" horiz-adv-x="1958" 
d="M30 0zM470 -16q-70 0 -124 20.5t-91 58.5t-56 92t-19 122v556h-97q-22 0 -37.5 14t-15.5 42v108l165 30l56 267q11 45 61 45h144v-314h406l58 269q11 45 61 45h143v-314h712v-1025h-275v833h-437v-538q0 -43 21 -68t58 -25q20 0 34 4.5t24 10t18.5 10t17.5 4.5
q12 0 20 -5.5t16 -18.5l83 -132q-57 -45 -129 -68t-149 -23q-70 0 -124 20.5t-91 58.5t-56 92t-19 122v556h-392v-538q0 -43 20.5 -68t58.5 -25q20 0 34 4.5t24 10t18.5 10t17.5 4.5q12 0 20 -5.5t16 -18.5l83 -132q-57 -45 -129 -68t-149 -23zM1808 1372q27 0 43 14.5
t16 56.5h168q0 -59 -16.5 -107t-45.5 -81.5t-69 -52t-86 -18.5q-36 0 -67.5 12.5t-59 27t-50.5 27t-41 12.5q-27 0 -42.5 -15.5t-15.5 -57.5h-170q0 59 16.5 107t46 82t69 52.5t85.5 18.5q37 0 69 -12t59 -27t49.5 -27t41.5 -12z" />
    <glyph glyph-name="_2494" unicode="tt&#x12d;" horiz-adv-x="1959" 
d="M30 0zM470 -16q-70 0 -124 20.5t-91 58.5t-56 92t-19 122v556h-97q-22 0 -37.5 14t-15.5 42v108l165 30l56 267q11 45 61 45h144v-314h406l58 269q11 45 61 45h143v-314h712v-1025h-275v833h-437v-538q0 -43 21 -68t58 -25q20 0 34 4.5t24 10t18.5 10t17.5 4.5
q12 0 20 -5.5t16 -18.5l83 -132q-57 -45 -129 -68t-149 -23q-70 0 -124 20.5t-91 58.5t-56 92t-19 122v556h-392v-538q0 -43 20.5 -68t58.5 -25q20 0 34 4.5t24 10t18.5 10t17.5 4.5q12 0 20 -5.5t16 -18.5l83 -132q-57 -45 -129 -68t-149 -23zM1702 1160q-89 0 -149.5 23
t-97 63t-52 93t-15.5 112h193q0 -29 5 -51.5t18.5 -38t37 -23.5t60.5 -8t60.5 8t37 23.5t18.5 38t5 51.5h193q0 -59 -15.5 -112t-52 -93t-97 -63t-149.5 -23z" />
    <glyph glyph-name="_2495" unicode="tt&#x1d0;" horiz-adv-x="1959" 
d="M30 0zM470 -16q-70 0 -124 20.5t-91 58.5t-56 92t-19 122v556h-97q-22 0 -37.5 14t-15.5 42v108l165 30l56 267q11 45 61 45h144v-314h406l58 269q11 45 61 45h143v-314h712v-1025h-275v833h-437v-538q0 -43 21 -68t58 -25q20 0 34 4.5t24 10t18.5 10t17.5 4.5
q12 0 20 -5.5t16 -18.5l83 -132q-57 -45 -129 -68t-149 -23q-70 0 -124 20.5t-91 58.5t-56 92t-19 122v556h-392v-538q0 -43 20.5 -68t58.5 -25q20 0 34 4.5t24 10t18.5 10t17.5 4.5q12 0 20 -5.5t16 -18.5l83 -132q-57 -45 -129 -68t-149 -23zM1341 1451h191
q17 0 31.5 -5.5t22.5 -12.5l96 -102q5 -6 11.5 -12.5t12.5 -14.5q5 8 11 14.5t12 12.5l96 102q8 6 23 12t31 6h184l-232 -283h-258z" />
    <glyph glyph-name="_2496" unicode="tt&#x1e2d;" horiz-adv-x="1958" 
d="M30 0zM470 -16q-70 0 -124 20.5t-91 58.5t-56 92t-19 122v556h-97q-22 0 -37.5 14t-15.5 42v108l165 30l56 267q11 45 61 45h144v-314h406l58 269q11 45 61 45h143v-314h712v-1025h-275v833h-437v-538q0 -43 21 -68t58 -25q20 0 34 4.5t24 10t18.5 10t17.5 4.5
q12 0 20 -5.5t16 -18.5l83 -132q-57 -45 -129 -68t-149 -23q-70 0 -124 20.5t-91 58.5t-56 92t-19 122v556h-392v-538q0 -43 20.5 -68t58.5 -25q20 0 34 4.5t24 10t18.5 10t17.5 4.5q12 0 20 -5.5t16 -18.5l83 -132q-57 -45 -129 -68t-149 -23zM1808 -142q27 0 43 14.5
t16 56.5h168q0 -59 -16.5 -107t-45.5 -81.5t-69 -52t-86 -18.5q-36 0 -67.5 12.5t-59 27t-50.5 27t-41 12.5q-27 0 -42.5 -15.5t-15.5 -57.5h-170q0 59 16.5 107t46 82t69 52.5t85.5 18.5q37 0 69 -12t59 -27t49.5 -27t41.5 -12zM1874 1326q0 -34 -14 -64.5t-37.5 -53
t-55 -36t-67.5 -13.5q-34 0 -64.5 13.5t-53.5 36t-36.5 53t-13.5 64.5q0 35 13.5 65.5t36.5 53.5t53.5 36.5t64.5 13.5q36 0 67.5 -13.5t55 -36.5t37.5 -53.5t14 -65.5z" />
    <glyph glyph-name="_2498" unicode="tt&#x1e2f;" horiz-adv-x="1958" 
d="M30 0zM470 -16q-70 0 -124 20.5t-91 58.5t-56 92t-19 122v556h-97q-22 0 -37.5 14t-15.5 42v108l165 30l56 267q11 45 61 45h144v-314h406l58 269q11 45 61 45h143v-314h712v-1025h-275v833h-437v-538q0 -43 21 -68t58 -25q20 0 34 4.5t24 10t18.5 10t17.5 4.5
q12 0 20 -5.5t16 -18.5l83 -132q-57 -45 -129 -68t-149 -23q-70 0 -124 20.5t-91 58.5t-56 92t-19 122v556h-392v-538q0 -43 20.5 -68t58.5 -25q20 0 34 4.5t24 10t18.5 10t17.5 4.5q12 0 20 -5.5t16 -18.5l83 -132q-57 -45 -129 -68t-149 -23zM2111 1792l-253 -262
q-20 -21 -39.5 -29.5t-50.5 -8.5h-166l140 244q15 28 36.5 42t65.5 14h267zM1643 1294q0 -30 -12 -56t-32.5 -45.5t-48 -30.5t-58.5 -11q-29 0 -55.5 11t-46.5 30.5t-32 45.5t-12 56t12 57t32 47.5t46.5 32t55.5 11.5q31 0 58.5 -11.5t48 -32t32.5 -47.5t12 -57zM2058 1294
q0 -30 -12 -56t-32 -45.5t-47.5 -30.5t-58.5 -11q-30 0 -57 11t-47 30.5t-31.5 45.5t-11.5 56t11.5 57t31.5 47.5t47 32t57 11.5q31 0 58.5 -11.5t47.5 -32t32 -47.5t12 -57z" />
    <glyph glyph-name="_2499" unicode="tt&#x268;" horiz-adv-x="2012" 
d="M1561 576v257h-437v-538q0 -43 21 -68t58 -25q20 0 34 4.5t24 10t18.5 10t17.5 4.5q12 0 20 -5.5t16 -18.5l83 -132q-57 -45 -129 -68t-149 -23q-70 0 -124 20.5t-91 58.5t-56 92t-19 122v556h-392v-538q0 -43 20.5 -68t58.5 -25q20 0 34 4.5t24 10t18.5 10t17.5 4.5
q12 0 20 -5.5t16 -18.5l83 -132q-57 -45 -129 -68t-149 -23q-70 0 -124 20.5t-91 58.5t-56 92t-19 122v556h-97q-22 0 -37.5 14t-15.5 42v108l165 30l56 267q11 45 61 45h144v-314h406l58 269q11 45 61 45h143v-314h712v-449h144v-191h-144v-385h-275v385h-123v191h123z
M1874 1326q0 -34 -14 -64.5t-37.5 -53t-55 -36t-67.5 -13.5q-34 0 -64.5 13.5t-53.5 36t-36.5 53t-13.5 64.5q0 35 13.5 65.5t36.5 53.5t53.5 36.5t64.5 13.5q36 0 67.5 -13.5t55 -36.5t37.5 -53.5t14 -65.5z" />
    <glyph glyph-name="_2501" unicode="tt&#x20b;" horiz-adv-x="1959" 
d="M30 0zM470 -16q-70 0 -124 20.5t-91 58.5t-56 92t-19 122v556h-97q-22 0 -37.5 14t-15.5 42v108l165 30l56 267q11 45 61 45h144v-314h406l58 269q11 45 61 45h143v-314h712v-1025h-275v833h-437v-538q0 -43 21 -68t58 -25q20 0 34 4.5t24 10t18.5 10t17.5 4.5
q12 0 20 -5.5t16 -18.5l83 -132q-57 -45 -129 -68t-149 -23q-70 0 -124 20.5t-91 58.5t-56 92t-19 122v556h-392v-538q0 -43 20.5 -68t58.5 -25q20 0 34 4.5t24 10t18.5 10t17.5 4.5q12 0 20 -5.5t16 -18.5l83 -132q-57 -45 -129 -68t-149 -23zM1702 1466q89 0 149.5 -23.5
t97 -63t52 -92.5t15.5 -112h-193q0 29 -5 51.5t-18.5 38t-37 23.5t-60.5 8t-60.5 -8t-37 -23.5t-18.5 -38t-5 -51.5h-193q0 59 15.5 112t52 92.5t97 63t149.5 23.5z" />
    <glyph glyph-name="_2502" unicode="tt&#x209;" horiz-adv-x="1959" 
d="M30 0zM470 -16q-70 0 -124 20.5t-91 58.5t-56 92t-19 122v556h-97q-22 0 -37.5 14t-15.5 42v108l165 30l56 267q11 45 61 45h144v-314h406l58 269q11 45 61 45h143v-314h712v-1025h-275v833h-437v-538q0 -43 21 -68t58 -25q20 0 34 4.5t24 10t18.5 10t17.5 4.5
q12 0 20 -5.5t16 -18.5l83 -132q-57 -45 -129 -68t-149 -23q-70 0 -124 20.5t-91 58.5t-56 92t-19 122v556h-392v-538q0 -43 20.5 -68t58.5 -25q20 0 34 4.5t24 10t18.5 10t17.5 4.5q12 0 20 -5.5t16 -18.5l83 -132q-57 -45 -129 -68t-149 -23zM1743 1467q43 0 65 -14
t36 -42l122 -244h-112q-32 0 -52.5 7.5t-37.5 30.5l-200 262h179zM1398 1467q21 0 36.5 -4t26.5 -11t20.5 -17.5t18.5 -23.5l177 -244h-130q-32 0 -51 8.5t-39 29.5l-256 262h197z" />
    <glyph glyph-name=".notdef" horiz-adv-x="1107" 
d="M235 1149q59 47 134 78.5t177 31.5q73 0 131 -19.5t97.5 -54.5t60.5 -85t21 -110q0 -55 -13.5 -94.5t-34 -69t-45 -50.5t-46.5 -39t-39.5 -35.5t-22.5 -39.5l-25 -94h-188l-19 114q-7 38 3.5 65t30 48.5t45 39.5t47.5 38t37 44t15 57q0 29 -19 48t-61 19q-35 0 -57.5 -6
t-39 -13.5t-30.5 -13.5t-30 -6q-37 0 -56 32zM380 321q0 30 11 56.5t31 46t46.5 31t58.5 11.5q31 0 57.5 -11.5t46 -31t31 -46t11.5 -56.5t-11.5 -56.5t-31 -46t-46 -30.5t-57.5 -11q-32 0 -58.5 11t-46.5 30.5t-31 46t-11 56.5zM41 1451h1025v-1451h-1025v1451zM111 74h876
v1303h-876v-1303z" />
    <glyph glyph-name="uni0000" horiz-adv-x="0" 
 />
    <glyph glyph-name="uni0000" horiz-adv-x="0" 
 />
    <glyph glyph-name="space" unicode=" " horiz-adv-x="475" 
 />
    <glyph glyph-name="space" unicode="&#xa0;" horiz-adv-x="475" 
 />
    <glyph glyph-name="A" unicode="A" horiz-adv-x="1404" 
d="M1422 0h-233q-39 0 -63.5 18.5t-36.5 47.5l-98 277h-578l-98 -277q-10 -25 -35 -45.5t-63 -20.5h-235l567 1451h307zM486 551h432l-157 444q-14 35 -29.5 82t-30.5 101q-14 -55 -29 -102.5t-29 -82.5z" />
    <glyph glyph-name="AE" unicode="&#xc6;" horiz-adv-x="1868" 
d="M701 1451h1094v-235h-672l46 -373h488v-227h-460l46 -381h552v-235h-808l-42 343h-503l-128 -277q-14 -29 -43 -47.5t-69 -18.5h-228zM538 551h382l-82 678q-17 -55 -36 -102.5t-38 -87.5z" />
    <glyph glyph-name="B" unicode="B" horiz-adv-x="1327" 
d="M152 0v1451h515q146 0 249.5 -27.5t169 -78t95.5 -122.5t30 -161q0 -50 -14.5 -96t-45 -86.5t-78.5 -73.5t-114 -56q290 -68 290 -319q0 -92 -35.5 -171t-103.5 -137t-167.5 -90.5t-228.5 -32.5h-562zM452 627v-397h257q72 0 118.5 17.5t74.5 46.5t39 66.5t11 77.5
q0 44 -13 79t-42 59.5t-75.5 37.5t-114.5 13h-255zM452 831h197q63 0 112 10.5t82 33.5t50.5 60.5t17.5 90.5q0 54 -14.5 92t-44.5 61t-76 33.5t-109 10.5h-215v-392z" />
    <glyph glyph-name="C" unicode="C" horiz-adv-x="1318" 
d="M1140 357q25 0 42 -18l119 -127q-88 -112 -218.5 -170t-310.5 -58q-163 0 -293 55.5t-221 154.5t-140 235t-49 297q0 108 23.5 205.5t68.5 179.5t108.5 148t143.5 112.5t174.5 71t201.5 24.5q80 0 151.5 -14t133.5 -39t114.5 -60.5t94.5 -77.5l-101 -138q-9 -13 -23 -23
t-38 -10t-48.5 17t-60 38t-89 38t-135.5 17q-91 0 -167 -33t-130.5 -95.5t-84.5 -153.5t-30 -207q0 -117 32.5 -208.5t89 -154.5t132 -95.5t161.5 -32.5q51 0 92.5 5t77 17t67 31t63.5 48q11 9 23 15t26 6z" />
    <glyph glyph-name="Ccedilla" unicode="&#xc7;" horiz-adv-x="1318" 
d="M656 -228q14 0 30 -5.5t42 -5.5q30 0 44 11t14 26q0 25 -33.5 36.5t-107.5 22.5l44 131q-144 14 -259 74.5t-195.5 158t-123 226.5t-42.5 279q0 108 23.5 205.5t68.5 179.5t108.5 148t143.5 112.5t174.5 71t201.5 24.5q80 0 151.5 -14t133.5 -39t114.5 -60.5t94.5 -77.5
l-101 -138q-9 -13 -23 -23t-38 -10t-48.5 17t-60 38t-89 38t-135.5 17q-91 0 -167 -33t-130.5 -95.5t-84.5 -153.5t-30 -207q0 -117 32.5 -208.5t89 -154.5t132 -95.5t161.5 -32.5q51 0 92.5 5t77 17t67 31t63.5 48q11 9 23 15t26 6q25 0 42 -18l119 -127
q-78 -100 -190.5 -157t-264.5 -68l-11 -43q47 -11 79 -26.5t51.5 -34.5t28 -42t8.5 -48q0 -35 -18.5 -62.5t-52 -46.5t-80.5 -29.5t-104 -10.5q-41 0 -76.5 4.5t-70.5 14.5l25 85q6 24 31 24z" />
    <glyph glyph-name="D" unicode="D" horiz-adv-x="1522" 
d="M1453 726q0 -159 -53.5 -292.5t-151 -229.5t-234.5 -150t-304 -54h-558v1451h558q167 0 304 -54t234.5 -150.5t151 -229.5t53.5 -291zM1145 726q0 114 -30 205t-86 154t-136.5 97t-182.5 34h-256v-981h256q102 0 182.5 33.5t136.5 97t86 154.5t30 206z" />
    <glyph glyph-name="E" unicode="E" horiz-adv-x="1148" 
d="M1076 1451v-235h-622v-373h484v-227h-484v-381h622v-235h-924v1451h924z" />
    <glyph glyph-name="F" unicode="F" horiz-adv-x="1132" 
d="M1076 1451v-235h-622v-401h522v-236h-522v-579h-302v1451h924z" />
    <glyph glyph-name="G" unicode="G" horiz-adv-x="1449" 
d="M1356 140q-111 -81 -236.5 -118.5t-265.5 -37.5q-179 0 -324 55.5t-248 154.5t-159 235t-56 297q0 163 53.5 299t152.5 234t239.5 153t314.5 55q90 0 168 -14.5t144 -40t121 -60.5t100 -77l-87 -134q-20 -32 -52 -39t-70 16q-36 22 -70.5 39.5t-73.5 30.5t-85 20t-106 7
q-101 0 -183 -35t-139.5 -99t-88.5 -154t-31 -201q0 -120 34 -214.5t96 -159.5t148.5 -99t192.5 -34q72 0 128.5 14.5t110.5 39.5v244h-164q-29 0 -45.5 15.5t-16.5 39.5v167h498v-599v0z" />
    <glyph glyph-name="H" unicode="H" horiz-adv-x="1547" 
d="M1395 0h-302v625h-639v-625h-302v1451h302v-616h639v616h302v-1451z" />
    <glyph glyph-name="I" unicode="I" horiz-adv-x="606" 
d="M454 0h-302v1451h302v-1451z" />
    <glyph glyph-name="J" unicode="J" horiz-adv-x="864" 
d="M726 520q0 -122 -30 -220.5t-90.5 -169t-151.5 -108.5t-212 -38q-55 0 -108.5 6.5t-112.5 20.5l16 176q3 24 19 38.5t46 14.5q17 0 43.5 -6t65.5 -6q54 0 94 15t67 49t40.5 88.5t13.5 132.5v938h300v-931z" />
    <glyph glyph-name="K" unicode="K" horiz-adv-x="1390" 
d="M452 852h59q74 0 107 46l367 491q26 35 57 48.5t76 13.5h260l-462 -595q-45 -58 -93 -83q35 -14 63 -36.5t54 -59.5l474 -677h-267q-26 0 -44.5 4t-32.5 11t-24 17.5t-19 24.5l-373 522q-19 27 -45 38.5t-73 11.5h-84v-629h-300v1451h300v-599z" />
    <glyph glyph-name="L" unicode="L" horiz-adv-x="1044" 
d="M452 244h561v-244h-861v1451h300v-1207z" />
    <glyph glyph-name="M" unicode="M" horiz-adv-x="1903" 
d="M886 630q18 -35 34.5 -72t31.5 -76q15 40 32 78t36 73l403 771q9 17 19 26.5t21.5 14t26 5.5t34.5 1h228v-1451h-265v891q0 27 1.5 59t4.5 66l-414 -787q-34 -65 -105 -65h-42q-35 0 -62 16.5t-43 48.5l-417 789q3 -34 5 -66.5t2 -60.5v-891h-265v1451h228q19 0 34 -1
t26.5 -5.5t21 -14t18.5 -26.5l406 -774v0z" />
    <glyph glyph-name="N" unicode="N" horiz-adv-x="1547" 
d="M310 1451q19 0 32.5 -1.5t24.5 -7t21 -14.5t22 -24l728 -925q-4 38 -6 74t-2 68v830h265v-1451h-155q-35 0 -59 11.5t-47 39.5l-723 919q3 -35 4.5 -68.5t1.5 -62.5v-839h-265v1451h158v0z" />
    <glyph glyph-name="O" unicode="O" horiz-adv-x="1622" 
d="M1554 726q0 -159 -53.5 -295t-151 -235t-234.5 -155.5t-304 -56.5t-304 56.5t-235 155.5t-151.5 235t-53.5 295t53.5 294.5t151.5 234.5t235 155.5t304 56.5t304 -56.5t234.5 -156t151 -235t53.5 -293.5zM1247 726q0 114 -30 204.5t-86.5 154t-137 97t-182.5 33.5
t-183 -33.5t-137.5 -97t-86.5 -154t-30 -204.5q0 -115 30 -205.5t86.5 -153.5t137.5 -96.5t183 -33.5t182.5 33.5t137 96.5t86.5 153.5t30 205.5z" />
    <glyph glyph-name="Oslash" unicode="&#xd8;" horiz-adv-x="1622" 
d="M1554 726q0 -159 -53.5 -295t-151 -235t-234.5 -155.5t-304 -56.5q-98 0 -185 19.5t-163 55.5l-67 -93q-32 -43 -76.5 -60.5t-88.5 -17.5h-117l197 272q-116 101 -180 246t-64 320q0 159 53.5 294.5t151.5 234.5t235 155.5t304 56.5q108 0 203 -23.5t176 -68.5l51 70
q15 20 27 33.5t25.5 22t30.5 12.5t41 4h153l-181 -250q104 -101 160.5 -239t56.5 -302zM374 726q0 -107 25.5 -192t74.5 -148l561 775q-48 26 -103.5 40t-120.5 14q-102 0 -183 -33.5t-137.5 -97t-86.5 -154t-30 -204.5zM1247 726q0 94 -20.5 171t-58.5 137l-549 -760
q86 -37 192 -37q102 0 182.5 33.5t137 96.5t86.5 153.5t30 205.5z" />
    <glyph glyph-name="OE" unicode="&#x152;" horiz-adv-x="2156" 
d="M2083 1216h-622v-373h484v-227h-484v-381h622v-235h-888v168q-87 -87 -201.5 -135t-254.5 -48q-150 0 -273.5 56t-211.5 155.5t-136.5 235t-48.5 294.5t48.5 294.5t136.5 234.5t211.5 155.5t273.5 56.5q140 0 254.5 -48.5t201.5 -135.5v168h888v-235zM1159 726
q0 114 -26.5 206t-76.5 156.5t-122.5 99.5t-163.5 35q-93 0 -166 -35t-123.5 -99.5t-77 -156.5t-26.5 -206q0 -115 26.5 -207t77 -156.5t123.5 -99.5t166 -35q91 0 163.5 35t122.5 99.5t76.5 156.5t26.5 207z" />
    <glyph glyph-name="P" unicode="P" horiz-adv-x="1254" 
d="M452 499v-499h-300v1451h490q149 0 257.5 -35t178.5 -97.5t103.5 -148.5t33.5 -187q0 -107 -35 -196t-106 -153t-179 -99.5t-253 -35.5h-190zM452 729h190q141 0 206.5 68t65.5 186q0 54 -16.5 98.5t-50 76t-84.5 48.5t-121 17h-190v-494z" />
    <glyph glyph-name="Q" unicode="Q" horiz-adv-x="1623" 
d="M1555 726q0 -96 -19.5 -183.5t-57 -164.5t-91.5 -141.5t-122 -114.5l368 -400h-247q-54 0 -96.5 14t-78.5 52l-197 219q-97 -23 -202 -23q-167 0 -304 56.5t-235 155.5t-151.5 235t-53.5 295t53.5 294.5t151.5 234.5t235 155.5t304 56.5t304 -56.5t234.5 -156t151 -235
t53.5 -293.5zM1248 726q0 114 -30 204.5t-86.5 154t-137 97t-182.5 33.5t-183 -33.5t-137.5 -97t-86.5 -154t-30 -204.5q0 -115 30 -205.5t86.5 -153.5t137.5 -96.5t183 -33.5t182.5 33.5t137 96.5t86.5 153.5t30 205.5z" />
    <glyph glyph-name="R" unicode="R" horiz-adv-x="1299" 
d="M452 553v-553h-300v1451h456q152 0 260 -31.5t177 -87.5t101 -133.5t32 -170.5q0 -72 -20.5 -136.5t-59.5 -117.5t-96 -94t-131 -66q29 -16 54.5 -38.5t45.5 -53.5l338 -522h-271q-76 0 -110 58l-276 445q-17 26 -37.5 38t-60.5 12h-102zM452 764h154q73 0 126 18.5
t87 51t50 76.5t16 96q0 103 -68.5 160t-208.5 57h-156v-459z" />
    <glyph glyph-name="S" unicode="S" horiz-adv-x="1102" 
d="M938 1173q-14 -23 -28.5 -33.5t-37.5 -10.5q-22 0 -47.5 15.5t-59.5 33.5t-78 33.5t-103 15.5q-104 0 -156 -46.5t-52 -121.5q0 -48 28.5 -79.5t75 -54.5t105.5 -41t121 -39.5t121 -50.5t105.5 -73t75 -107.5t28.5 -154.5q0 -99 -34.5 -185.5t-99.5 -151t-160.5 -101.5
t-216.5 -37q-69 0 -137.5 14t-132 39t-119.5 60t-98 78l88 142q11 16 29 26.5t38 10.5q27 0 57 -20t69 -44t90.5 -44t123.5 -20q105 0 162.5 48t57.5 143q0 55 -28.5 89t-74.5 57t-105 39.5t-121 36.5t-121 48t-105 74t-74.5 114t-28.5 169q0 81 32 157t94 135t152.5 95
t207.5 36q131 0 242.5 -40.5t188.5 -112.5z" />
    <glyph glyph-name="T" unicode="T" horiz-adv-x="1208" 
d="M1179 1451v-242h-424v-1209h-301v1209h-424v242h1149z" />
    <glyph glyph-name="U" unicode="U" horiz-adv-x="1491" 
d="M746 240q73 0 131 24.5t98 69.5t61 109t21 144v864h300v-864q0 -132 -42.5 -242.5t-121.5 -190.5t-192 -125t-255 -45t-255.5 45t-192.5 125t-121.5 190.5t-42.5 242.5v864h300v-864q0 -80 21 -144t61 -109t98 -69.5t132 -24.5z" />
    <glyph glyph-name="V" unicode="V" horiz-adv-x="1404" 
d="M-18 1451h242q39 0 63.5 -18.5t36.5 -47.5l314 -836q18 -47 35.5 -102.5t31.5 -116.5q13 61 29 116.5t34 102.5l312 836q10 25 35.5 45.5t63.5 20.5h243l-584 -1451h-272z" />
    <glyph glyph-name="W" unicode="W" horiz-adv-x="2115" 
d="M11 1451h252q39 0 65.5 -18t34.5 -48l225 -818q8 -35 16.5 -74t16.5 -83q9 44 19 83.5t22 73.5l262 818q8 25 34.5 45.5t64.5 20.5h88q39 0 63.5 -18.5t36.5 -47.5l261 -818q11 -32 21.5 -70t18.5 -80q8 42 16 80t16 70l225 818q7 26 34 46t65 20h236l-450 -1451h-271
l-297 949q-8 20 -14.5 44t-12.5 50q-7 -26 -13.5 -50t-13.5 -44l-300 -949h-272z" />
    <glyph glyph-name="X" unicode="X" horiz-adv-x="1359" 
d="M471 746l-457 705h300q30 0 44 -8t25 -26l311 -513q5 12 11.5 24.5t14.5 25.5l280 458q12 20 26.5 29.5t35.5 9.5h287l-461 -692l473 -759h-300q-30 0 -48.5 15t-29.5 35l-315 534q-4 -11 -9 -21.5t-10 -19.5l-298 -493q-13 -19 -30.5 -34.5t-44.5 -15.5h-280z" />
    <glyph glyph-name="Y" unicode="Y" horiz-adv-x="1316" 
d="M808 557v-557h-300v557l-527 894h264q39 0 62.5 -18.5t37.5 -47.5l238 -457q24 -46 43.5 -86t33.5 -80q28 77 75 166l236 457q12 24 36 45t62 21h266z" />
    <glyph glyph-name="Z" unicode="Z" horiz-adv-x="1214" 
d="M1165 1451v-110q0 -23 -7.5 -46.5t-21.5 -43.5l-716 -1016h725v-235h-1110v117q0 21 7 41.5t20 37.5l717 1020h-693v235h1079z" />
    <glyph glyph-name="a" unicode="a" horiz-adv-x="1024" 
d="M796 0q-39 0 -59.5 11t-33.5 46l-22 65q-39 -34 -75.5 -59.5t-76 -43t-84 -26.5t-98.5 -9q-68 0 -124 18t-96.5 53.5t-62.5 88.5t-22 122q0 57 29 113.5t99.5 103t188 77.5t294.5 35v53q0 97 -41 142.5t-118 45.5q-57 0 -95 -13.5t-66.5 -29t-53.5 -29t-58 -13.5
q-29 0 -48.5 14.5t-32.5 34.5l-49 88q91 82 201 122.5t238 40.5q92 0 164.5 -30t123 -83.5t77.5 -127.5t27 -162v-648h-126zM433 170q68 0 119 24.5t101 75.5v160q-101 -4 -168 -17t-106.5 -32.5t-56 -45t-16.5 -55.5q0 -60 33.5 -85t93.5 -25z" />
    <glyph glyph-name="ae" unicode="&#xe6;" horiz-adv-x="1623" 
d="M1145 1047q90 0 166.5 -34t132.5 -98t88 -154.5t32 -203.5q0 -31 -2.5 -51t-9.5 -32t-18.5 -16.5t-30.5 -4.5h-586q16 -134 81 -196.5t167 -62.5q67 0 108.5 12.5t68.5 27.5t45.5 27.5t41.5 12.5q38 0 56 -24l74 -93q-44 -51 -96 -84.5t-107 -53t-110.5 -27t-107.5 -7.5
q-53 0 -103.5 11.5t-96.5 35t-86.5 60t-71.5 86.5q-31 -51 -75 -87.5t-97.5 -60.5t-113 -35t-122.5 -11q-77 0 -137.5 19.5t-103 57t-65 92t-22.5 124.5q0 38 12.5 77.5t41 76t75 69.5t114.5 58.5t159 41t209 18.5v30q0 97 -41 146.5t-118 49.5q-57 0 -95 -14.5t-66.5 -32
t-53.5 -32t-58 -14.5q-29 0 -48.5 14.5t-32.5 34.5l-49 88q91 82 190 122.5t219 40.5q115 0 189 -42t115 -115q57 71 142 112t197 41zM1133 853q-97 0 -149.5 -61.5t-66.5 -174.5h402q0 44 -10.5 86.5t-33 75.5t-58 53.5t-84.5 20.5zM655 453q-101 -5 -168 -19.5t-106.5 -36
t-56 -49t-16.5 -57.5q0 -62 34 -91.5t97 -29.5q46 0 85.5 14t68.5 44t45.5 77.5t16.5 115.5v32z" />
    <glyph glyph-name="b" unicode="b" horiz-adv-x="1142" 
d="M114 0v1491h276v-579q61 61 134.5 98t166.5 37q89 0 160.5 -35.5t122 -101.5t78 -159.5t27.5 -209.5q0 -125 -31.5 -227.5t-89.5 -175.5t-138.5 -113t-179.5 -40q-48 0 -86 9.5t-70 26.5t-59 40.5t-51 52.5l-11 -62q-7 -29 -23 -40.5t-43 -11.5h-183zM595 836
q-65 0 -112.5 -29t-92.5 -83v-452q39 -45 84.5 -63t94.5 -18q51 0 92.5 18.5t71.5 59t46 105.5t16 157q0 82 -13 139.5t-38.5 94.5t-62.5 54t-86 17z" />
    <glyph glyph-name="c" unicode="c" horiz-adv-x="968" 
d="M862 801q-12 -16 -24 -24.5t-34 -8.5q-20 0 -38.5 11.5t-42.5 25t-57 25t-82 11.5q-62 0 -107.5 -22.5t-75.5 -64.5t-44.5 -102t-14.5 -135q0 -158 63.5 -242t173.5 -84q38 0 65.5 6.5t48 16.5t35.5 22t28.5 22t27 16.5t30.5 6.5q32 0 50 -24l79 -100q-44 -51 -94 -84.5
t-103.5 -53t-108.5 -27t-109 -7.5q-95 0 -180 35.5t-149 103.5t-101.5 167t-37.5 226q0 113 33 210t97 168t158.5 111.5t218.5 40.5q118 0 207 -38t160 -110z" />
    <glyph glyph-name="ccedilla" unicode="&#xe7;" horiz-adv-x="970" 
d="M418 -228q14 0 30 -5.5t42 -5.5q30 0 44 11t14 26q0 25 -33.5 36.5t-107.5 22.5l45 134q-82 13 -153.5 54t-124.5 108t-83.5 158.5t-30.5 205.5q0 113 33 210t97 168t158.5 111.5t218.5 40.5q118 0 207 -38t160 -110l-72 -98q-12 -16 -24 -24.5t-34 -8.5
q-20 0 -38.5 11.5t-42.5 25t-57 25t-82 11.5q-62 0 -107.5 -22.5t-75.5 -64.5t-44.5 -102t-14.5 -135q0 -158 63.5 -242t173.5 -84q38 0 65.5 6.5t48 16.5t35.5 22t28.5 22t27 16.5t30.5 6.5q32 0 50 -24l79 -100q-36 -42 -76 -72t-83 -49.5t-87 -31t-89 -15.5l-12 -45
q48 -11 80 -26.5t51.5 -34.5t28 -42t8.5 -48q0 -35 -18.5 -62.5t-52 -46.5t-80.5 -29.5t-104 -10.5q-41 0 -76.5 4.5t-71.5 14.5l26 85q6 24 31 24z" />
    <glyph glyph-name="d" unicode="d" horiz-adv-x="1142" 
d="M857 0q-53 0 -68 48l-23 90q-62 -68 -140.5 -110.5t-185.5 -42.5q-83 0 -152 35t-119.5 102.5t-78.5 165.5t-28 224q0 115 31.5 214t89.5 171t140 113t182 41q84 0 141.5 -25t104.5 -68v533h276v-1491h-170zM535 199q73 0 122.5 28.5t93.5 82.5v453q-39 45 -84.5 63
t-96.5 18q-50 0 -91 -19t-70.5 -59.5t-45.5 -103.5t-16 -150q0 -86 13 -146t37.5 -97t59.5 -53.5t78 -16.5z" />
    <glyph glyph-name="e" unicode="e" horiz-adv-x="1072" 
d="M561 1047q99 0 182.5 -31.5t144 -91.5t94 -147.5t33.5 -199.5q0 -31 -3 -51t-10 -32t-19 -16.5t-31 -4.5h-619q13 -145 82.5 -212t182.5 -67q57 0 98.5 13.5t73 30t57 30t50.5 13.5q32 0 50 -24l80 -100q-44 -51 -97 -84.5t-110 -53t-115 -27t-112 -7.5
q-108 0 -201.5 35.5t-163 105t-109.5 172.5t-40 239q0 105 34.5 198t99.5 162t158 109.5t210 40.5zM566 853q-99 0 -155 -56.5t-73 -159.5h430q0 43 -11.5 82t-36.5 69t-63 47.5t-91 17.5z" />
    <glyph glyph-name="f" unicode="f" horiz-adv-x="724" 
d="M189 0v833l-80 14q-31 6 -50.5 22t-19.5 46v110h150v68q0 88 27.5 159.5t78.5 121t125 76.5t167 27q36 0 68.5 -4.5t65.5 -13.5l-6 -136q-2 -31 -26.5 -40.5t-54.5 -9.5q-42 0 -75.5 -9t-56.5 -30.5t-35 -58t-12 -90.5v-60h256v-192h-247v-833h-275z" />
    <glyph glyph-name="g" unicode="g" horiz-adv-x="1063" 
d="M498 1049q66 0 124.5 -13.5t107.5 -38.5h303v-101q0 -24 -13.5 -38t-44.5 -21l-84 -17q17 -49 17 -105q0 -77 -31.5 -138.5t-86.5 -105t-130 -67t-162 -23.5q-27 0 -53 2t-51 6q-41 -25 -41 -56q0 -29 28.5 -42t75 -18.5t106 -7t121 -6.5t121 -17.5t106 -41t75 -75.5
t28.5 -121q0 -69 -34 -134t-98.5 -116t-158.5 -82t-214 -31q-119 0 -206.5 22.5t-145 60t-85.5 86.5t-28 102q0 69 42 117t115 77q-39 22 -62 57.5t-23 92.5q0 46 33.5 96.5t102.5 84.5q-79 43 -124.5 113.5t-45.5 164.5q0 77 31.5 139t87.5 105.5t132 66.5t165 23zM759 -42
q0 27 -17 44t-45.5 27t-67.5 14.5t-83 7t-91.5 4.5t-92.5 7q-35 -21 -57 -49.5t-22 -64.5q0 -25 11.5 -46t38.5 -36t71 -23.5t110 -8.5q68 0 115 9t76 25.5t41.5 39.5t12.5 50zM498 554q85 0 125.5 43t40.5 111q0 71 -40.5 111.5t-125.5 40.5t-125 -40.5t-40 -111.5
q0 -67 40.5 -110.5t124.5 -43.5z" />
    <glyph glyph-name="h" unicode="h" horiz-adv-x="1134" 
d="M114 0v1491h276v-562q58 53 127 85.5t164 32.5q84 0 149 -29t109.5 -81t67 -124t22.5 -158v-655h-275v655q0 86 -40 133.5t-118 47.5q-59 0 -109.5 -25.5t-96.5 -69.5v-741h-276z" />
    <glyph glyph-name="i" unicode="i" horiz-adv-x="520" 
d="M398 1031v-1031h-276v1031h276zM431 1324q0 -35 -14 -65t-37.5 -53t-55 -36t-67.5 -13q-34 0 -64.5 13t-53.5 36t-36.5 53t-13.5 65t13.5 65.5t36.5 53.5t53.5 36t64.5 13q36 0 67.5 -13t55 -36t37.5 -53.5t14 -65.5z" />
    <glyph glyph-name="dotlessi" unicode="&#x131;" horiz-adv-x="522" 
d="M399 1031v-1031h-276v1031h276z" />
    <glyph glyph-name="j" unicode="j" horiz-adv-x="520" 
d="M398 1031v-1051q0 -70 -18 -131.5t-58.5 -107.5t-106 -73t-161.5 -27q-36 0 -67.5 5t-64.5 14l10 146q2 20 14.5 28t49.5 8t61 6.5t38.5 22.5t20.5 42.5t6 66.5v1051h276zM431 1324q0 -35 -14 -65t-37.5 -53t-55 -36t-67.5 -13q-34 0 -64.5 13t-53.5 36t-36.5 53
t-13.5 65t13.5 65.5t36.5 53.5t53.5 36t64.5 13q36 0 67.5 -13t55 -36t37.5 -53.5t14 -65.5z" />
    <glyph glyph-name="k" unicode="k" horiz-adv-x="1091" 
d="M390 1491v-846h46q26 0 41 7.5t30 27.5l228 304q17 23 38.5 35t54.5 12h252l-296 -376q-35 -47 -81 -74q23 -16 40 -37t33 -47l319 -497h-248q-32 0 -55 10.5t-38 37.5l-232 379q-14 24 -29 31t-45 7h-58v-465h-276v1491h276z" />
    <glyph glyph-name="m" unicode="m" horiz-adv-x="1687" 
d="M114 0v1031h170q52 0 69 -48l16 -67q27 28 55.5 52t61.5 41.5t71.5 27.5t83.5 10q95 0 157 -50.5t94 -134.5q25 49 61.5 84.5t80 57.5t92 32.5t97.5 10.5q87 0 154 -26t112.5 -76.5t69.5 -123.5t24 -166v-655h-276v655q0 181 -155 181q-35 0 -64.5 -11.5t-52 -34.5
t-35 -57t-12.5 -78v-655h-276v655q0 98 -38.5 139.5t-113.5 41.5q-48 0 -90.5 -22.5t-79.5 -62.5v-751h-276z" />
    <glyph glyph-name="n" unicode="n" horiz-adv-x="1134" 
d="M114 0v1031h170q52 0 69 -48l17 -72q31 30 64.5 55t71 43t81 28t94.5 10q84 0 149 -29t109.5 -81t67 -124t22.5 -158v-655h-275v655q0 86 -40 133.5t-118 47.5q-59 0 -109.5 -25.5t-96.5 -69.5v-741h-276z" />
    <glyph glyph-name="o" unicode="o" horiz-adv-x="1155" 
d="M579 1047q116 0 211 -37t163 -105.5t105 -166.5t37 -221t-37 -221.5t-105 -167.5t-163 -106t-211 -37q-117 0 -212.5 37t-163.5 106t-105.5 167.5t-37.5 221.5t37.5 221t105.5 166.5t163.5 105.5t212.5 37zM579 192q118 0 175 81.5t57 242.5q0 160 -57 241.5t-175 81.5
q-121 0 -178 -81.5t-57 -241.5q0 -161 57 -242.5t178 -81.5z" />
    <glyph glyph-name="oslash" unicode="&#xf8;" horiz-adv-x="1154" 
d="M961 895q64 -69 99 -164t35 -214q0 -123 -37 -221.5t-105 -167.5t-163 -106t-211 -37q-139 0 -249 52l-27 -36q-15 -22 -34.5 -37t-41.5 -24t-44.5 -13t-44.5 -4h-100l157 213q-65 69 -100 165t-35 216q0 123 37.5 221t105.5 166.5t163.5 105.5t212.5 37q139 0 247 -53
l51 69q13 20 25 33.5t26 22t31.5 12t41.5 3.5h136zM326 516q0 -51 5.5 -93t17.5 -77l350 475q-51 27 -120 27q-121 0 -187 -86t-66 -246zM579 184q118 0 183.5 85.5t65.5 246.5q0 98 -23 167l-348 -473q49 -26 122 -26z" />
    <glyph glyph-name="oe" unicode="&#x153;" horiz-adv-x="1754" 
d="M1276 1047q90 0 166.5 -34t132.5 -98t88 -154.5t32 -203.5q0 -31 -2.5 -51t-9.5 -32t-18.5 -16.5t-30.5 -4.5h-586q16 -134 81 -196.5t167 -62.5q54 0 92 13.5t68 30t54.5 30t50.5 13.5q30 0 48 -24l82 -100q-44 -51 -96 -84.5t-107 -53t-110.5 -27t-107.5 -7.5
q-53 0 -103.5 11.5t-96 34.5t-85.5 59t-71 85q-61 -92 -157.5 -141t-222.5 -49q-102 0 -189 37t-150.5 106t-99 167.5t-35.5 221.5t36 221t100 166.5t153 105.5t195 37q121 0 214.5 -48t153.5 -138q57 85 148 135.5t216 50.5zM560 192q110 0 162 81.5t52 242.5
q0 160 -52 241.5t-162 81.5q-112 0 -164 -81.5t-52 -241.5q0 -161 52 -242.5t164 -81.5zM1264 853q-97 0 -149.5 -61.5t-66.5 -174.5h401q0 44 -10.5 86.5t-32.5 75.5t-57.5 53.5t-84.5 20.5z" />
    <glyph glyph-name="p" unicode="p" horiz-adv-x="1142" 
d="M114 -333v1364h170q52 0 69 -48l21 -87q31 34 66 62.5t75 49t86 32t100 11.5q83 0 152.5 -35.5t119.5 -103t78 -165.5t28 -224q0 -116 -31.5 -214.5t-89.5 -170.5t-139.5 -112.5t-181.5 -40.5q-84 0 -142.5 25t-104.5 68v-411h-276zM606 836q-73 0 -122.5 -29t-93.5 -83
v-452q39 -45 84.5 -63t97.5 -18q50 0 91 19t70.5 59.5t45.5 103.5t16 150q0 86 -13.5 146t-38 97t-59.5 53.5t-78 16.5z" />
    <glyph glyph-name="q" unicode="q" horiz-adv-x="1141" 
d="M1027 1031v-1364h-276v455q-60 -62 -135 -99.5t-176 -37.5q-83 0 -152 35t-119.5 102.5t-78.5 165.5t-28 224q0 115 31.5 214t89.5 171t140 113t182 41q47 0 86 -8.5t71.5 -24t60 -37t52.5 -48.5l14 50q15 48 68 48h170zM535 199q73 0 122.5 28.5t93.5 82.5v453
q-39 45 -84.5 63t-96.5 18q-50 0 -91 -19t-70.5 -59.5t-45.5 -103.5t-16 -150q0 -86 13 -146t37.5 -97t59.5 -53.5t78 -16.5z" />
    <glyph glyph-name="r" unicode="r" horiz-adv-x="754" 
d="M114 0v1031h163q42 0 58 -15t23 -52l14 -103q49 88 113.5 139t150.5 51q70 0 114 -33l-18 -204q-5 -20 -15.5 -27.5t-28.5 -7.5q-16 0 -46 4.5t-56 4.5q-76 0 -120.5 -41.5t-75.5 -115.5v-631h-276z" />
    <glyph glyph-name="s" unicode="s" horiz-adv-x="885" 
d="M755 819q-11 -17 -22.5 -24.5t-31.5 -7.5t-41 10t-47 21.5t-59.5 21.5t-77.5 10q-67 0 -104 -27.5t-37 -72.5q0 -31 21 -52t55.5 -36.5t78.5 -29t90.5 -29.5t90.5 -37t78.5 -52.5t55.5 -76t21 -107.5q0 -75 -27.5 -138.5t-80.5 -109.5t-132 -72t-182 -26q-53 0 -105 9.5
t-99 27t-88 40.5t-71 50l64 103q11 18 27.5 28t42.5 10q25 0 46 -12.5t47 -27t61.5 -27t88.5 -12.5q40 0 69 9t47 24.5t26.5 35t8.5 40.5q0 34 -21.5 55.5t-56 37.5t-79.5 29t-91.5 29t-91 38t-79 55.5t-56 82.5t-21.5 119q0 64 25 121.5t75 101.5t124.5 70t172.5 26
q110 0 200 -36t148 -94z" />
    <glyph glyph-name="germandbls" unicode="&#xdf;" horiz-adv-x="1224" 
d="M653 1477q82 0 147.5 -16.5t115.5 -43.5t85.5 -63t58.5 -74.5t33.5 -77.5t10.5 -73q0 -57 -19 -97.5t-47 -70.5t-61 -52.5t-61 -42.5t-47 -41.5t-19 -48.5q0 -31 24 -54.5t60.5 -46.5t78.5 -50t78.5 -65.5t60.5 -92.5t24 -130q0 -87 -32.5 -153.5t-88 -110.5
t-128.5 -66.5t-154 -22.5q-45 0 -90.5 9.5t-87.5 27t-80 40.5t-68 50l64 103q11 18 27.5 28t42.5 10q25 0 46.5 -12.5t45.5 -27t53.5 -27t71.5 -12.5q52 0 86 33.5t34 87.5q0 44 -26.5 73.5t-66 54t-86 48.5t-86 57t-66 79t-26.5 116q0 59 20.5 100.5t51 73t66 57t66 51
t51 55t20.5 69.5q0 33 -11 61t-35 48.5t-61 32t-88 11.5q-129 0 -190.5 -80.5t-61.5 -228.5v-972h-275v981q0 106 37 197t106.5 157.5t169.5 104t226 37.5z" />
    <glyph glyph-name="t" unicode="t" horiz-adv-x="755" 
d="M470 -16q-70 0 -124 20.5t-91 58.5t-56 92t-19 122v556h-97q-22 0 -37.5 14t-15.5 42v108l165 30l56 267q11 45 61 45h144v-314h266v-192h-266v-538q0 -43 20.5 -68t58.5 -25q20 0 34 4.5t24 10t18.5 10t17.5 4.5q12 0 20 -5.5t16 -18.5l83 -132q-57 -45 -129 -68
t-149 -23z" />
    <glyph glyph-name="u" unicode="u" horiz-adv-x="1133" 
d="M380 1031v-655q0 -86 39.5 -133.5t117.5 -47.5q58 0 109 25.5t97 69.5v741h276v-1031h-170q-53 0 -68 48l-18 72q-62 -61 -135.5 -98.5t-174.5 -37.5q-84 0 -149.5 29t-109.5 81t-67 124t-23 158v655h276z" />
    <glyph glyph-name="v" unicode="v" horiz-adv-x="1066" 
d="M3 1031h229q30 0 50 -14t28 -36l173 -510q17 -52 30 -101.5t23 -99.5q11 50 24.5 99.5t31.5 101.5l179 510q7 22 27 36t47 14h218l-405 -1031h-250z" />
    <glyph glyph-name="w" unicode="w" horiz-adv-x="1619" 
d="M12 1031h220q30 0 50.5 -14t27.5 -36l127 -510q11 -49 20.5 -95t16.5 -91q12 45 26 91t29 95l151 512q7 21 27 35t47 14h122q29 0 49.5 -14t27.5 -35l146 -512q14 -49 27 -95t24 -92q8 45 17.5 91.5t22.5 95.5l133 510q7 22 27 36t47 14h210l-324 -1031h-223
q-17 0 -30.5 11t-20.5 37l-168 558q-10 32 -18 63t-14 63q-6 -32 -13.5 -64t-17.5 -64l-170 -556q-14 -48 -60 -48h-212z" />
    <glyph glyph-name="x" unicode="x" horiz-adv-x="1064" 
d="M349 532l-336 499h265q30 0 44 -8t25 -26l201 -327q6 17 14 34t19 35l155 253q24 39 62 39h253l-336 -487l350 -544h-265q-30 0 -48.5 15t-29.5 35l-203 339q-9 -34 -26 -60l-174 -279q-12 -19 -29.5 -34.5t-44.5 -15.5h-246z" />
    <glyph glyph-name="y" unicode="y" horiz-adv-x="1064" 
d="M514 -277q-13 -28 -31.5 -42t-58.5 -14h-205l195 415l-414 949h242q33 0 51 -15t26 -35l196 -493q21 -59 36 -117q9 30 19.5 59.5t21.5 58.5l182 492q8 22 29 36t46 14h221z" />
    <glyph glyph-name="z" unicode="z" horiz-adv-x="925" 
d="M867 919q0 -29 -10 -56.5t-26 -44.5l-463 -610h486v-208h-805v114q0 17 9.5 43t26.5 49l466 617h-473v208h789v-112z" />
    <glyph glyph-name="ordfeminine" unicode="&#xaa;" horiz-adv-x="734" 
d="M537 841q-27 0 -40.5 8t-25.5 31l-13 32q-23 -20 -44.5 -35t-44.5 -24.5t-49 -14.5t-58 -5q-86 0 -137.5 44.5t-51.5 128.5q0 32 16 66.5t57.5 63t112 48t178.5 22.5v21q0 51 -21.5 70.5t-61.5 19.5q-32 0 -52.5 -6.5t-37 -15t-32.5 -15t-38 -6.5q-20 0 -33.5 12
t-23.5 25l-34 62q57 52 126 75.5t150 23.5q58 0 104.5 -18.5t79 -51.5t50 -78t17.5 -97v-386h-93zM326 966q33 0 58.5 11t52.5 37v73q-53 -2 -87 -8t-53.5 -16t-27 -22.5t-7.5 -25.5q0 -28 16 -38.5t48 -10.5z" />
    <glyph glyph-name="ordmasculine" unicode="&#xba;" 
d="M402 1470q73 0 134.5 -22t105.5 -63t68.5 -100t24.5 -133q0 -75 -24.5 -135t-68.5 -101.5t-105.5 -64t-134.5 -22.5q-75 0 -137 22.5t-106.5 64t-69 101.5t-24.5 135q0 74 24.5 133t69 100t106.5 63t137 22zM402 987q60 0 88.5 39t28.5 124q0 86 -28.5 124t-88.5 38
q-64 0 -93 -38t-29 -124q0 -85 29 -124t93 -39z" />
    <glyph glyph-name="grave" unicode="`" 
d="M316 1467q43 0 64.5 -14t37.5 -42l139 -244h-156q-31 0 -50.5 8.5t-39.5 29.5l-253 262h258z" />
    <glyph glyph-name="acute" unicode="&#xb4;" 
d="M769 1467l-253 -262q-20 -21 -39.5 -29.5t-50.5 -8.5h-166l140 244q15 28 36.5 42t65.5 14h267z" />
    <glyph glyph-name="circumflex" unicode="&#x2c6;" 
d="M761 1168h-184q-16 0 -31 5.5t-31 20.5l-88 95q-6 5 -11.5 11.5t-10.5 13.5q-6 -8 -12 -14l-11 -11l-90 -95q-28 -26 -62 -26h-191l232 283h258z" />
    <glyph glyph-name="caron" unicode="&#x2c7;" 
d="M39 1451h191q17 0 31.5 -5.5t22.5 -12.5l96 -102q5 -6 11.5 -12.5t12.5 -14.5q5 8 11 14.5t12 12.5l96 102q8 6 23 12t31 6h184l-232 -283h-258z" />
    <glyph glyph-name="tilde" unicode="&#x2dc;" 
d="M506 1372q27 0 43 14.5t16 56.5h168q0 -59 -16.5 -107t-45.5 -81.5t-69 -52t-86 -18.5q-36 0 -67.5 12.5t-59 27t-50.5 27t-41 12.5q-27 0 -42.5 -15.5t-15.5 -57.5h-170q0 59 16.5 107t46 82t69 52.5t85.5 18.5q37 0 69 -12t59 -27t49.5 -27t41.5 -12z" />
    <glyph glyph-name="dieresis" unicode="&#xa8;" 
d="M341 1294q0 -30 -12 -56t-32.5 -45.5t-48 -30.5t-58.5 -11q-29 0 -55.5 11t-46.5 30.5t-32 45.5t-12 56t12 57t32 47.5t46.5 32t55.5 11.5q31 0 58.5 -11.5t48 -32t32.5 -47.5t12 -57zM756 1294q0 -30 -12 -56t-32 -45.5t-47.5 -30.5t-58.5 -11q-30 0 -57 11t-47 30.5
t-31.5 45.5t-11.5 56t11.5 57t31.5 47.5t47 32t57 11.5q31 0 58.5 -11.5t47.5 -32t32 -47.5t12 -57z" />
    <glyph glyph-name="macron" unicode="&#xaf;" 
d="M96 1381h608v-172h-608v172z" />
    <glyph glyph-name="macron" unicode="&#x2c9;" 
d="M96 1381h608v-172h-608v172z" />
    <glyph glyph-name="breve" unicode="&#x2d8;" 
d="M400 1160q-89 0 -149.5 23t-97 63t-52 93t-15.5 112h193q0 -29 5 -51.5t18.5 -38t37 -23.5t60.5 -8t60.5 8t37 23.5t18.5 38t5 51.5h193q0 -59 -15.5 -112t-52 -93t-97 -63t-149.5 -23z" />
    <glyph glyph-name="ring" unicode="&#x2da;" 
d="M168 1329q0 48 19 87.5t50.5 67t73 43t87.5 15.5q47 0 90 -15.5t75.5 -43t51.5 -67t19 -87.5q0 -47 -19 -85t-51.5 -65t-75.5 -42t-90 -15q-46 0 -87.5 15t-73 42t-50.5 65t-19 85zM316 1329q0 -38 22 -61.5t64 -23.5q38 0 61 23.5t23 61.5q0 40 -23 63.5t-61 23.5
q-42 0 -64 -23.5t-22 -63.5z" />
    <glyph glyph-name="hungarumlaut" unicode="&#x2dd;" 
d="M537 1467l-200 -262q-17 -23 -38 -30.5t-52 -7.5h-113l122 244q14 28 36.5 42t65.5 14h179zM899 1467l-255 -262q-20 -21 -39.5 -29.5t-50.5 -8.5h-130l177 244q9 13 18 23.5t20.5 17.5t27 11t36.5 4h196z" />
    <glyph glyph-name="dotaccent" unicode="&#x2d9;" 
d="M572 1326q0 -34 -14 -64.5t-37.5 -53t-55 -36t-67.5 -13.5q-34 0 -64.5 13.5t-53.5 36t-36.5 53t-13.5 64.5q0 35 13.5 65.5t36.5 53.5t53.5 36.5t64.5 13.5q36 0 67.5 -13.5t55 -36.5t37.5 -53.5t14 -65.5z" />
    <glyph glyph-name="cedilla" unicode="&#xb8;" 
d="M280 -228q14 0 30 -5.5t42 -5.5q30 0 44 11t14 26q0 25 -33.5 36.5t-107.5 22.5l62 182h154l-26 -95q47 -11 79 -26.5t51.5 -34.5t28 -42t8.5 -48q0 -35 -18.5 -62.5t-52 -46.5t-80.5 -29.5t-104 -10.5q-41 0 -76.5 4.5t-70.5 14.5l25 85q6 24 31 24z" />
    <glyph glyph-name="ogonek" unicode="&#x2db;" 
d="M541 -178q19 0 26 -17l41 -100q-34 -22 -84.5 -36.5t-107.5 -14.5q-103 0 -156.5 41.5t-53.5 106.5q0 57 41 111.5t122 98.5l142 -12q-20 -11 -38 -24.5t-31.5 -30t-22 -35t-8.5 -39.5q0 -28 16.5 -44t46.5 -16q17 0 28 1.5t17.5 4t11.5 4t10 1.5z" />
    <glyph glyph-name="pi" unicode="&#x3c0;" horiz-adv-x="1276" 
d="M1224 1028v-126q0 -35 -21.5 -59.5t-63.5 -24.5h-117v-11q0 -141 3.5 -242t10 -169.5t17 -109.5t24 -62.5t30.5 -28t38 -6.5h49v-108q0 -22 -13.5 -38.5t-36.5 -28t-53 -17t-64 -5.5q-138 0 -203.5 91.5t-65.5 257.5q0 45 4.5 93t11.5 104.5t13.5 125t11.5 154.5h-292
q-4 -172 -15.5 -300t-30.5 -220t-45.5 -151.5t-60.5 -94t-76 -48t-92 -13.5q-17 0 -36.5 3t-36 9t-27.5 15.5t-11 23.5v181h21q33 0 62 32t51 102.5t36.5 184t20.5 276.5h-201v114q0 16 7 33t20 31t32 23t43 9h1056z" />
    <glyph glyph-name="exclam" unicode="!" horiz-adv-x="572" 
d="M416 1451v-572q0 -91 -9.5 -180t-26.5 -185h-186q-17 96 -26.5 185t-9.5 180v572h258zM121 145q0 33 12.5 62.5t34.5 51t51.5 34t64.5 12.5q34 0 63.5 -12.5t51.5 -34t35 -51t13 -62.5q0 -34 -13 -63t-35 -50.5t-51.5 -33.5t-63.5 -12q-35 0 -64.5 12t-51.5 33.5
t-34.5 50.5t-12.5 63z" />
    <glyph glyph-name="question" unicode="?" horiz-adv-x="930" 
d="M66 1319q36 31 77.5 58t90 47t105 31.5t121.5 11.5q90 0 163 -24.5t125 -70t80.5 -109.5t28.5 -143q0 -76 -21.5 -131.5t-54 -96.5t-71.5 -71t-74 -56t-60.5 -51.5t-31.5 -56.5l-25 -143h-189l-19 162q-7 48 12 83.5t51 65t71.5 57t74 59t58 71t23.5 93.5q0 66 -45.5 105
t-120.5 39q-55 0 -92.5 -12t-64.5 -26.5t-46 -26.5t-36 -12q-38 0 -57 33zM253 145q0 33 12.5 62.5t34.5 51t51.5 34t64.5 12.5q34 0 64 -12.5t52 -34t34.5 -51t12.5 -62.5q0 -34 -12.5 -63t-34.5 -50.5t-52 -33.5t-64 -12q-35 0 -64.5 12t-51.5 33.5t-34.5 50.5t-12.5 63z
" />
    <glyph glyph-name="comma" unicode="," horiz-adv-x="473" 
d="M78 163q0 30 11 56t31.5 45t49 30t63.5 11q41 0 71.5 -14.5t50.5 -38.5t30 -56.5t10 -68.5q0 -49 -15 -103.5t-45 -109.5t-73.5 -107.5t-100.5 -95.5l-48 43q-11 9 -15.5 18t-4.5 22q0 9 6.5 19.5t15.5 19.5q11 12 27 29.5t31.5 39t29 47.5t20.5 55q-33 1 -59.5 14
t-45.5 34t-29.5 49.5t-10.5 61.5z" />
    <glyph glyph-name="semicolon" unicode=";" horiz-adv-x="549" 
d="M109 0zM117 163q0 30 11 56t31.5 45t49 30t63.5 11q41 0 71.5 -14.5t50.5 -38.5t30 -56.5t10 -68.5q0 -49 -15 -103.5t-45 -109.5t-73.5 -107.5t-100.5 -95.5l-48 43q-11 9 -15.5 18t-4.5 22q0 9 6.5 19.5t15.5 19.5q11 12 27 29.5t31.5 39t29 47.5t20.5 55
q-33 1 -59.5 14t-45.5 34t-29.5 49.5t-10.5 61.5zM109 845q0 33 12.5 62.5t34.5 51t51.5 34t64.5 12.5q34 0 64 -12.5t52 -34t34.5 -51t12.5 -62.5q0 -34 -12.5 -63t-34.5 -50.5t-52 -33.5t-64 -12q-35 0 -64.5 12t-51.5 33.5t-34.5 50.5t-12.5 63z" />
    <glyph glyph-name="colon" unicode=":" horiz-adv-x="522" 
d="M98 0zM98 145q0 33 12.5 62.5t34.5 51t51.5 34t64.5 12.5q34 0 64 -12.5t52 -34t34.5 -51t12.5 -62.5q0 -34 -12.5 -63t-34.5 -50.5t-52 -33.5t-64 -12q-35 0 -64.5 12t-51.5 33.5t-34.5 50.5t-12.5 63zM98 845q0 33 12.5 62.5t34.5 51t51.5 34t64.5 12.5q34 0 64 -12.5
t52 -34t34.5 -51t12.5 -62.5q0 -34 -12.5 -63t-34.5 -50.5t-52 -33.5t-64 -12q-35 0 -64.5 12t-51.5 33.5t-34.5 50.5t-12.5 63z" />
    <glyph glyph-name="period" unicode="." horiz-adv-x="476" 
d="M75 145q0 33 12.5 62.5t34.5 51t51.5 34t64.5 12.5q34 0 64 -12.5t52 -34t34.5 -51t12.5 -62.5q0 -34 -12.5 -63t-34.5 -50.5t-52 -33.5t-64 -12q-35 0 -64.5 12t-51.5 33.5t-34.5 50.5t-12.5 63z" />
    <glyph glyph-name="ellipsis" unicode="&#x2026;" horiz-adv-x="1561" 
d="M75 0zM75 145q0 33 12.5 62.5t34.5 51t51.5 34t64.5 12.5q34 0 64 -12.5t52 -34t34.5 -51t12.5 -62.5q0 -34 -12.5 -63t-34.5 -50.5t-52 -33.5t-64 -12q-35 0 -64.5 12t-51.5 33.5t-34.5 50.5t-12.5 63zM1159 145q0 33 12.5 62.5t34.5 51t51.5 34t64.5 12.5
q34 0 64 -12.5t52 -34t34.5 -51t12.5 -62.5q0 -34 -12.5 -63t-34.5 -50.5t-52 -33.5t-64 -12q-35 0 -64.5 12t-51.5 33.5t-34.5 50.5t-12.5 63zM617 145q0 33 12.5 62.5t34.5 51t51.5 34t64.5 12.5q34 0 64 -12.5t52 -34t34.5 -51t12.5 -62.5q0 -34 -12.5 -63t-34.5 -50.5
t-52 -33.5t-64 -12q-35 0 -64.5 12t-51.5 33.5t-34.5 50.5t-12.5 63z" />
    <glyph glyph-name="quoteleft" unicode="&#x2018;" horiz-adv-x="447" 
d="M152 922q-51 82 -68.5 170t-2.5 173.5t62.5 164.5t127.5 142l86 -52q12 -7 16.5 -16t4 -18.5t-4.5 -18.5t-10 -15q-19 -22 -38.5 -61.5t-28 -90t0.5 -109.5t47 -119q20 -31 11 -54.5t-37 -32.5z" />
    <glyph glyph-name="quoteright" unicode="&#x2019;" horiz-adv-x="447" 
d="M301 1547q51 -82 68.5 -170t2.5 -173.5t-62.5 -164.5t-127.5 -142l-86 52q-12 7 -16.5 16.5t-4 19t4.5 18t10 14.5q19 22 38.5 61.5t27.5 90t-1 109.5t-46 119q-20 31 -11 54.5t36 32.5z" />
    <glyph glyph-name="quotedblleft" unicode="&#x201c;" horiz-adv-x="791" 
d="M66 922zM152 922q-51 82 -68.5 170t-2.5 173.5t62.5 164.5t127.5 142l86 -52q12 -7 16.5 -16t4 -18.5t-4.5 -18.5t-10 -15q-19 -22 -38.5 -61.5t-28 -90t0.5 -109.5t47 -119q20 -31 11 -54.5t-37 -32.5zM496 922q-51 82 -68.5 170t-2.5 173.5t62.5 164.5t127.5 142
l86 -52q12 -7 16.5 -16t4 -18.5t-4.5 -18.5t-10 -15q-19 -22 -38.5 -61.5t-28 -90t0.5 -109.5t47 -119q20 -31 11 -54.5t-37 -32.5z" />
    <glyph glyph-name="quotedblright" unicode="&#x201d;" horiz-adv-x="791" 
d="M75 897zM301 1547q51 -82 68.5 -170t2.5 -173.5t-62.5 -164.5t-127.5 -142l-86 52q-12 7 -16.5 16.5t-4 19t4.5 18t10 14.5q19 22 38.5 61.5t27.5 90t-1 109.5t-46 119q-20 31 -11 54.5t36 32.5zM645 1547q51 -82 68.5 -170t2.5 -173.5t-62.5 -164.5t-127.5 -142l-86 52
q-12 7 -16.5 16.5t-4 19t4.5 18t10 14.5q19 22 38.5 61.5t27.5 90t-1 109.5t-46 119q-20 31 -11 54.5t36 32.5z" />
    <glyph glyph-name="quotesinglbase" unicode="&#x201a;" horiz-adv-x="438" 
d="M279 316q51 -82 68.5 -170t2.5 -173.5t-62.5 -164.5t-127.5 -142l-86 52q-12 7 -16.5 16.5t-4 19t4.5 18t10 14.5q19 22 38.5 61.5t27.5 90t-1 109.5t-46 119q-20 31 -11 54.5t36 32.5z" />
    <glyph glyph-name="quotedblbase" unicode="&#x201e;" horiz-adv-x="781" 
d="M53 0zM279 316q51 -82 68.5 -170t2.5 -173.5t-62.5 -164.5t-127.5 -142l-86 52q-12 7 -16.5 16.5t-4 19t4.5 18t10 14.5q19 22 38.5 61.5t27.5 90t-1 109.5t-46 119q-20 31 -11 54.5t36 32.5zM623 316q51 -82 68.5 -170t2.5 -173.5t-62.5 -164.5t-127.5 -142l-86 52
q-12 7 -16.5 16.5t-4 19t4.5 18t10 14.5q19 22 38.5 61.5t27.5 90t-1 109.5t-46 119q-20 31 -11 54.5t36 32.5z" />
    <glyph glyph-name="guilsinglleft" unicode="&#x2039;" horiz-adv-x="589" 
d="M86 523v35l259 399l90 -41q35 -17 40.5 -45t-11.5 -60l-131 -226q-15 -26 -34 -44q16 -15 34 -44l131 -227q17 -32 11.5 -60t-40.5 -44l-90 -42z" />
    <glyph glyph-name="guilsinglright" unicode="&#x203a;" horiz-adv-x="590" 
d="M504 558v-35l-259 -399l-91 42q-35 16 -40.5 44t12.5 60l130 227q15 26 34 44q-19 18 -34 44l-130 226q-18 32 -12.5 60t40.5 45l91 41z" />
    <glyph glyph-name="guillemotleft" unicode="&#xab;" horiz-adv-x="933" 
d="M86 124zM86 523v35l259 399l90 -41q35 -17 40.5 -45t-11.5 -60l-131 -226q-15 -26 -34 -44q16 -15 34 -44l131 -227q17 -32 11.5 -60t-40.5 -44l-90 -42zM429 523v35l259 399l90 -41q35 -17 40.5 -45t-11.5 -60l-131 -226q-15 -26 -34 -44q16 -15 34 -44l131 -227
q17 -32 11.5 -60t-40.5 -44l-90 -42z" />
    <glyph glyph-name="guillemotright" unicode="&#xbb;" horiz-adv-x="933" 
d="M108 124zM504 558v-35l-259 -399l-91 42q-35 16 -40.5 44t12.5 60l130 227q15 26 34 44q-19 18 -34 44l-130 226q-18 32 -12.5 60t40.5 45l91 41zM847 558v-35l-259 -399l-91 42q-35 16 -40.5 44t12.5 60l130 227q15 26 34 44q-19 18 -34 44l-130 226q-18 32 -12.5 60
t40.5 45l91 41z" />
    <glyph glyph-name="slash" unicode="/" horiz-adv-x="944" 
d="M317 4q-19 -50 -60.5 -75.5t-84.5 -25.5h-117l577 1493q17 45 54 70t85 25h118z" />
    <glyph glyph-name="bar" unicode="|" horiz-adv-x="530" 
d="M158 1552h214v-1894h-214v1894z" />
    <glyph glyph-name="backslash" unicode="\" horiz-adv-x="944" 
d="M55 1491h117q49 0 86 -25t54 -70l577 -1493h-117q-44 0 -85 25.5t-61 75.5z" />
    <glyph glyph-name="hyphen" unicode="-" horiz-adv-x="747" 
d="M109 719h528v-226h-528v226z" />
    <glyph glyph-name="hyphen" unicode="&#x2010;" horiz-adv-x="747" 
d="M109 719h528v-226h-528v226z" />
    <glyph glyph-name="hyphen" unicode="&#xad;" horiz-adv-x="747" 
d="M109 719h528v-226h-528v226z" />
    <glyph glyph-name="endash" unicode="&#x2013;" horiz-adv-x="1160" 
d="M173 699h814v-192h-814v192z" />
    <glyph glyph-name="emdash" unicode="&#x2014;" horiz-adv-x="1599" 
d="M116 699h1368v-192h-1368v192z" />
    <glyph glyph-name="underscore" unicode="_" horiz-adv-x="939" 
d="M863 -122v-176h-788v176h788z" />
    <glyph glyph-name="bullet" unicode="&#x2022;" horiz-adv-x="1160" 
d="M117 593q0 94 36.5 177.5t99.5 145.5t147 98t179 36q96 0 180.5 -36t147.5 -98t99.5 -145.5t36.5 -177.5t-36.5 -176.5t-99.5 -144.5t-147.5 -98t-180.5 -36q-95 0 -179 36t-147 98t-99.5 144.5t-36.5 176.5z" />
    <glyph glyph-name="periodcentered" unicode="&#xb7;" horiz-adv-x="561" 
d="M75 595q0 42 16 79t44 64.5t65.5 43t79.5 15.5q43 0 80.5 -15.5t65.5 -43t44 -64.5t16 -79q0 -41 -16 -77.5t-44 -63.5t-65.5 -43t-80.5 -16q-42 0 -79.5 16t-65.5 43t-44 63.5t-16 77.5z" />
    <glyph glyph-name="periodcentered" unicode="&#x2219;" horiz-adv-x="561" 
d="M75 595q0 42 16 79t44 64.5t65.5 43t79.5 15.5q43 0 80.5 -15.5t65.5 -43t44 -64.5t16 -79q0 -41 -16 -77.5t-44 -63.5t-65.5 -43t-80.5 -16q-42 0 -79.5 16t-65.5 43t-44 63.5t-16 77.5z" />
    <glyph glyph-name="parenleft" unicode="(" horiz-adv-x="555" 
d="M305 627q0 -203 47.5 -401t135.5 -371q12 -22 13.5 -38.5t-3 -29.5t-14 -22t-21.5 -16l-122 -73q-74 114 -126 229t-85 233.5t-48.5 240t-15.5 248.5q0 126 15.5 248t48.5 240t85 233.5t126 228.5l122 -72q12 -7 21.5 -16t14 -22t3 -30t-13.5 -39q-88 -172 -135.5 -370
t-47.5 -401z" />
    <glyph glyph-name="parenright" unicode=")" horiz-adv-x="555" 
d="M250 627q0 203 -47.5 401t-135.5 370q-12 22 -13.5 39t3 30t14 22t20.5 16l123 72q73 -113 125 -228.5t85 -233.5t48.5 -240t15.5 -248q0 -127 -15.5 -248.5t-48.5 -240t-85 -233.5t-125 -229l-123 73q-11 7 -20.5 16t-14 22t-3 29.5t13.5 38.5q88 173 135.5 371
t47.5 401z" />
    <glyph glyph-name="bracketleft" unicode="[" horiz-adv-x="633" 
d="M158 -315v1867h428v-107q0 -28 -20.5 -48.5t-52.5 -20.5h-125v-1516h125q32 0 52.5 -20.5t20.5 -48.5v-106h-428z" />
    <glyph glyph-name="bracketright" unicode="]" horiz-adv-x="633" 
d="M48 1552h427v-1867h-427v106q0 28 20 48.5t52 20.5h125v1516h-125q-32 0 -52 20.5t-20 48.5v107z" />
    <glyph glyph-name="braceleft" unicode="{" horiz-adv-x="616" 
d="M166 404q0 60 -26 98t-88 38v156q62 0 88 38t26 98q0 46 -6.5 91.5t-14 92t-13.5 93t-6 94.5q0 78 22.5 142.5t70 110.5t120 71t171.5 25h53v-121q0 -15 -6.5 -25t-15.5 -17t-19 -10t-17 -3h-5q-67 0 -100.5 -41.5t-33.5 -114.5q0 -55 5 -105t11.5 -96.5t11.5 -91.5
t5 -91q0 -38 -10.5 -72.5t-30.5 -63t-49.5 -50t-67.5 -32.5q38 -11 67.5 -32.5t49.5 -50t30.5 -63t10.5 -71.5q0 -46 -5 -91.5t-11.5 -92t-11.5 -96.5t-5 -105q0 -72 33.5 -114t100.5 -42h5q7 0 17 -3t19 -10t15.5 -17t6.5 -25v-120h-53q-99 0 -171.5 25t-120 70.5t-70 110
t-22.5 142.5q0 48 6 94.5t13.5 93t14 92t6.5 91.5z" />
    <glyph glyph-name="braceright" unicode="}" horiz-adv-x="616" 
d="M450 404q0 -46 6 -91.5t13.5 -92t14 -93t6.5 -94.5q0 -78 -22.5 -142.5t-70 -110t-120 -70.5t-171.5 -25h-53v120q0 15 6 25t15 17t19 10t18 3h5q67 0 100.5 42t33.5 114q0 55 -5 105t-11.5 96.5t-11.5 92t-5 91.5q0 37 10.5 71.5t30.5 63t49.5 50t67.5 32.5
q-38 11 -67.5 32.5t-49.5 50t-30.5 63t-10.5 72.5q0 46 5 91t11.5 91.5t11.5 96.5t5 105q0 73 -33.5 114.5t-100.5 41.5h-5q-8 0 -18 3t-19 10t-15 17t-6 25v121h53q99 0 171.5 -25t120 -71t70 -110.5t22.5 -142.5q0 -48 -6.5 -94.5t-14 -93t-13.5 -92t-6 -91.5
q0 -60 26 -98t88 -38v-156q-62 0 -88 -38t-26 -98z" />
    <glyph glyph-name="asterisk" unicode="*" horiz-adv-x="850" 
d="M359 827v178q0 20 2.5 39t8.5 36q-12 -13 -27.5 -24t-32.5 -21l-152 -89l-65 109l153 89q18 11 36.5 18.5t38.5 10.5q-20 3 -38.5 11t-36.5 19l-153 91l64 108l153 -91q18 -11 33.5 -22t27.5 -25q-12 34 -12 75v181h131v-179q0 -21 -2.5 -40.5t-8.5 -36.5q12 14 27.5 25
t33.5 22l152 89l65 -108l-153 -89q-18 -11 -36.5 -18.5t-37.5 -11.5q37 -6 74 -29l153 -91l-64 -109l-153 91q-38 20 -62 47q12 -35 12 -75v-180h-131z" />
    <glyph glyph-name="dagger" unicode="&#x2020;" horiz-adv-x="1160" 
d="M66 911q0 23 7.5 44t23.5 37.5t40.5 26t57.5 9.5q30 0 63.5 -5.5t69 -12.5t72 -15t72.5 -14l-34 490q60 34 142 34t142 -34l-35 -490q36 6 73 14t72.5 15t69 12.5t63.5 5.5q33 0 57.5 -9.5t40.5 -26t23.5 -37.5t7.5 -44v-90h-407v-331l35 -809q-59 -35 -142 -35t-142 35
l35 809v331h-407v90z" />
    <glyph glyph-name="daggerdbl" unicode="&#x2021;" horiz-adv-x="1160" 
d="M66 330h407v491h-407v90q0 23 7.5 44t23.5 37.5t40.5 26t57.5 9.5q30 0 63.5 -5.5t69 -12.5t72 -15t72.5 -14l-34 490q60 34 142 34t142 -34l-35 -490q36 6 73 14t72.5 15t69 12.5t63.5 5.5q33 0 57.5 -9.5t40.5 -26t23.5 -37.5t7.5 -44v-90h-407v-491h407v-90
q0 -23 -7.5 -44t-23.5 -37t-40.5 -25.5t-57.5 -9.5q-30 0 -63.5 5t-69 11.5t-72.5 14.5t-73 14l35 -488q-59 -35 -142 -35t-142 35l34 488q-36 -6 -72.5 -14t-72 -14.5t-69 -11.5t-63.5 -5q-33 0 -57.5 9.5t-40.5 25.5t-23.5 37t-7.5 44v90z" />
    <glyph glyph-name="section" unicode="&#xa7;" horiz-adv-x="1014" 
d="M827 1237q-11 -17 -23 -24t-31 -7q-20 0 -41 9.5t-47.5 21.5t-60 21.5t-77.5 9.5q-78 0 -118 -31.5t-40 -78.5q0 -29 23.5 -52t62 -43t87.5 -39.5t100 -42t100 -49.5t87.5 -62.5t62 -81t23.5 -105.5q0 -80 -37 -146t-119 -108q45 -36 72 -85t27 -117q0 -75 -27.5 -138.5
t-81 -109.5t-132.5 -72t-182 -26q-53 0 -105 9.5t-99 27t-88 40.5t-71 50l64 103q11 18 28 28t43 10q25 0 46 -12.5t48 -27t64.5 -27t94.5 -12.5q75 0 116 29.5t41 83.5q0 39 -24 66t-63 48.5t-88.5 39.5t-101.5 38t-101.5 45.5t-88.5 61t-63 83.5t-24 115q0 79 40 141.5
t123 100.5q-45 39 -73 93t-28 131q0 64 25 122t75 102t124 70t173 26q109 0 199.5 -36.5t147.5 -94.5zM327 725q0 -39 27 -67.5t70 -51.5t97 -44t109 -46q35 20 50 46.5t15 58.5q0 40 -26 68.5t-68.5 51.5t-95.5 44t-107 45q-38 -21 -54.5 -46.5t-16.5 -58.5z" />
    <glyph glyph-name="paragraph" unicode="&#xb6;" horiz-adv-x="1504" 
d="M1432 1451v-227h-212v-1436h-241v1436h-217v-1436h-240v831q-104 0 -189 33t-145 89.5t-92.5 132t-32.5 159.5q0 92 32.5 169t92.5 132.5t145 86t189 30.5h910z" />
    <glyph glyph-name="asciicircum" unicode="^" horiz-adv-x="1160" 
d="M1075 676h-202q-25 0 -41.5 12t-26.5 32l-174 363q-17 34 -30 65t-23 61q-9 -30 -21 -61t-27 -65l-161 -363q-8 -19 -26 -31.5t-45 -12.5h-213l401 775h179z" />
    <glyph glyph-name="asciitilde" unicode="~" horiz-adv-x="1160" 
d="M741 661q53 0 81.5 33.5t28.5 96.5h222q0 -81 -21 -145.5t-61.5 -110.5t-99 -70.5t-132.5 -24.5q-53 0 -101 13t-90 28t-77.5 28t-65.5 13q-53 0 -81.5 -33.5t-28.5 -96.5h-222q0 81 21 146t61.5 110.5t99 70.5t132.5 25q53 0 101 -13t90 -28.5t77.5 -28.5t65.5 -13z" />
    <glyph glyph-name="quotesingle" unicode="'" horiz-adv-x="429" 
d="M334 1451v-287l-24 -157q-8 -48 -28.5 -74t-67.5 -26q-41 0 -63 26t-32 74l-25 157v287h240z" />
    <glyph glyph-name="quotedbl" unicode="&#x22;" horiz-adv-x="811" 
d="M94 907zM334 1451v-287l-24 -157q-8 -48 -28.5 -74t-67.5 -26q-41 0 -63 26t-32 74l-25 157v287h240zM716 1451v-287l-24 -157q-8 -48 -28.5 -74t-67.5 -26q-41 0 -63 26t-32 74l-25 157v287h240z" />
    <glyph glyph-name="ampersand" unicode="&#x26;" horiz-adv-x="1456" 
d="M674 1467q92 0 164 -27.5t122 -73.5t78.5 -105t34.5 -123l-176 -36q-49 -10 -71 40q-20 52 -55.5 85.5t-96.5 33.5q-38 0 -68 -13.5t-50.5 -36.5t-31 -53.5t-10.5 -64.5q0 -28 5.5 -54t18 -52.5t33.5 -54.5t51 -60l373 -391q31 61 49 129t24 139q3 26 17.5 41t39.5 15
h173q-1 -138 -39 -261t-107 -226l304 -318h-271q-21 0 -37.5 2t-30.5 8t-27 16t-27 25l-83 86q-95 -73 -210.5 -113t-247.5 -40q-85 0 -167 29.5t-146 84t-103 132t-39 174.5q0 67 21 126.5t59 111t90.5 93t115.5 72.5q-50 74 -72.5 144.5t-22.5 139.5q0 76 28 144.5t81 120
t130.5 81.5t176.5 30zM571 200q78 0 144.5 22.5t121.5 63.5l-361 376q-69 -50 -98.5 -109.5t-29.5 -126.5q0 -52 17 -93.5t47 -71t71 -45.5t88 -16z" />
    <glyph glyph-name="at" unicode="@" horiz-adv-x="1692" 
d="M1192 183q-66 0 -120 30t-78 99q-59 -69 -125 -98.5t-141 -29.5q-64 0 -111.5 22t-79.5 61.5t-48 93.5t-16 117q0 57 14.5 115.5t43.5 113t73 102.5t103 83.5t133.5 56t165.5 20.5q41 0 75 -3t64 -9t56.5 -15t53.5 -20l-97 -375q-14 -59 -14.5 -97.5t10.5 -60.5
t31.5 -30.5t47.5 -8.5q39 0 74 26t61 72.5t41 110t15 138.5q0 127 -39 224.5t-109.5 162.5t-169.5 98.5t-218 33.5q-87 0 -165.5 -22t-145.5 -62.5t-121 -97.5t-92 -127t-58.5 -150.5t-20.5 -168.5q0 -162 50 -285t137.5 -205t206.5 -123.5t258 -41.5q78 0 144.5 8.5
t122 22.5t99.5 32t77 37q29 16 50.5 9.5t31.5 -32.5l38 -97q-103 -68 -242.5 -111t-320.5 -43q-184 0 -340 57.5t-269.5 165t-177.5 261t-64 345.5q0 106 28 207t79 190t123.5 163.5t161.5 128t192.5 83.5t217.5 30q95 0 186.5 -21.5t173 -63t150 -102t118 -137.5t77 -169.5
t27.5 -199.5t-32 -200.5t-89 -163.5t-135.5 -110t-171.5 -40zM783 358q24 0 48 7.5t46 26t39.5 49t29.5 77.5l72 278q-14 2 -28.5 3t-29.5 1q-57 0 -107 -25.5t-87.5 -69t-59 -100.5t-21.5 -120q0 -62 25 -94.5t73 -32.5z" />
    <glyph glyph-name="copyright" unicode="&#xa9;" horiz-adv-x="1642" 
d="M1035 526q11 0 20.5 -5.5t17.5 -13.5l91 -95q-55 -73 -141.5 -111t-201.5 -38q-101 0 -182 36t-138 99t-88 148t-31 183q0 102 35.5 187t97.5 147t146 96.5t181 34.5q113 0 194 -38.5t134 -97.5l-72 -99q-7 -8 -18.5 -17t-28.5 -9q-19 0 -33.5 9.5t-34.5 21t-49.5 21
t-77.5 9.5q-56 0 -98.5 -18.5t-72 -53t-44.5 -83.5t-15 -110q0 -65 15.5 -114t43.5 -83t66.5 -51t83.5 -17q48 0 77.5 8.5t50 19t36 20.5t36.5 14zM80 726q0 102 26.5 197t74.5 177t116 150t150 116t176.5 74.5t196.5 26.5t197 -26.5t177.5 -74.5t150 -116t116 -150t75 -177
t26.5 -197t-26.5 -196.5t-75 -176.5t-116 -150t-150 -116t-177.5 -74.5t-197 -26.5t-196.5 26.5t-176.5 74.5t-150 116t-116 150t-74.5 176.5t-26.5 196.5zM229 726q0 -129 45.5 -240.5t125 -194t187.5 -130t233 -47.5t234 47.5t189.5 130t127 194t46.5 240.5q0 86 -21 165
t-59.5 147.5t-92.5 124.5t-120.5 96t-143.5 61.5t-160 21.5q-125 0 -233 -48t-187.5 -131t-125 -195.5t-45.5 -241.5z" />
    <glyph glyph-name="registered" unicode="&#xae;" horiz-adv-x="1642" 
d="M80 726q0 102 26.5 197t74.5 177t116 150t150 116t176.5 74.5t196.5 26.5t197 -26.5t177.5 -74.5t150 -116t116 -150t75 -177t26.5 -197t-26.5 -196.5t-75 -176.5t-116 -150t-150 -116t-177.5 -74.5t-197 -26.5t-196.5 26.5t-176.5 74.5t-150 116t-116 150t-74.5 176.5
t-26.5 196.5zM229 726q0 -129 45.5 -240.5t125 -194t187.5 -130t233 -47.5q121 0 226 43.5t185 121.5h-215q-49 0 -69 35l-121 249q-10 15 -22.5 22.5t-37.5 7.5h-44v-314h-239v899h335q193 0 282 -68t89 -195q0 -87 -43.5 -154.5t-137.5 -99.5q26 -14 43.5 -35t32.5 -50
l156 -288q83 83 130 195t47 243q0 86 -21 165t-59.5 147.5t-92.5 124.5t-120.5 96t-143.5 61.5t-160 21.5q-125 0 -233 -48t-187.5 -131t-125 -195.5t-45.5 -241.5zM722 760h77q50 0 80.5 8t47 24t22 39t5.5 53q0 29 -5 50.5t-19.5 36t-41.5 22t-70 7.5h-96v-240z" />
    <glyph glyph-name="trademark" unicode="&#x2122;" horiz-adv-x="1518" 
d="M984 1185q8 -20 15.5 -38.5t13.5 -37.5q12 38 32 76l118 238q14 19 26 23.5t35 4.5h163v-608h-166v280l13 105l-141 -287q-20 -40 -65 -40h-27q-21 0 -38 10t-26 30l-137 283l11 -101v-280h-166v608h164q24 0 35 -4.5t26 -23.5zM583 1451v-153h-158v-455h-189v455h-157
v153h504z" />
    <glyph glyph-name="degree" unicode="&#xb0;" horiz-adv-x="831" 
d="M61 1121q0 72 27 135.5t75 111t112.5 74.5t139.5 27t140 -27t112.5 -74.5t75 -111t27.5 -135.5q0 -71 -27.5 -133.5t-75 -110t-112.5 -75t-140 -27.5t-139.5 27.5t-112.5 75t-75 110t-27 133.5zM252 1120q0 -36 12 -66.5t34 -53t51.5 -35.5t65.5 -13q35 0 65 13
t51.5 35.5t33.5 53t12 66.5t-12 67t-33.5 54t-51.5 36t-65 13q-36 0 -65.5 -13t-51.5 -36t-34 -54t-12 -67z" />
    <glyph glyph-name="Euro" unicode="&#x20ac;" horiz-adv-x="1160" 
d="M27 938h128q24 120 74.5 217.5t123 166.5t164 106t197.5 37q141 0 241.5 -54.5t166.5 -146.5l-98 -104q-11 -12 -23 -21.5t-34 -9.5t-39.5 16t-41.5 35.5t-61 35.5t-99 16q-107 0 -181.5 -74t-105.5 -220h483v-83q0 -24 -20.5 -45.5t-55.5 -21.5h-426q-1 -15 -1 -30.5
v-31.5v-42h407v-83q0 -24 -20.5 -45.5t-54.5 -21.5h-317q27 -159 100 -237t180 -78q45 0 77.5 9t56 22t39.5 28.5t29.5 28.5t26 22t28.5 9q13 0 21.5 -3.5t18.5 -14.5l120 -108q-69 -110 -179 -168t-253 -58q-118 0 -211.5 39.5t-162.5 111.5t-113 173t-63 224h-122v150h109
q-1 11 -1 21v21q0 16 0.5 31t1.5 31h-110v150z" />
    <glyph glyph-name="dollar" unicode="$" horiz-adv-x="1160" 
d="M450 -7q-58 8 -113.5 24.5t-106.5 40t-95.5 53t-80.5 64.5l85 125q11 16 30 26.5t39 10.5q23 0 48 -14t55.5 -33.5t69 -39.5t89.5 -31l38 415q-48 13 -95.5 29.5t-91.5 38.5t-81.5 51.5t-65.5 70.5t-44 94.5t-16 123.5q0 78 31 151.5t90.5 131.5t146.5 95.5t200 43.5
l11 119q2 26 22.5 46.5t51.5 20.5h102l-18 -196q107 -19 184.5 -62.5t132.5 -96.5l-68 -100q-14 -23 -30 -33.5t-38 -10.5q-15 0 -35.5 8.5t-46 21t-55.5 25.5t-65 22l-35 -388q72 -22 143 -48.5t128 -69t92 -106t35 -157.5q0 -93 -32 -175.5t-92.5 -146t-149 -103.5
t-201.5 -48l-12 -136q-2 -26 -22 -47t-52 -21h-101zM831 417q0 34 -12 59.5t-33 45.5t-50.5 35.5t-63.5 27.5l-33 -371q95 14 143.5 65.5t48.5 137.5zM373 1069q0 -34 11.5 -60.5t32.5 -47.5t50 -37.5t64 -30.5l30 340q-51 -7 -87 -22.5t-58.5 -37t-32.5 -48t-10 -56.5z" />
    <glyph glyph-name="cent" unicode="&#xa2;" horiz-adv-x="1160" 
d="M523 -7q-88 14 -163.5 55.5t-131 108t-87 157t-31.5 202.5q0 109 33.5 203t98 164.5t160 113t219.5 48.5l14 149q3 25 22.5 46t51.5 21h101l-21 -228q78 -16 141 -49.5t117 -84.5l-71 -95q-11 -15 -22.5 -23t-32.5 -8q-14 0 -29 6t-33 14.5t-39.5 18t-49.5 17.5l-60 -639
q49 6 81.5 19.5t56.5 28t43 25.5t41 11q16 0 29 -6t21 -16l76 -97q-37 -42 -80 -72t-90 -49.5t-96.5 -30.5t-99.5 -15l-13 -138q-2 -25 -22 -46t-51 -21h-102zM382 516q0 -121 41.5 -199t119.5 -110l59 631q-113 -18 -166.5 -102t-53.5 -220z" />
    <glyph glyph-name="sterling" unicode="&#xa3;" horiz-adv-x="1160" 
d="M32 682q0 37 23 63.5t69 26.5h97v227q0 94 28.5 179t86.5 149.5t145.5 102t206.5 37.5q80 0 144.5 -20.5t115 -56t88.5 -84t65 -104.5l-110 -70q-38 -20 -73.5 -17.5t-64.5 34.5q-19 21 -36.5 37.5t-36.5 28.5t-41.5 18t-50.5 6q-94 0 -139 -62.5t-45 -176.5v-228h395
v-107q0 -13 -5.5 -25.5t-16 -22.5t-24.5 -16t-31 -6h-318v-177q0 -63 -23.5 -113.5t-64.5 -93.5q40 8 80 13.5t82 5.5h548v-114q0 -20 -8.5 -41t-24 -37.5t-37 -27t-48.5 -10.5h-957v169q33 7 64 21t54.5 35t37.5 51t14 69v250h-189v87z" />
    <glyph glyph-name="yen" unicode="&#xa5;" horiz-adv-x="1160" 
d="M132 635h263l-395 816h230q38 0 63 -18t37 -48l195 -459q20 -48 34 -89.5t23 -81.5q9 41 22 82t33 89l193 459q11 25 36 45.5t63 20.5h231l-395 -816h263v-149h-310v-93h310v-149h-310v-244h-276v244h-310v149h310v93h-310v149z" />
    <glyph glyph-name="numbersign" unicode="#" horiz-adv-x="1160" 
d="M842 402l-74 -402h-127q-19 0 -35.5 9t-28 24.5t-16 35.5t0.5 43l53 290h-186l-54 -304q-10 -53 -45 -75.5t-79 -22.5h-122l73 402h-103q-42 0 -59.5 24.5t-8.5 84.5l14 87h184l47 257h-207l21 114q8 42 35.5 62t86.5 20h91l58 309q8 42 40.5 66.5t75.5 24.5h126
l-74 -400h187l74 400h123q43 0 68.5 -26.5t18.5 -66.5l-57 -307h198l-21 -114q-8 -42 -35 -62t-86 -20h-83l-47 -257h127q42 0 59.5 -25t8.5 -85l-14 -86h-208zM455 598h187l47 257h-187z" />
    <glyph glyph-name="zero" unicode="0" horiz-adv-x="1160" 
d="M1115 726q0 -190 -41 -330t-113 -231.5t-170.5 -136t-212.5 -44.5t-212 44.5t-169 136t-111.5 231.5t-40.5 330t40.5 329.5t111.5 231t169 136t212 44.5t212.5 -44.5t170.5 -136t113 -231t41 -329.5zM830 726q0 154 -21.5 254t-56.5 158t-80.5 81t-93.5 23t-92.5 -23
t-79 -81t-55.5 -158t-21 -254q0 -155 21 -255t55.5 -158t79 -81t92.5 -23t93.5 23t80.5 81t56.5 158t21.5 255z" />
    <glyph glyph-name="one" unicode="1" horiz-adv-x="1160" 
d="M228 203h288v794q0 51 3 107l-189 -157q-20 -15 -39 -19t-36 -0.5t-30 12t-20 17.5l-87 117l446 378h227v-1249h251v-203h-814v203z" />
    <glyph glyph-name="two" unicode="2" horiz-adv-x="1160" 
d="M595 1467q103 0 187.5 -30.5t144.5 -85t93 -131.5t33 -170q0 -80 -23 -148t-62.5 -129.5t-91.5 -119.5t-110 -117l-308 -315q51 14 101 23t94 9h326q45 0 70.5 -25t25.5 -66v-162h-1006v90q0 26 11 56.5t37 55.5l430 431q55 55 97 105.5t70 99t42 98.5t14 105
q0 97 -50 147.5t-141 50.5q-40 0 -73.5 -11.5t-60 -31.5t-45.5 -47t-28 -59q-18 -50 -48.5 -66.5t-86.5 -7.5l-146 26q16 106 60 186t110 133t151 79.5t183 26.5z" />
    <glyph glyph-name="three" unicode="3" horiz-adv-x="1160" 
d="M602 1467q104 0 186.5 -29.5t139.5 -80.5t87.5 -119t30.5 -146q0 -69 -15 -121.5t-43.5 -91.5t-70 -66t-95.5 -45q251 -84 251 -333q0 -111 -41 -195.5t-110 -141.5t-160.5 -85.5t-191.5 -28.5q-106 0 -187 24t-142.5 72t-105.5 120.5t-77 169.5l122 50q48 20 89.5 11
t59.5 -44q20 -38 42.5 -70t50.5 -55.5t63.5 -36.5t81.5 -13q58 0 101 19t72 49.5t43.5 69t14.5 76.5q0 50 -9 90.5t-41.5 69t-96 44t-172.5 15.5v194q91 0 149 15t91 42t45.5 65t12.5 83q0 95 -49.5 145t-140.5 50q-40 0 -73.5 -11.5t-60 -31.5t-45.5 -47t-28 -59
q-19 -50 -49 -66.5t-87 -7.5l-145 26q16 106 60 186t110 133t150.5 79.5t182.5 26.5z" />
    <glyph glyph-name="four" unicode="4" horiz-adv-x="1160" 
d="M944 554h168v-156q0 -22 -14.5 -37.5t-40.5 -15.5h-113v-345h-240v345h-599q-26 0 -47.5 16t-26.5 42l-29 138l680 911h262v-898zM704 986q0 34 2 72t7 80l-419 -584h410v432z" />
    <glyph glyph-name="five" unicode="5" horiz-adv-x="1160" 
d="M1006 1335q0 -29 -8.5 -52.5t-28 -41t-50 -27t-74.5 -9.5h-375l-48 -274q45 8 87 12.5t81 4.5q114 0 201.5 -34.5t147 -94.5t89.5 -141t30 -174q0 -116 -41 -211.5t-113.5 -164t-173 -106.5t-219.5 -38q-69 0 -132 14.5t-117.5 39t-101.5 56.5t-84 67l85 116q27 37 70 37
q27 0 53 -16t59 -35.5t77 -35.5t107 -16q65 0 113 21.5t79.5 59t47 89t15.5 110.5q0 113 -64.5 174.5t-187.5 61.5q-101 0 -203 -38l-171 48l122 714h728v-116z" />
    <glyph glyph-name="seven" unicode="7" horiz-adv-x="1160" 
d="M1097 1451v-118q0 -52 -11.5 -84t-22.5 -54l-528 -1103q-20 -38 -54 -65t-92 -27h-200l541 1077q20 38 41 69t47 59h-669q-24 0 -43.5 19t-19.5 43v184h1011z" />
    <glyph glyph-name="nine" unicode="9" horiz-adv-x="1160" 
d="M641 557q15 19 29 37l28 36q-48 -28 -104.5 -42.5t-119.5 -14.5q-73 0 -144.5 26t-128.5 78t-92 130.5t-35 184.5q0 97 36 183.5t102 151t158.5 102.5t205.5 38q114 0 205 -35.5t154 -99.5t97 -152.5t34 -194.5q0 -69 -11 -131t-32 -118t-50.5 -109t-66.5 -104l-323 -461
q-20 -26 -57.5 -44t-85.5 -18h-254zM803 1011q0 57 -17 100.5t-47.5 73.5t-72.5 45.5t-93 15.5q-52 0 -93 -17.5t-70 -49t-44.5 -74.5t-15.5 -93q0 -115 56.5 -175t165.5 -60q55 0 98.5 17.5t72.5 48.5t44.5 74t15.5 94z" />
    <glyph glyph-name="fraction" unicode="&#x2044;" horiz-adv-x="280" 
d="M-157 77q-29 -45 -61.5 -61t-75.5 -16h-117l840 1362q27 42 61 65.5t82 23.5h118z" />
    <glyph glyph-name="plus" unicode="+" horiz-adv-x="1160" 
d="M691 1176v-404h380v-201h-380v-405h-224v405h-378v201h378v404h224z" />
    <glyph glyph-name="divide" unicode="&#xf7;" horiz-adv-x="1160" 
d="M89 772h982v-201h-982v201zM416 1027q0 33 12.5 62.5t34.5 51t51.5 34t64.5 12.5q34 0 63.5 -12.5t51.5 -34t35 -51t13 -62.5q0 -34 -13 -63t-35 -50.5t-51.5 -33.5t-63.5 -12q-35 0 -64.5 12t-51.5 33.5t-34.5 50.5t-12.5 63zM416 315q0 33 12.5 62.5t34.5 51t51.5 34
t64.5 12.5q34 0 63.5 -12.5t51.5 -34t35 -51t13 -62.5q0 -34 -13 -63t-35 -50.5t-51.5 -33.5t-63.5 -12q-35 0 -64.5 12t-51.5 33.5t-34.5 50.5t-12.5 63z" />
    <glyph glyph-name="equal" unicode="=" horiz-adv-x="1160" 
d="M132 593h896v-201h-896v201zM132 952h896v-201h-896v201z" />
    <glyph glyph-name="notequal" unicode="&#x2260;" horiz-adv-x="1160" 
d="M132 952h507l109 213h196l-109 -213h193v-201h-296l-81 -158h377v-201h-480l-117 -230h-197l118 230h-220v201h323l81 158h-404v201z" />
    <glyph glyph-name="approxequal" unicode="&#x2248;" horiz-adv-x="1160" 
d="M792 910q33 0 63.5 7.5t55 18t42 21.5t24.5 19l32 -173q-40 -52 -104 -75t-131 -23q-53 0 -106 15t-104 33.5t-98.5 33.5t-90.5 15q-33 0 -64.5 -7.5t-57 -18.5t-43 -22.5t-24.5 -20.5l-38 165q40 57 106 82.5t139 25.5q53 0 106 -15t104 -33t98.5 -33t90.5 -15zM792 547
q33 0 63.5 7.5t55 18t42 21.5t24.5 19l32 -172q-40 -52 -104 -75t-131 -23q-53 0 -106 15t-104 33t-98.5 33t-90.5 15q-33 0 -64.5 -7.5t-57 -18t-43 -22.5t-24.5 -21l-38 166q40 57 106 82.5t139 25.5q53 0 106 -15t104 -33.5t98.5 -33.5t90.5 -15z" />
    <glyph glyph-name="less" unicode="&#x3c;" horiz-adv-x="1160" 
d="M147 729l801 418v-194q0 -21 -10.5 -39t-36.5 -30l-327 -172q-25 -12 -52 -21t-57 -17q30 -7 57 -16.5t52 -21.5l327 -171q26 -12 36.5 -30t10.5 -40v-194l-801 419v109z" />
    <glyph glyph-name="greater" unicode="&#x3e;" horiz-adv-x="1160" 
d="M212 201v194q0 22 10.5 40t36.5 30l327 171q24 12 51.5 21t58.5 17q-61 13 -110 38l-327 172q-26 12 -36.5 30t-10.5 39v194l801 -418v-109z" />
    <glyph glyph-name="plusminus" unicode="&#xb1;" horiz-adv-x="1160" 
d="M691 1255v-346h380v-201h-380v-331h-224v331h-378v201h378v346h224zM89 281h982v-201h-982v201z" />
    <glyph glyph-name="lessequal" unicode="&#x2264;" horiz-adv-x="1160" 
d="M168 857l801 380v-185q0 -22 -12 -41.5t-47 -33.5l-315 -139q-58 -22 -122 -35q34 -8 64 -16.5t58 -19.5l314 -142q35 -14 47.5 -34t12.5 -41v-185l-801 383v109zM168 281h801v-201h-801v201z" />
    <glyph glyph-name="greaterequal" unicode="&#x2265;" horiz-adv-x="1160" 
d="M992 857v-109l-801 -383v185q0 21 12.5 41t47.5 34l314 142q27 11 57.5 19.5t64.5 16.5q-64 13 -122 35l-315 139q-35 14 -47 33.5t-12 41.5v185zM992 80h-801v201h801v-201z" />
    <glyph glyph-name="logicalnot" unicode="&#xac;" horiz-adv-x="1160" 
d="M126 772h897v-482h-233v281h-664v201z" />
    <glyph glyph-name="infinity" unicode="&#x221e;" horiz-adv-x="1459" 
d="M1040 224q-55 0 -100 14t-83 38t-69 56.5t-58 69.5q-27 -37 -58.5 -69.5t-69.5 -56.5t-83 -38t-100 -14q-68 0 -129 27t-107.5 76t-73.5 116.5t-27 148.5t27 148t73.5 116t107.5 76t129 27q55 0 100 -14t83 -38.5t69.5 -57t58.5 -68.5q27 36 58 68.5t69 57t83 38.5
t100 14q68 0 129 -27t107.5 -76t73.5 -116t27 -148t-27 -148.5t-73.5 -116.5t-107.5 -76t-129 -27zM431 442q28 0 52 11.5t46 31.5t42 47t40 59q-20 32 -40 59.5t-42 47.5t-46 31.5t-52 11.5q-26 0 -50 -8t-42.5 -26t-29.5 -46.5t-11 -68.5q0 -41 11 -69.5t29.5 -46.5
t42.5 -26t50 -8zM1029 442q26 0 50 8t42 26t29 46.5t11 69.5q0 40 -11 68.5t-29 46.5t-42 26t-50 8q-29 0 -53 -11.5t-46 -31.5t-42 -47.5t-39 -59.5q19 -32 39 -59t42 -47t46 -31.5t53 -11.5z" />
    <glyph glyph-name="partialdiff" unicode="&#x2202;" horiz-adv-x="1172" 
d="M292 1334q42 31 83 55t86.5 40.5t97.5 25.5t114 9q94 0 174 -38t138.5 -110t91 -175.5t32.5 -233.5q0 -210 -38 -380t-115 -290.5t-193 -186t-272 -65.5q-93 0 -172 30t-136 86.5t-89.5 136.5t-32.5 179q0 117 40.5 217.5t111 174.5t166 116t206.5 42q95 0 162 -31.5
t114 -89.5v59q0 87 -16.5 152t-46.5 108t-71.5 64.5t-91.5 21.5q-36 0 -68.5 -10t-61 -22t-52 -22t-40.5 -10q-14 0 -29 8.5t-31 34.5zM523 194q48 0 94 20t86 65t71 118t49 178q-9 36 -25 69.5t-41 58.5t-60 40t-83 15q-69 0 -119.5 -25t-83.5 -69.5t-49 -106.5t-16 -136
q0 -109 46.5 -168t130.5 -59z" />
    <glyph glyph-name="integral" unicode="&#x222b;" horiz-adv-x="998" 
d="M433 1233q13 104 47.5 180t87.5 125.5t122 73.5t152 24q37 0 79.5 -8t80.5 -28l-14 -113q-2 -14 -5.5 -24.5t-12.5 -17.5t-24 -10.5t-39 -3.5q-57 0 -95.5 -10.5t-62.5 -33.5t-36 -59t-18 -87l-128 -1177q-13 -105 -47.5 -181t-87.5 -125.5t-122.5 -73t-151.5 -23.5
q-37 0 -79.5 7.5t-80.5 27.5l14 114q2 14 5.5 24.5t12.5 17t24 10t39 3.5q57 0 95.5 11t62.5 34t36 59t18 86z" />
    <glyph glyph-name="radical" unicode="&#x221a;" horiz-adv-x="1238" 
d="M694 0h-232l-234 634h-98q-21 0 -39.5 6t-33 18.5t-23 33.5t-8.5 51v86h360q30 0 50.5 -14t27.5 -36l82 -274q14 -45 23.5 -89.5t15.5 -91.5q12 72 34 147l367 1183q7 21 27 35.5t47 14.5h182z" />
    <glyph glyph-name="product" unicode="&#x220f;" horiz-adv-x="1422" 
d="M1352 1451v-227h-160v-1557h-284v1557h-394v-1557h-284v1557h-160v227h1282z" />
    <glyph glyph-name="summation" unicode="&#x2211;" horiz-adv-x="1367" 
d="M70 1451h1212v-227h-789l492 -625v-79l-492 -626h789v-227h-1212v94q0 20 7 42t22 39l581 721l-581 713q-15 18 -22 39.5t-7 41.5v94z" />
    <glyph glyph-name="lozenge" unicode="&#x25ca;" horiz-adv-x="1160" 
d="M72 726l412 808h192l412 -808l-412 -808h-192zM341 726l177 -387q22 -46 37 -91t25 -91q11 45 25.5 90t37.5 90l181 389l-187 400q-39 80 -57 164q-9 -42 -22 -82t-32 -79z" />
    <glyph glyph-name="florin" unicode="&#x192;" horiz-adv-x="712" 
d="M171 833l-79 14q-32 6 -51 22t-19 46v110h149v68q0 88 27.5 159.5t79 121t125.5 76.5t167 27q36 0 68.5 -4.5t65.5 -13.5l-6 -136q-2 -31 -26.5 -40.5t-54.5 -9.5q-42 0 -75.5 -9t-56.5 -30.5t-35 -58t-12 -90.5v-60h256v-192h-247v-820q0 -89 -22.5 -164t-69.5 -129
t-121.5 -84.5t-177.5 -30.5q-28 0 -52 2.5t-47 7.5t-46.5 12.5t-48.5 18.5l30 118q9 32 24.5 42t35.5 10q8 0 15.5 -1.5t16.5 -4t20.5 -4t26.5 -1.5q71 0 105.5 42.5t34.5 133.5v852z" />
    <glyph glyph-name="l" unicode="l" horiz-adv-x="508" 
d="M392 1491v-1491h-276v1491h276z" />
    <glyph glyph-name="six" unicode="6" horiz-adv-x="1160" 
d="M542 930q-24 -27 -45 -54q38 17 82.5 26.5t95.5 9.5q81 0 158 -27t137 -81t96.5 -135.5t36.5 -191.5q0 -101 -37.5 -191t-106 -157t-164 -106t-212.5 -39q-119 0 -213 37.5t-160 105.5t-101 162.5t-35 208.5q0 105 41.5 213t126.5 222l337 454q20 26 59 45t89 19h245z
M339 458q0 -57 15 -103.5t45 -79.5t74.5 -51t104.5 -18q54 0 100 19t79 53t52 79.5t19 99.5q0 59 -18 106t-51 79.5t-79 49.5t-102 17q-53 0 -97 -18.5t-75.5 -52t-49 -79.5t-17.5 -101z" />
    <glyph glyph-name="eight" unicode="8" horiz-adv-x="1160" 
d="M580 -16q-114 0 -208 30.5t-161 86t-104 134.5t-37 176q0 124 60 212.5t192 132.5q-103 45 -153.5 126t-50.5 193q0 84 34 155.5t95.5 124t146.5 82.5t186 30t186 -30t146.5 -82.5t95.5 -124t34 -155.5q0 -112 -51 -193t-153 -126q131 -44 191.5 -132.5t60.5 -212.5
q0 -97 -37 -176t-104 -134.5t-161 -86t-208 -30.5zM580 195q57 0 99.5 17t70.5 46.5t42 70t14 87.5q0 108 -55.5 167.5t-170.5 59.5t-170.5 -59.5t-55.5 -167.5q0 -47 14 -87.5t42 -70t70.5 -46.5t99.5 -17zM580 856q57 0 94 18t59 48t31 68.5t9 79.5q0 38 -11 73
t-34.5 61.5t-60 42.5t-87.5 16t-87.5 -16t-60 -42.5t-34.5 -61.5t-11 -73q0 -41 9 -79.5t31 -68.5t59 -48t94 -18z" />
    <glyph glyph-name="percent" unicode="%" horiz-adv-x="1654" 
d="M755 1100q0 -81 -28 -147t-75.5 -113.5t-109.5 -73t-129 -25.5q-74 0 -136 25.5t-107.5 73t-71 113.5t-25.5 147q0 84 25.5 151.5t71 115t107.5 73.5t136 26t137 -26t108.5 -73.5t71 -115t25.5 -151.5zM543 1100q0 54 -10 90.5t-27.5 58.5t-41.5 31.5t-51 9.5t-50.5 -9.5
t-40 -31.5t-26 -58.5t-9.5 -90.5q0 -53 9.5 -88t26 -56.5t40 -30.5t50.5 -9t51 9t41.5 30.5t27.5 56.5t10 88zM1225 1409q14 16 33.5 29t54.5 13h201l-1085 -1411q-14 -17 -34 -28.5t-49 -11.5h-205zM1581 341q0 -81 -28 -147t-75.5 -113.5t-109.5 -73t-129 -25.5
q-74 0 -136 25.5t-107.5 73t-71 113.5t-25.5 147q0 84 25.5 151.5t71 115t107.5 73t136 25.5t137 -25.5t108.5 -73t71 -115t25.5 -151.5zM1369 341q0 54 -10 90.5t-27.5 58.5t-41.5 31.5t-51 9.5t-50.5 -9.5t-40 -31.5t-26 -58.5t-9.5 -90.5q0 -53 9.5 -88t26 -56.5
t40 -30.5t50.5 -9t51 9t41.5 30.5t27.5 56.5t10 88z" />
    <glyph glyph-name="exclamdown" unicode="&#xa1;" horiz-adv-x="555" 
d="M150 -333v531q0 91 9.5 180t26.5 186h186q17 -97 26.5 -186t9.5 -180v-531h-258zM113 888q0 34 12.5 63t34 50.5t51.5 33.5t65 12q34 0 63.5 -12t51.5 -33.5t35 -50.5t13 -63q0 -33 -13 -62.5t-35 -51t-51.5 -34t-63.5 -12.5q-35 0 -65 12.5t-51.5 34t-34 51t-12.5 62.5z
" />
    <glyph glyph-name="questiondown" unicode="&#xbf;" horiz-adv-x="923" 
d="M864 -200q-36 -31 -77.5 -58t-90.5 -47t-105 -31.5t-121 -11.5q-90 0 -163.5 23.5t-125 67t-80 106.5t-28.5 142q0 76 21.5 129t54 90t71.5 62.5t74 48t60.5 45.5t31.5 55l25 143h189l19 -162q6 -52 -12.5 -86.5t-51 -60.5t-72 -47t-73.5 -46.5t-57.5 -60t-23.5 -86.5
q0 -66 45.5 -105.5t120.5 -39.5q54 0 92 12t64.5 26.5t45.5 26.5t36 12q39 0 58 -33zM348 887q0 33 12.5 62.5t34.5 51t51.5 34t64.5 12.5q34 0 64 -12.5t52 -34t34.5 -51t12.5 -62.5q0 -34 -12.5 -63t-34.5 -50.5t-52 -33.5t-64 -12q-35 0 -64.5 12t-51.5 33.5t-34.5 50.5
t-12.5 63z" />
    <glyph glyph-name="perthousand" unicode="&#x2030;" horiz-adv-x="2391" 
d="M755 1100q0 -81 -28 -147t-75.5 -113.5t-109.5 -73t-129 -25.5q-74 0 -136 25.5t-107.5 73t-71 113.5t-25.5 147q0 84 25.5 151.5t71 115t107.5 73.5t136 26t137 -26t108.5 -73.5t71 -115t25.5 -151.5zM543 1100q0 54 -10 90.5t-27.5 58.5t-41.5 31.5t-51 9.5t-50.5 -9.5
t-40 -31.5t-26 -58.5t-9.5 -90.5q0 -53 9.5 -88t26 -56.5t40 -30.5t50.5 -9t51 9t41.5 30.5t27.5 56.5t10 88zM1225 1409q14 16 33.5 29t54.5 13h201l-1085 -1411q-14 -17 -34 -28.5t-49 -11.5h-205zM1581 341q0 -81 -28 -147t-75.5 -113.5t-109.5 -73t-129 -25.5
q-74 0 -136 25.5t-107.5 73t-71 113.5t-25.5 147q0 84 25.5 151.5t71 115t107.5 73t136 25.5t137 -25.5t108.5 -73t71 -115t25.5 -151.5zM1369 341q0 54 -10 90.5t-27.5 58.5t-41.5 31.5t-51 9.5t-50.5 -9.5t-40 -31.5t-26 -58.5t-9.5 -90.5q0 -53 9.5 -88t26 -56.5
t40 -30.5t50.5 -9t51 9t41.5 30.5t27.5 56.5t10 88zM2325 341q0 -81 -28 -147t-75 -113.5t-109 -73t-130 -25.5q-74 0 -136 25.5t-107 73t-70.5 113.5t-25.5 147q0 84 25.5 151.5t70.5 115t107 73t136 25.5t137 -25.5t108.5 -73t71 -115t25.5 -151.5zM2113 341
q0 54 -10 90.5t-27.5 58.5t-41 31.5t-51.5 9.5q-27 0 -50.5 -9.5t-40 -31.5t-26 -58.5t-9.5 -90.5q0 -53 9.5 -88t26 -56.5t40 -30.5t50.5 -9q28 0 51.5 9t41 30.5t27.5 56.5t10 88z" />
    <glyph glyph-name="uniF8FF" unicode="&#xf8ff;" horiz-adv-x="1578" 
d="M636 1489q-85 -57 -150.5 -148.5t-113.5 -201.5t-80.5 -232t-51.5 -241.5t-27.5 -229.5t-8.5 -195t11 -144.5t30.5 -104.5t45.5 -79t57 -68l-12 -12q-59 55 -106 113t-80.5 127.5t-51.5 155.5t-18 198q0 154 35 308.5t104 296t172.5 262.5t240.5 207zM1080 785h-174v-342
q0 -38 25.5 -60t78.5 -22q9 0 25 0.5t33 3.5l20 -214q-50 -20 -107 -31t-119 -11q-96 0 -160 23t-103 68t-55 111t-16 152v300l-100 46v218l120 12l100 244h258v-252h174v-246zM942 -155q85 58 150.5 148.5t113.5 200t80 231.5t52 241t28 228t8 195t-11 146.5t-30.5 105.5
t-45.5 79.5t-57 68.5l12 12q59 -56 106.5 -114t80.5 -128t51 -156t18 -196q0 -154 -35 -308.5t-104 -296t-172.5 -262.5t-240.5 -207z" />
    <glyph glyph-name="uni000D" unicode="&#xd;" horiz-adv-x="0" 
 />
    <glyph glyph-name="Agrave" unicode="&#xc0;" horiz-adv-x="1404" 
d="M0 0zM1422 0h-233q-39 0 -63.5 18.5t-36.5 47.5l-98 277h-578l-98 -277q-10 -25 -35 -45.5t-63 -20.5h-235l567 1451h307zM486 551h432l-157 444q-14 35 -29.5 82t-30.5 101q-14 -55 -29 -102.5t-29 -82.5zM544 1864q21 0 36.5 -1t28 -5.5t23.5 -13t23 -23.5l213 -271
h-200q-16 0 -28 0.5t-22 3t-19.5 8t-20.5 14.5l-322 288h288z" />
    <glyph glyph-name="Aacute" unicode="&#xc1;" horiz-adv-x="1404" 
d="M0 0zM1422 0h-233q-39 0 -63.5 18.5t-36.5 47.5l-98 277h-578l-98 -277q-10 -25 -35 -45.5t-63 -20.5h-235l567 1451h307zM486 551h432l-157 444q-14 35 -29.5 82t-30.5 101q-14 -55 -29 -102.5t-29 -82.5zM1139 1864l-323 -286q-11 -9 -21 -14.5t-20.5 -8.5t-23 -4
t-27.5 -1h-200l200 271q11 15 21.5 23.5t23 13t28.5 5.5t37 1h305z" />
    <glyph glyph-name="Acircumflex" unicode="&#xc2;" horiz-adv-x="1404" 
d="M0 0zM1422 0h-233q-39 0 -63.5 18.5t-36.5 47.5l-98 277h-578l-98 -277q-10 -25 -35 -45.5t-63 -20.5h-235l567 1451h307zM486 551h432l-157 444q-14 35 -29.5 82t-30.5 101q-14 -55 -29 -102.5t-29 -82.5zM1073 1550h-200q-16 0 -39.5 6t-48.5 35l-68 94l-16 23l-16 -23
l-68 -94q-25 -29 -48.5 -35t-39.5 -6h-191l242 276h250z" />
    <glyph glyph-name="Atilde" unicode="&#xc3;" horiz-adv-x="1404" 
d="M0 0zM1422 0h-233q-39 0 -63.5 18.5t-36.5 47.5l-98 277h-578l-98 -277q-10 -25 -35 -45.5t-63 -20.5h-235l567 1451h307zM486 551h432l-157 444q-14 35 -29.5 82t-30.5 101q-14 -55 -29 -102.5t-29 -82.5zM825 1713q22 0 38 8.5t26 22t15 29.5t5 31h167q0 -52 -14 -100
t-41.5 -85t-68 -59.5t-93.5 -22.5t-91.5 15.5t-69 34t-56 34t-52.5 15.5q-22 0 -37.5 -9t-25 -23t-14.5 -30t-5 -31h-169q0 52 14.5 100.5t42 86t68 60t93.5 22.5t92 -15.5t69 -34t55.5 -34t51.5 -15.5z" />
    <glyph glyph-name="Adieresis" unicode="&#xc4;" horiz-adv-x="1404" 
d="M0 0zM1422 0h-233q-39 0 -63.5 18.5t-36.5 47.5l-98 277h-578l-98 -277q-10 -25 -35 -45.5t-63 -20.5h-235l567 1451h307zM486 551h432l-157 444q-14 35 -29.5 82t-30.5 101q-14 -55 -29 -102.5t-29 -82.5zM621 1667q0 -29 -11.5 -54.5t-32 -44t-47.5 -29.5t-57 -11
q-28 0 -53 11t-44.5 29.5t-31 44t-11.5 54.5t11.5 55.5t31 46t44.5 31t53 11.5q30 0 57 -11.5t47.5 -31t32 -46t11.5 -55.5zM1069 1667q0 -29 -11.5 -54.5t-31 -44t-45.5 -29.5t-56 -11t-56 11t-45.5 29.5t-31 44t-11.5 54.5t11.5 55.5t31 46t45.5 31t56 11.5t56 -11.5
t45.5 -31t31 -46t11.5 -55.5z" />
    <glyph glyph-name="Aring" unicode="&#xc5;" horiz-adv-x="1404" 
d="M0 0zM1422 0h-233q-39 0 -63.5 18.5t-36.5 47.5l-98 277h-578l-98 -277q-10 -25 -35 -45.5t-63 -20.5h-235l567 1451h307zM486 551h432l-157 444q-14 35 -29.5 82t-30.5 101q-14 -55 -29 -102.5t-29 -82.5zM487 1710q0 44 17.5 80.5t47 62.5t68 40t80.5 14q44 0 84 -14
t70 -40t47.5 -62.5t17.5 -80.5q0 -43 -17.5 -78.5t-47.5 -60.5t-70 -39t-84 -14q-42 0 -80.5 14t-68 39t-47 60.5t-17.5 78.5zM618 1710q0 -38 22 -61.5t64 -23.5q38 0 61 23.5t23 61.5q0 40 -23 63.5t-61 23.5q-42 0 -64 -23.5t-22 -63.5z" />
    <glyph glyph-name="Egrave" unicode="&#xc8;" horiz-adv-x="1148" 
d="M152 0zM1076 1451v-235h-622v-373h484v-227h-484v-381h622v-235h-924v1451h924zM472 1864q21 0 36.5 -1t28 -5.5t23.5 -13t23 -23.5l213 -271h-200q-16 0 -28 0.5t-22 3t-19.5 8t-20.5 14.5l-322 288h288z" />
    <glyph glyph-name="Eacute" unicode="&#xc9;" horiz-adv-x="1148" 
d="M152 0zM1076 1451v-235h-622v-373h484v-227h-484v-381h622v-235h-924v1451h924zM1067 1864l-323 -286q-11 -9 -21 -14.5t-20.5 -8.5t-23 -4t-27.5 -1h-200l200 271q11 15 21.5 23.5t23 13t28.5 5.5t37 1h305z" />
    <glyph glyph-name="Ecircumflex" unicode="&#xca;" horiz-adv-x="1148" 
d="M152 0zM1076 1451v-235h-622v-373h484v-227h-484v-381h622v-235h-924v1451h924zM1002 1550h-200q-16 0 -39.5 6t-48.5 35l-68 94l-16 23l-16 -23l-68 -94q-25 -29 -48.5 -35t-39.5 -6h-191l242 276h250z" />
    <glyph glyph-name="Edieresis" unicode="&#xcb;" horiz-adv-x="1148" 
d="M152 0zM1076 1451v-235h-622v-373h484v-227h-484v-381h622v-235h-924v1451h924zM550 1667q0 -29 -11.5 -54.5t-32 -44t-47.5 -29.5t-57 -11q-28 0 -53 11t-44.5 29.5t-31 44t-11.5 54.5t11.5 55.5t31 46t44.5 31t53 11.5q30 0 57 -11.5t47.5 -31t32 -46t11.5 -55.5z
M998 1667q0 -29 -11.5 -54.5t-31 -44t-45.5 -29.5t-56 -11t-56 11t-45.5 29.5t-31 44t-11.5 54.5t11.5 55.5t31 46t45.5 31t56 11.5t56 -11.5t45.5 -31t31 -46t11.5 -55.5z" />
    <glyph glyph-name="Igrave" unicode="&#xcc;" horiz-adv-x="606" 
d="M0 0zM454 0h-302v1451h302v-1451zM149 1864q21 0 36.5 -1t28 -5.5t23.5 -13t23 -23.5l213 -271h-200q-16 0 -28 0.5t-22 3t-19.5 8t-20.5 14.5l-322 288h288z" />
    <glyph glyph-name="Iacute" unicode="&#xcd;" horiz-adv-x="606" 
d="M129 0zM454 0h-302v1451h302v-1451zM744 1864l-323 -286q-11 -9 -21 -14.5t-20.5 -8.5t-23 -4t-27.5 -1h-200l200 271q11 15 21.5 23.5t23 13t28.5 5.5t37 1h305z" />
    <glyph glyph-name="Icircumflex" unicode="&#xce;" horiz-adv-x="606" 
d="M0 0zM454 0h-302v1451h302v-1451zM679 1550h-200q-16 0 -39.5 6t-48.5 35l-68 94l-16 23l-16 -23l-68 -94q-25 -29 -48.5 -35t-39.5 -6h-191l242 276h250z" />
    <glyph glyph-name="Idieresis" unicode="&#xcf;" horiz-adv-x="606" 
d="M0 0zM454 0h-302v1451h302v-1451zM227 1667q0 -29 -11.5 -54.5t-32 -44t-47.5 -29.5t-57 -11q-28 0 -53 11t-44.5 29.5t-31 44t-11.5 54.5t11.5 55.5t31 46t44.5 31t53 11.5q30 0 57 -11.5t47.5 -31t32 -46t11.5 -55.5zM675 1667q0 -29 -11.5 -54.5t-31 -44t-45.5 -29.5
t-56 -11t-56 11t-45.5 29.5t-31 44t-11.5 54.5t11.5 55.5t31 46t45.5 31t56 11.5t56 -11.5t45.5 -31t31 -46t11.5 -55.5z" />
    <glyph glyph-name="Ntilde" unicode="&#xd1;" horiz-adv-x="1547" 
d="M310 1451q19 0 32.5 -1.5t24.5 -7t21 -14.5t22 -24l728 -925q-4 38 -6 74t-2 68v830h265v-1451h-155q-35 0 -59 11.5t-47 39.5l-723 919q3 -35 4.5 -68.5t1.5 -62.5v-839h-265v1451h158zM903 1713q22 0 38 8.5t26 22t15 29.5t5 31h167q0 -52 -14 -100t-41.5 -85
t-68 -59.5t-93.5 -22.5t-91.5 15.5t-69 34t-56 34t-52.5 15.5q-22 0 -37.5 -9t-25 -23t-14.5 -30t-5 -31h-169q0 52 14.5 100.5t42 86t68 60t93.5 22.5t92 -15.5t69 -34t55.5 -34t51.5 -15.5z" />
    <glyph glyph-name="Ograve" unicode="&#xd2;" horiz-adv-x="1622" 
d="M67 0zM1554 726q0 -159 -53.5 -295t-151 -235t-234.5 -155.5t-304 -56.5t-304 56.5t-235 155.5t-151.5 235t-53.5 295t53.5 294.5t151.5 234.5t235 155.5t304 56.5t304 -56.5t234.5 -156t151 -235t53.5 -293.5zM1247 726q0 114 -30 204.5t-86.5 154t-137 97t-182.5 33.5
t-183 -33.5t-137.5 -97t-86.5 -154t-30 -204.5q0 -115 30 -205.5t86.5 -153.5t137.5 -96.5t183 -33.5t182.5 33.5t137 96.5t86.5 153.5t30 205.5zM656 1864q21 0 36.5 -1t28 -5.5t23.5 -13t23 -23.5l213 -271h-200q-16 0 -28 0.5t-22 3t-19.5 8t-20.5 14.5l-322 288h288z
" />
    <glyph glyph-name="Oacute" unicode="&#xd3;" horiz-adv-x="1622" 
d="M67 0zM1554 726q0 -159 -53.5 -295t-151 -235t-234.5 -155.5t-304 -56.5t-304 56.5t-235 155.5t-151.5 235t-53.5 295t53.5 294.5t151.5 234.5t235 155.5t304 56.5t304 -56.5t234.5 -156t151 -235t53.5 -293.5zM1247 726q0 114 -30 204.5t-86.5 154t-137 97t-182.5 33.5
t-183 -33.5t-137.5 -97t-86.5 -154t-30 -204.5q0 -115 30 -205.5t86.5 -153.5t137.5 -96.5t183 -33.5t182.5 33.5t137 96.5t86.5 153.5t30 205.5zM1251 1864l-323 -286q-11 -9 -21 -14.5t-20.5 -8.5t-23 -4t-27.5 -1h-200l200 271q11 15 21.5 23.5t23 13t28.5 5.5t37 1h305z
" />
    <glyph glyph-name="Ocircumflex" unicode="&#xd4;" horiz-adv-x="1622" 
d="M67 0zM1554 726q0 -159 -53.5 -295t-151 -235t-234.5 -155.5t-304 -56.5t-304 56.5t-235 155.5t-151.5 235t-53.5 295t53.5 294.5t151.5 234.5t235 155.5t304 56.5t304 -56.5t234.5 -156t151 -235t53.5 -293.5zM1247 726q0 114 -30 204.5t-86.5 154t-137 97t-182.5 33.5
t-183 -33.5t-137.5 -97t-86.5 -154t-30 -204.5q0 -115 30 -205.5t86.5 -153.5t137.5 -96.5t183 -33.5t182.5 33.5t137 96.5t86.5 153.5t30 205.5zM1185 1550h-200q-16 0 -39.5 6t-48.5 35l-68 94l-16 23l-16 -23l-68 -94q-25 -29 -48.5 -35t-39.5 -6h-191l242 276h250z" />
    <glyph glyph-name="Otilde" unicode="&#xd5;" horiz-adv-x="1622" 
d="M67 0zM1554 726q0 -159 -53.5 -295t-151 -235t-234.5 -155.5t-304 -56.5t-304 56.5t-235 155.5t-151.5 235t-53.5 295t53.5 294.5t151.5 234.5t235 155.5t304 56.5t304 -56.5t234.5 -156t151 -235t53.5 -293.5zM1247 726q0 114 -30 204.5t-86.5 154t-137 97t-182.5 33.5
t-183 -33.5t-137.5 -97t-86.5 -154t-30 -204.5q0 -115 30 -205.5t86.5 -153.5t137.5 -96.5t183 -33.5t182.5 33.5t137 96.5t86.5 153.5t30 205.5zM937 1713q22 0 38 8.5t26 22t15 29.5t5 31h167q0 -52 -14 -100t-41.5 -85t-68 -59.5t-93.5 -22.5t-91.5 15.5t-69 34t-56 34
t-52.5 15.5q-22 0 -37.5 -9t-25 -23t-14.5 -30t-5 -31h-169q0 52 14.5 100.5t42 86t68 60t93.5 22.5t92 -15.5t69 -34t55.5 -34t51.5 -15.5z" />
    <glyph glyph-name="Odieresis" unicode="&#xd6;" horiz-adv-x="1622" 
d="M67 0zM1554 726q0 -159 -53.5 -295t-151 -235t-234.5 -155.5t-304 -56.5t-304 56.5t-235 155.5t-151.5 235t-53.5 295t53.5 294.5t151.5 234.5t235 155.5t304 56.5t304 -56.5t234.5 -156t151 -235t53.5 -293.5zM1247 726q0 114 -30 204.5t-86.5 154t-137 97t-182.5 33.5
t-183 -33.5t-137.5 -97t-86.5 -154t-30 -204.5q0 -115 30 -205.5t86.5 -153.5t137.5 -96.5t183 -33.5t182.5 33.5t137 96.5t86.5 153.5t30 205.5zM733 1667q0 -29 -11.5 -54.5t-32 -44t-47.5 -29.5t-57 -11q-28 0 -53 11t-44.5 29.5t-31 44t-11.5 54.5t11.5 55.5t31 46
t44.5 31t53 11.5q30 0 57 -11.5t47.5 -31t32 -46t11.5 -55.5zM1181 1667q0 -29 -11.5 -54.5t-31 -44t-45.5 -29.5t-56 -11t-56 11t-45.5 29.5t-31 44t-11.5 54.5t11.5 55.5t31 46t45.5 31t56 11.5t56 -11.5t45.5 -31t31 -46t11.5 -55.5z" />
    <glyph glyph-name="Ugrave" unicode="&#xd9;" horiz-adv-x="1491" 
d="M134 0zM746 240q73 0 131 24.5t98 69.5t61 109t21 144v864h300v-864q0 -132 -42.5 -242.5t-121.5 -190.5t-192 -125t-255 -45t-255.5 45t-192.5 125t-121.5 190.5t-42.5 242.5v864h300v-864q0 -80 21 -144t61 -109t98 -69.5t132 -24.5zM588 1864q21 0 36.5 -1t28 -5.5
t23.5 -13t23 -23.5l213 -271h-200q-16 0 -28 0.5t-22 3t-19.5 8t-20.5 14.5l-322 288h288z" />
    <glyph glyph-name="Uacute" unicode="&#xda;" horiz-adv-x="1491" 
d="M134 0zM746 240q73 0 131 24.5t98 69.5t61 109t21 144v864h300v-864q0 -132 -42.5 -242.5t-121.5 -190.5t-192 -125t-255 -45t-255.5 45t-192.5 125t-121.5 190.5t-42.5 242.5v864h300v-864q0 -80 21 -144t61 -109t98 -69.5t132 -24.5zM1183 1864l-323 -286
q-11 -9 -21 -14.5t-20.5 -8.5t-23 -4t-27.5 -1h-200l200 271q11 15 21.5 23.5t23 13t28.5 5.5t37 1h305z" />
    <glyph glyph-name="Ucircumflex" unicode="&#xdb;" horiz-adv-x="1491" 
d="M134 0zM746 240q73 0 131 24.5t98 69.5t61 109t21 144v864h300v-864q0 -132 -42.5 -242.5t-121.5 -190.5t-192 -125t-255 -45t-255.5 45t-192.5 125t-121.5 190.5t-42.5 242.5v864h300v-864q0 -80 21 -144t61 -109t98 -69.5t132 -24.5zM1118 1550h-200q-16 0 -39.5 6
t-48.5 35l-68 94l-16 23l-16 -23l-68 -94q-25 -29 -48.5 -35t-39.5 -6h-191l242 276h250z" />
    <glyph glyph-name="Udieresis" unicode="&#xdc;" horiz-adv-x="1491" 
d="M134 0zM746 240q73 0 131 24.5t98 69.5t61 109t21 144v864h300v-864q0 -132 -42.5 -242.5t-121.5 -190.5t-192 -125t-255 -45t-255.5 45t-192.5 125t-121.5 190.5t-42.5 242.5v864h300v-864q0 -80 21 -144t61 -109t98 -69.5t132 -24.5zM666 1667q0 -29 -11.5 -54.5
t-32 -44t-47.5 -29.5t-57 -11q-28 0 -53 11t-44.5 29.5t-31 44t-11.5 54.5t11.5 55.5t31 46t44.5 31t53 11.5q30 0 57 -11.5t47.5 -31t32 -46t11.5 -55.5zM1114 1667q0 -29 -11.5 -54.5t-31 -44t-45.5 -29.5t-56 -11t-56 11t-45.5 29.5t-31 44t-11.5 54.5t11.5 55.5t31 46
t45.5 31t56 11.5t56 -11.5t45.5 -31t31 -46t11.5 -55.5z" />
    <glyph glyph-name="Ydieresis" unicode="&#x178;" horiz-adv-x="1316" 
d="M0 0zM808 557v-557h-300v557l-527 894h264q39 0 62.5 -18.5t37.5 -47.5l238 -457q24 -46 43.5 -86t33.5 -80q28 77 75 166l236 457q12 24 36 45t62 21h266zM581 1667q0 -29 -11.5 -54.5t-32 -44t-47.5 -29.5t-57 -11q-28 0 -53 11t-44.5 29.5t-31 44t-11.5 54.5
t11.5 55.5t31 46t44.5 31t53 11.5q30 0 57 -11.5t47.5 -31t32 -46t11.5 -55.5zM1029 1667q0 -29 -11.5 -54.5t-31 -44t-45.5 -29.5t-56 -11t-56 11t-45.5 29.5t-31 44t-11.5 54.5t11.5 55.5t31 46t45.5 31t56 11.5t56 -11.5t45.5 -31t31 -46t11.5 -55.5z" />
    <glyph glyph-name="agrave" unicode="&#xe0;" horiz-adv-x="1024" 
d="M42 0zM796 0q-39 0 -59.5 11t-33.5 46l-22 65q-39 -34 -75.5 -59.5t-76 -43t-84 -26.5t-98.5 -9q-68 0 -124 18t-96.5 53.5t-62.5 88.5t-22 122q0 57 29 113.5t99.5 103t188 77.5t294.5 35v53q0 97 -41 142.5t-118 45.5q-57 0 -95 -13.5t-66.5 -29t-53.5 -29t-58 -13.5
q-29 0 -48.5 14.5t-32.5 34.5l-49 88q91 82 201 122.5t238 40.5q92 0 164.5 -30t123 -83.5t77.5 -127.5t27 -162v-648h-126zM433 170q68 0 119 24.5t101 75.5v160q-101 -4 -168 -17t-106.5 -32.5t-56 -45t-16.5 -55.5q0 -60 33.5 -85t93.5 -25zM421 1467q43 0 64.5 -14
t37.5 -42l139 -244h-156q-31 0 -50.5 8.5t-39.5 29.5l-253 262h258z" />
    <glyph glyph-name="aacute" unicode="&#xe1;" horiz-adv-x="1024" 
d="M42 0zM796 0q-39 0 -59.5 11t-33.5 46l-22 65q-39 -34 -75.5 -59.5t-76 -43t-84 -26.5t-98.5 -9q-68 0 -124 18t-96.5 53.5t-62.5 88.5t-22 122q0 57 29 113.5t99.5 103t188 77.5t294.5 35v53q0 97 -41 142.5t-118 45.5q-57 0 -95 -13.5t-66.5 -29t-53.5 -29t-58 -13.5
q-29 0 -48.5 14.5t-32.5 34.5l-49 88q91 82 201 122.5t238 40.5q92 0 164.5 -30t123 -83.5t77.5 -127.5t27 -162v-648h-126zM433 170q68 0 119 24.5t101 75.5v160q-101 -4 -168 -17t-106.5 -32.5t-56 -45t-16.5 -55.5q0 -60 33.5 -85t93.5 -25zM874 1467l-253 -262
q-20 -21 -39.5 -29.5t-50.5 -8.5h-166l140 244q15 28 36.5 42t65.5 14h267z" />
    <glyph glyph-name="acircumflex" unicode="&#xe2;" horiz-adv-x="1024" 
d="M42 0zM796 0q-39 0 -59.5 11t-33.5 46l-22 65q-39 -34 -75.5 -59.5t-76 -43t-84 -26.5t-98.5 -9q-68 0 -124 18t-96.5 53.5t-62.5 88.5t-22 122q0 57 29 113.5t99.5 103t188 77.5t294.5 35v53q0 97 -41 142.5t-118 45.5q-57 0 -95 -13.5t-66.5 -29t-53.5 -29t-58 -13.5
q-29 0 -48.5 14.5t-32.5 34.5l-49 88q91 82 201 122.5t238 40.5q92 0 164.5 -30t123 -83.5t77.5 -127.5t27 -162v-648h-126zM433 170q68 0 119 24.5t101 75.5v160q-101 -4 -168 -17t-106.5 -32.5t-56 -45t-16.5 -55.5q0 -60 33.5 -85t93.5 -25zM866 1168h-184q-16 0 -31 5.5
t-31 20.5l-88 95q-6 5 -11.5 11.5t-10.5 13.5q-6 -8 -12 -14l-11 -11l-90 -95q-28 -26 -62 -26h-191l232 283h258z" />
    <glyph glyph-name="atilde" unicode="&#xe3;" horiz-adv-x="1024" 
d="M42 0zM796 0q-39 0 -59.5 11t-33.5 46l-22 65q-39 -34 -75.5 -59.5t-76 -43t-84 -26.5t-98.5 -9q-68 0 -124 18t-96.5 53.5t-62.5 88.5t-22 122q0 57 29 113.5t99.5 103t188 77.5t294.5 35v53q0 97 -41 142.5t-118 45.5q-57 0 -95 -13.5t-66.5 -29t-53.5 -29t-58 -13.5
q-29 0 -48.5 14.5t-32.5 34.5l-49 88q91 82 201 122.5t238 40.5q92 0 164.5 -30t123 -83.5t77.5 -127.5t27 -162v-648h-126zM433 170q68 0 119 24.5t101 75.5v160q-101 -4 -168 -17t-106.5 -32.5t-56 -45t-16.5 -55.5q0 -60 33.5 -85t93.5 -25zM611 1372q27 0 43 14.5
t16 56.5h168q0 -59 -16.5 -107t-45.5 -81.5t-69 -52t-86 -18.5q-36 0 -67.5 12.5t-59 27t-50.5 27t-41 12.5q-27 0 -42.5 -15.5t-15.5 -57.5h-170q0 59 16.5 107t46 82t69 52.5t85.5 18.5q37 0 69 -12t59 -27t49.5 -27t41.5 -12z" />
    <glyph glyph-name="adieresis" unicode="&#xe4;" horiz-adv-x="1024" 
d="M42 0zM796 0q-39 0 -59.5 11t-33.5 46l-22 65q-39 -34 -75.5 -59.5t-76 -43t-84 -26.5t-98.5 -9q-68 0 -124 18t-96.5 53.5t-62.5 88.5t-22 122q0 57 29 113.5t99.5 103t188 77.5t294.5 35v53q0 97 -41 142.5t-118 45.5q-57 0 -95 -13.5t-66.5 -29t-53.5 -29t-58 -13.5
q-29 0 -48.5 14.5t-32.5 34.5l-49 88q91 82 201 122.5t238 40.5q92 0 164.5 -30t123 -83.5t77.5 -127.5t27 -162v-648h-126zM433 170q68 0 119 24.5t101 75.5v160q-101 -4 -168 -17t-106.5 -32.5t-56 -45t-16.5 -55.5q0 -60 33.5 -85t93.5 -25zM446 1294q0 -30 -12 -56
t-32.5 -45.5t-48 -30.5t-58.5 -11q-29 0 -55.5 11t-46.5 30.5t-32 45.5t-12 56t12 57t32 47.5t46.5 32t55.5 11.5q31 0 58.5 -11.5t48 -32t32.5 -47.5t12 -57zM861 1294q0 -30 -12 -56t-32 -45.5t-47.5 -30.5t-58.5 -11q-30 0 -57 11t-47 30.5t-31.5 45.5t-11.5 56t11.5 57
t31.5 47.5t47 32t57 11.5q31 0 58.5 -11.5t47.5 -32t32 -47.5t12 -57z" />
    <glyph glyph-name="aring" unicode="&#xe5;" horiz-adv-x="1024" 
d="M42 0zM796 0q-39 0 -59.5 11t-33.5 46l-22 65q-39 -34 -75.5 -59.5t-76 -43t-84 -26.5t-98.5 -9q-68 0 -124 18t-96.5 53.5t-62.5 88.5t-22 122q0 57 29 113.5t99.5 103t188 77.5t294.5 35v53q0 97 -41 142.5t-118 45.5q-57 0 -95 -13.5t-66.5 -29t-53.5 -29t-58 -13.5
q-29 0 -48.5 14.5t-32.5 34.5l-49 88q91 82 201 122.5t238 40.5q92 0 164.5 -30t123 -83.5t77.5 -127.5t27 -162v-648h-126zM433 170q68 0 119 24.5t101 75.5v160q-101 -4 -168 -17t-106.5 -32.5t-56 -45t-16.5 -55.5q0 -60 33.5 -85t93.5 -25zM275 1329q0 48 19 87.5
t50.5 67t73 43t87.5 15.5q47 0 90 -15.5t75.5 -43t51.5 -67t19 -87.5q0 -47 -19 -85t-51.5 -65t-75.5 -42t-90 -15q-46 0 -87.5 15t-73 42t-50.5 65t-19 85zM423 1329q0 -38 22 -61.5t64 -23.5q38 0 61 23.5t23 61.5q0 40 -23 63.5t-61 23.5q-42 0 -64 -23.5t-22 -63.5z" />
    <glyph glyph-name="egrave" unicode="&#xe8;" horiz-adv-x="1072" 
d="M59 0zM561 1047q99 0 182.5 -31.5t144 -91.5t94 -147.5t33.5 -199.5q0 -31 -3 -51t-10 -32t-19 -16.5t-31 -4.5h-619q13 -145 82.5 -212t182.5 -67q57 0 98.5 13.5t73 30t57 30t50.5 13.5q32 0 50 -24l80 -100q-44 -51 -97 -84.5t-110 -53t-115 -27t-112 -7.5
q-108 0 -201.5 35.5t-163 105t-109.5 172.5t-40 239q0 105 34.5 198t99.5 162t158 109.5t210 40.5zM566 853q-99 0 -155 -56.5t-73 -159.5h430q0 43 -11.5 82t-36.5 69t-63 47.5t-91 17.5zM483 1467q43 0 64.5 -14t37.5 -42l139 -244h-156q-31 0 -50.5 8.5t-39.5 29.5
l-253 262h258z" />
    <glyph glyph-name="eacute" unicode="&#xe9;" horiz-adv-x="1072" 
d="M59 0zM561 1047q99 0 182.5 -31.5t144 -91.5t94 -147.5t33.5 -199.5q0 -31 -3 -51t-10 -32t-19 -16.5t-31 -4.5h-619q13 -145 82.5 -212t182.5 -67q57 0 98.5 13.5t73 30t57 30t50.5 13.5q32 0 50 -24l80 -100q-44 -51 -97 -84.5t-110 -53t-115 -27t-112 -7.5
q-108 0 -201.5 35.5t-163 105t-109.5 172.5t-40 239q0 105 34.5 198t99.5 162t158 109.5t210 40.5zM566 853q-99 0 -155 -56.5t-73 -159.5h430q0 43 -11.5 82t-36.5 69t-63 47.5t-91 17.5zM936 1467l-253 -262q-20 -21 -39.5 -29.5t-50.5 -8.5h-166l140 244q15 28 36.5 42
t65.5 14h267z" />
    <glyph glyph-name="ecircumflex" unicode="&#xea;" horiz-adv-x="1072" 
d="M59 0zM561 1047q99 0 182.5 -31.5t144 -91.5t94 -147.5t33.5 -199.5q0 -31 -3 -51t-10 -32t-19 -16.5t-31 -4.5h-619q13 -145 82.5 -212t182.5 -67q57 0 98.5 13.5t73 30t57 30t50.5 13.5q32 0 50 -24l80 -100q-44 -51 -97 -84.5t-110 -53t-115 -27t-112 -7.5
q-108 0 -201.5 35.5t-163 105t-109.5 172.5t-40 239q0 105 34.5 198t99.5 162t158 109.5t210 40.5zM566 853q-99 0 -155 -56.5t-73 -159.5h430q0 43 -11.5 82t-36.5 69t-63 47.5t-91 17.5zM928 1168h-184q-16 0 -31 5.5t-31 20.5l-88 95q-6 5 -11.5 11.5t-10.5 13.5
q-6 -8 -12 -14l-11 -11l-90 -95q-28 -26 -62 -26h-191l232 283h258z" />
    <glyph glyph-name="edieresis" unicode="&#xeb;" horiz-adv-x="1072" 
d="M59 0zM561 1047q99 0 182.5 -31.5t144 -91.5t94 -147.5t33.5 -199.5q0 -31 -3 -51t-10 -32t-19 -16.5t-31 -4.5h-619q13 -145 82.5 -212t182.5 -67q57 0 98.5 13.5t73 30t57 30t50.5 13.5q32 0 50 -24l80 -100q-44 -51 -97 -84.5t-110 -53t-115 -27t-112 -7.5
q-108 0 -201.5 35.5t-163 105t-109.5 172.5t-40 239q0 105 34.5 198t99.5 162t158 109.5t210 40.5zM566 853q-99 0 -155 -56.5t-73 -159.5h430q0 43 -11.5 82t-36.5 69t-63 47.5t-91 17.5zM508 1294q0 -30 -12 -56t-32.5 -45.5t-48 -30.5t-58.5 -11q-29 0 -55.5 11
t-46.5 30.5t-32 45.5t-12 56t12 57t32 47.5t46.5 32t55.5 11.5q31 0 58.5 -11.5t48 -32t32.5 -47.5t12 -57zM923 1294q0 -30 -12 -56t-32 -45.5t-47.5 -30.5t-58.5 -11q-30 0 -57 11t-47 30.5t-31.5 45.5t-11.5 56t11.5 57t31.5 47.5t47 32t57 11.5q31 0 58.5 -11.5
t47.5 -32t32 -47.5t12 -57z" />
    <glyph glyph-name="igrave" unicode="&#xec;" horiz-adv-x="520" 
d="M0 0zM398 1031v-1031h-276v1031h276zM184 1467q43 0 64.5 -14t37.5 -42l139 -244h-156q-31 0 -50.5 8.5t-39.5 29.5l-253 262h258z" />
    <glyph glyph-name="iacute" unicode="&#xed;" horiz-adv-x="521" 
d="M123 0zM399 1031v-1031h-276v1031h276zM638 1467l-253 -262q-20 -21 -39.5 -29.5t-50.5 -8.5h-166l140 244q15 28 36.5 42t65.5 14h267z" />
    <glyph glyph-name="icircumflex" unicode="&#xee;" horiz-adv-x="520" 
d="M0 0zM398 1031v-1031h-276v1031h276zM629 1168h-184q-16 0 -31 5.5t-31 20.5l-88 95q-6 5 -11.5 11.5t-10.5 13.5q-6 -8 -12 -14l-11 -11l-90 -95q-28 -26 -62 -26h-191l232 283h258z" />
    <glyph glyph-name="idieresis" unicode="&#xef;" horiz-adv-x="520" 
d="M0 0zM398 1031v-1031h-276v1031h276zM240 1294q0 -30 -12 -56t-32.5 -45.5t-48 -30.5t-58.5 -11q-29 0 -55 11t-46 30.5t-32 45.5t-12 56t12 57t32 47.5t46 32t55 11.5q31 0 58.5 -11.5t48 -32t32.5 -47.5t12 -57zM592 1294q0 -30 -11.5 -56t-32 -45.5t-47.5 -30.5
t-58 -11q-30 0 -57 11t-47 30.5t-31.5 45.5t-11.5 56t11.5 57t31.5 47.5t47 32t57 11.5q31 0 58 -11.5t47.5 -32t32 -47.5t11.5 -57z" />
    <glyph glyph-name="ntilde" unicode="&#xf1;" horiz-adv-x="1134" 
d="M114 0zM114 0v1031h170q52 0 69 -48l17 -72q31 30 64.5 55t71 43t81 28t94.5 10q84 0 149 -29t109.5 -81t67 -124t22.5 -158v-655h-275v655q0 86 -40 133.5t-118 47.5q-59 0 -109.5 -25.5t-96.5 -69.5v-741h-276zM684 1372q27 0 43 14.5t16 56.5h168q0 -59 -16.5 -107
t-45.5 -81.5t-69 -52t-86 -18.5q-36 0 -67.5 12.5t-59 27t-50.5 27t-41 12.5q-27 0 -42.5 -15.5t-15.5 -57.5h-170q0 59 16.5 107t46 82t69 52.5t85.5 18.5q37 0 69 -12t59 -27t49.5 -27t41.5 -12z" />
    <glyph glyph-name="ograve" unicode="&#xf2;" horiz-adv-x="1155" 
d="M60 0zM579 1047q116 0 211 -37t163 -105.5t105 -166.5t37 -221t-37 -221.5t-105 -167.5t-163 -106t-211 -37q-117 0 -212.5 37t-163.5 106t-105.5 167.5t-37.5 221.5t37.5 221t105.5 166.5t163.5 105.5t212.5 37zM579 192q118 0 175 81.5t57 242.5q0 160 -57 241.5
t-175 81.5q-121 0 -178 -81.5t-57 -241.5q0 -161 57 -242.5t178 -81.5zM495 1467q43 0 64.5 -14t37.5 -42l139 -244h-156q-31 0 -50.5 8.5t-39.5 29.5l-253 262h258z" />
    <glyph glyph-name="oacute" unicode="&#xf3;" horiz-adv-x="1155" 
d="M60 0zM579 1047q116 0 211 -37t163 -105.5t105 -166.5t37 -221t-37 -221.5t-105 -167.5t-163 -106t-211 -37q-117 0 -212.5 37t-163.5 106t-105.5 167.5t-37.5 221.5t37.5 221t105.5 166.5t163.5 105.5t212.5 37zM579 192q118 0 175 81.5t57 242.5q0 160 -57 241.5
t-175 81.5q-121 0 -178 -81.5t-57 -241.5q0 -161 57 -242.5t178 -81.5zM948 1467l-253 -262q-20 -21 -39.5 -29.5t-50.5 -8.5h-166l140 244q15 28 36.5 42t65.5 14h267z" />
    <glyph glyph-name="ocircumflex" unicode="&#xf4;" horiz-adv-x="1155" 
d="M60 0zM579 1047q116 0 211 -37t163 -105.5t105 -166.5t37 -221t-37 -221.5t-105 -167.5t-163 -106t-211 -37q-117 0 -212.5 37t-163.5 106t-105.5 167.5t-37.5 221.5t37.5 221t105.5 166.5t163.5 105.5t212.5 37zM579 192q118 0 175 81.5t57 242.5q0 160 -57 241.5
t-175 81.5q-121 0 -178 -81.5t-57 -241.5q0 -161 57 -242.5t178 -81.5zM940 1168h-184q-16 0 -31 5.5t-31 20.5l-88 95q-6 5 -11.5 11.5t-10.5 13.5q-6 -8 -12 -14l-11 -11l-90 -95q-28 -26 -62 -26h-191l232 283h258z" />
    <glyph glyph-name="otilde" unicode="&#xf5;" horiz-adv-x="1155" 
d="M60 0zM579 1047q116 0 211 -37t163 -105.5t105 -166.5t37 -221t-37 -221.5t-105 -167.5t-163 -106t-211 -37q-117 0 -212.5 37t-163.5 106t-105.5 167.5t-37.5 221.5t37.5 221t105.5 166.5t163.5 105.5t212.5 37zM579 192q118 0 175 81.5t57 242.5q0 160 -57 241.5
t-175 81.5q-121 0 -178 -81.5t-57 -241.5q0 -161 57 -242.5t178 -81.5zM685 1372q27 0 43 14.5t16 56.5h168q0 -59 -16.5 -107t-45.5 -81.5t-69 -52t-86 -18.5q-36 0 -67.5 12.5t-59 27t-50.5 27t-41 12.5q-27 0 -42.5 -15.5t-15.5 -57.5h-170q0 59 16.5 107t46 82t69 52.5
t85.5 18.5q37 0 69 -12t59 -27t49.5 -27t41.5 -12z" />
    <glyph glyph-name="odieresis" unicode="&#xf6;" horiz-adv-x="1155" 
d="M60 0zM579 1047q116 0 211 -37t163 -105.5t105 -166.5t37 -221t-37 -221.5t-105 -167.5t-163 -106t-211 -37q-117 0 -212.5 37t-163.5 106t-105.5 167.5t-37.5 221.5t37.5 221t105.5 166.5t163.5 105.5t212.5 37zM579 192q118 0 175 81.5t57 242.5q0 160 -57 241.5
t-175 81.5q-121 0 -178 -81.5t-57 -241.5q0 -161 57 -242.5t178 -81.5zM520 1294q0 -30 -12 -56t-32.5 -45.5t-48 -30.5t-58.5 -11q-29 0 -55.5 11t-46.5 30.5t-32 45.5t-12 56t12 57t32 47.5t46.5 32t55.5 11.5q31 0 58.5 -11.5t48 -32t32.5 -47.5t12 -57zM935 1294
q0 -30 -12 -56t-32 -45.5t-47.5 -30.5t-58.5 -11q-30 0 -57 11t-47 30.5t-31.5 45.5t-11.5 56t11.5 57t31.5 47.5t47 32t57 11.5q31 0 58.5 -11.5t47.5 -32t32 -47.5t12 -57z" />
    <glyph glyph-name="ugrave" unicode="&#xf9;" horiz-adv-x="1133" 
d="M104 0zM380 1031v-655q0 -86 39.5 -133.5t117.5 -47.5q58 0 109 25.5t97 69.5v741h276v-1031h-170q-53 0 -68 48l-18 72q-62 -61 -135.5 -98.5t-174.5 -37.5q-84 0 -149.5 29t-109.5 81t-67 124t-23 158v655h276zM483 1467q43 0 64.5 -14t37.5 -42l139 -244h-156
q-31 0 -50.5 8.5t-39.5 29.5l-253 262h258z" />
    <glyph glyph-name="uacute" unicode="&#xfa;" horiz-adv-x="1133" 
d="M104 0zM380 1031v-655q0 -86 39.5 -133.5t117.5 -47.5q58 0 109 25.5t97 69.5v741h276v-1031h-170q-53 0 -68 48l-18 72q-62 -61 -135.5 -98.5t-174.5 -37.5q-84 0 -149.5 29t-109.5 81t-67 124t-23 158v655h276zM936 1467l-253 -262q-20 -21 -39.5 -29.5t-50.5 -8.5
h-166l140 244q15 28 36.5 42t65.5 14h267z" />
    <glyph glyph-name="ucircumflex" unicode="&#xfb;" horiz-adv-x="1133" 
d="M104 0zM380 1031v-655q0 -86 39.5 -133.5t117.5 -47.5q58 0 109 25.5t97 69.5v741h276v-1031h-170q-53 0 -68 48l-18 72q-62 -61 -135.5 -98.5t-174.5 -37.5q-84 0 -149.5 29t-109.5 81t-67 124t-23 158v655h276zM928 1168h-184q-16 0 -31 5.5t-31 20.5l-88 95
q-6 5 -11.5 11.5t-10.5 13.5q-6 -8 -12 -14l-11 -11l-90 -95q-28 -26 -62 -26h-191l232 283h258z" />
    <glyph glyph-name="udieresis" unicode="&#xfc;" horiz-adv-x="1133" 
d="M104 0zM380 1031v-655q0 -86 39.5 -133.5t117.5 -47.5q58 0 109 25.5t97 69.5v741h276v-1031h-170q-53 0 -68 48l-18 72q-62 -61 -135.5 -98.5t-174.5 -37.5q-84 0 -149.5 29t-109.5 81t-67 124t-23 158v655h276zM508 1294q0 -30 -12 -56t-32.5 -45.5t-48 -30.5
t-58.5 -11q-29 0 -55.5 11t-46.5 30.5t-32 45.5t-12 56t12 57t32 47.5t46.5 32t55.5 11.5q31 0 58.5 -11.5t48 -32t32.5 -47.5t12 -57zM923 1294q0 -30 -12 -56t-32 -45.5t-47.5 -30.5t-58.5 -11q-30 0 -57 11t-47 30.5t-31.5 45.5t-11.5 56t11.5 57t31.5 47.5t47 32
t57 11.5q31 0 58.5 -11.5t47.5 -32t32 -47.5t12 -57z" />
    <glyph glyph-name="ydieresis" unicode="&#xff;" horiz-adv-x="1064" 
d="M0 0zM514 -277q-13 -28 -31.5 -42t-58.5 -14h-205l195 415l-414 949h242q33 0 51 -15t26 -35l196 -493q21 -59 36 -117q9 30 19.5 59.5t21.5 58.5l182 492q8 22 29 36t46 14h221zM498 1294q0 -30 -12 -56t-32.5 -45.5t-48 -30.5t-58.5 -11q-29 0 -55.5 11t-46.5 30.5
t-32 45.5t-12 56t12 57t32 47.5t46.5 32t55.5 11.5q31 0 58.5 -11.5t48 -32t32.5 -47.5t12 -57zM913 1294q0 -30 -12 -56t-32 -45.5t-47.5 -30.5t-58.5 -11q-30 0 -57 11t-47 30.5t-31.5 45.5t-11.5 56t11.5 57t31.5 47.5t47 32t57 11.5q31 0 58.5 -11.5t47.5 -32t32 -47.5
t12 -57z" />
    <glyph glyph-name="Delta" unicode="&#x2206;" horiz-adv-x="1504" 
d="M62 84q0 38 8.5 81t26.5 88l505 1198h307l498 -1194q36 -86 36 -173v-84h-1381v84zM369 233h738l-300 762q-15 38 -32 90.5t-32 112.5q-15 -62 -31.5 -113.5t-32.5 -91.5z" />
    <glyph glyph-name="Omega" unicode="&#x2126;" horiz-adv-x="1656" 
d="M935 333q64 10 120.5 50.5t99 103t67.5 143t25 171.5q0 105 -33 183t-90 129t-133.5 76.5t-162.5 25.5t-162.5 -25.5t-133.5 -76.5t-90 -129t-33 -183q0 -91 25 -171.5t67.5 -143t99 -103t120.5 -50.5v-333h-535q-46 0 -73 25.5t-27 66.5v151h206q51 0 104.5 -5
t104.5 -13q-87 33 -159 90t-123.5 132t-80 165.5t-28.5 191.5q0 141 55 262.5t151.5 210.5t227.5 139.5t284 50.5t284 -50.5t227.5 -139.5t151.5 -210.5t55 -262.5q0 -101 -28.5 -191.5t-80 -165.5t-124 -132t-159.5 -90q52 8 105.5 13t104.5 5h206v-151q0 -41 -27 -66.5
t-73 -25.5h-535v333z" />
    <glyph glyph-name="mu" unicode="&#xb5;" horiz-adv-x="1329" 
d="M434 1031v-604q0 -86 39.5 -137.5t117.5 -51.5q75 0 125.5 40.5t81.5 113.5v639h276v-718q0 -64 29 -94.5t80 -30.5h78v-107q0 -17 -11.5 -33.5t-33.5 -29.5t-53 -21t-70 -8q-42 0 -81.5 12t-72.5 36.5t-58.5 61.5t-39.5 88q-52 -81 -117.5 -125t-150.5 -44
q-108 0 -176 53q11 -43 15 -89.5t4 -87.5v-227h-137q-58 0 -89.5 29t-31.5 84v1251h276z" />
    <glyph glyph-name="Aogonek" unicode="&#x104;" horiz-adv-x="1402" 
d="M1390 -178q19 0 26 -17l41 -100q-34 -22 -84.5 -36.5t-107.5 -14.5q-103 0 -156.5 41.5t-53.5 106.5q0 54 35.5 105t106.5 93h-10q-39 0 -63.5 18.5t-36.5 47.5l-98 277h-578l-98 -277q-10 -25 -35 -45.5t-63 -20.5h-235l567 1451h307l566 -1451h-60q-20 -11 -38 -24.5
t-31.5 -30t-22 -35t-8.5 -39.5q0 -28 16.5 -44t46.5 -16q17 0 28 1.5t17.5 4t11.5 4t10 1.5zM484 551h432l-157 444q-14 35 -29.5 82t-30.5 101q-14 -55 -29 -102.5t-29 -82.5z" />
    <glyph glyph-name="Eth" unicode="&#xd0;" horiz-adv-x="1541" 
d="M-2 813h174v638h558q167 0 304 -54t234.5 -150.5t151 -229.5t53.5 -291q0 -159 -53.5 -292.5t-151 -229.5t-234.5 -150t-304 -54h-558v646h-174v167zM1165 726q0 114 -30 205t-86 154t-136.5 97t-182.5 34h-256v-403h256v-167h-256v-411h256q102 0 182.5 33.5t136.5 97
t86 154.5t30 206z" />
    <glyph glyph-name="Eogonek" unicode="&#x118;" horiz-adv-x="1148" 
d="M1014 -178q19 0 26 -17l41 -100q-34 -22 -84.5 -36.5t-107.5 -14.5q-103 0 -156.5 41.5t-53.5 106.5q0 54 35.5 105t106.5 93h-669v1451h924v-235h-622v-373h484v-227h-484v-381h622v-235h-92q-20 -11 -38 -24.5t-31.5 -30t-22 -35t-8.5 -39.5q0 -28 16.5 -44t46.5 -16
q17 0 28 1.5t17.5 4t11.5 4t10 1.5z" />
    <glyph glyph-name="Hbar" unicode="&#x126;" horiz-adv-x="1569" 
d="M1406 1207h146v-172h-146v-1035h-302v625h-639v-625h-302v1035h-146v172h146v244h302v-244h639v244h302v-244zM1104 835v200h-639v-200h639z" />
    <glyph glyph-name="Iogonek" unicode="&#x12e;" horiz-adv-x="606" 
d="M439 -178q19 0 26 -17l41 -100q-34 -22 -84.5 -36.5t-107.5 -14.5q-103 0 -156.5 41.5t-53.5 106.5q0 54 35.5 105t106.5 93h-94v1451h302v-1451h-45q-20 -11 -38 -24.5t-31.5 -30t-22 -35t-8.5 -39.5q0 -28 16.5 -44t46.5 -16q17 0 28 1.5t17.5 4t11.5 4t10 1.5z" />
    <glyph glyph-name="Lslash" unicode="&#x141;" horiz-adv-x="1077" 
d="M485 894l348 173v-200q0 -43 -37 -57l-311 -161v-405h561v-244h-861v517l-177 -88v205q0 36 33 51l144 74v692h300v-557z" />
    <glyph glyph-name="Lcaron" unicode="&#x13d;" horiz-adv-x="1044" 
d="M152 0zM452 244h561v-244h-861v1451h300v-1207zM837 1493q30 0 37 -13.5t7 -25.5q0 -9 -3.5 -24t-14.5 -44.5t-30.5 -77t-52.5 -120.5q-15 -30 -37.5 -39t-57.5 -9h-98l64 353h186z" />
    <glyph glyph-name="Eng" unicode="&#x14a;" horiz-adv-x="1547" 
d="M310 1451q19 0 32.5 -1.5t24.5 -7t21 -14.5t22 -24l728 -925q-4 38 -6 74t-2 68v830h265v-1400q0 -89 -20.5 -163.5t-66.5 -129t-118.5 -85t-175.5 -30.5q-28 0 -52 2.5t-47 7.5t-46.5 13t-48.5 19l30 118q9 32 25 41.5t36 9.5q16 0 31.5 -5t46.5 -5q71 0 106 42.5
t35 133.5v36l-719 914q3 -35 4.5 -68.5t1.5 -62.5v-839h-265v1451h158v0z" />
    <glyph glyph-name="Thorn" unicode="&#xde;" horiz-adv-x="1246" 
d="M452 257v-257h-300v1451h300v-242h190q149 0 257.5 -35t178.5 -97.5t103.5 -148.5t33.5 -187q0 -107 -35 -196t-106 -153t-179 -99.5t-253 -35.5h-190zM452 487h190q141 0 206.5 67.5t65.5 186.5q0 54 -16.5 98.5t-50 76t-84.5 48.5t-121 17h-190v-494z" />
    <glyph glyph-name="Scedilla" unicode="&#x15e;" horiz-adv-x="1102" 
d="M441 -228q14 0 30 -5.5t42 -5.5q30 0 44 11t14 26q0 25 -33.5 36.5t-107.5 22.5l44 129q-63 5 -124.5 20.5t-118 40t-106 57t-87.5 71.5l88 142q11 16 29 26.5t38 10.5q27 0 57 -20t69 -44t90.5 -44t123.5 -20q105 0 162.5 48t57.5 143q0 55 -28.5 89t-74.5 57t-105 39.5
t-121 36.5t-121 48t-105 74t-74.5 114t-28.5 169q0 81 32 157t94 135t152.5 95t207.5 36q131 0 242.5 -40.5t188.5 -112.5l-74 -141q-14 -23 -28.5 -33.5t-37.5 -10.5q-22 0 -47.5 15.5t-59.5 33.5t-78 33.5t-103 15.5q-104 0 -156 -46.5t-52 -121.5q0 -48 28.5 -79.5
t75 -54.5t105.5 -41t121 -39.5t121 -50.5t105.5 -73t75 -107.5t28.5 -154.5q0 -87 -27 -165t-78.5 -140t-126.5 -104t-171 -57l-13 -49q47 -11 79 -26.5t51.5 -34.5t28 -42t8.5 -48q0 -35 -18.5 -62.5t-52 -46.5t-80.5 -29.5t-104 -10.5q-41 0 -76.5 4.5t-70.5 14.5l25 85
q6 24 31 24z" />
    <glyph glyph-name="Tbar" unicode="&#x166;" horiz-adv-x="1231" 
d="M1190 1451v-242h-424v-356h307v-167h-307v-686h-301v686h-307v167h307v356h-424v242h1149z" />
    <glyph glyph-name="Uogonek" unicode="&#x172;" horiz-adv-x="1491" 
d="M909 -179q19 0 26 -17l41 -100q-34 -22 -84.5 -36.5t-107.5 -14.5q-103 0 -156.5 41.5t-53.5 106.5q0 50 30 97t91 88q-131 8 -235 56t-176.5 127t-111 185.5t-38.5 232.5v864h300v-864q0 -80 21 -144t61 -109t98 -69.5t132 -24.5q73 0 131 24.5t98 69.5t61 109t21 144
v864h300v-864q0 -117 -33.5 -217.5t-96.5 -178t-153.5 -128.5t-204.5 -69q-36 -22 -63 -53.5t-27 -70.5q0 -28 16.5 -44t46.5 -16q17 0 28 1.5t17.5 4t11.5 4t10 1.5z" />
    <glyph glyph-name="aogonek" unicode="&#x105;" horiz-adv-x="1024" 
d="M952 -178q19 0 26 -17l41 -100q-34 -22 -84.5 -36.5t-107.5 -14.5q-103 0 -156.5 41.5t-53.5 106.5q0 54 36.5 106t109.5 94q-23 4 -36.5 16.5t-23.5 38.5l-22 65q-39 -34 -75.5 -59.5t-76 -43t-84 -26.5t-98.5 -9q-68 0 -124 18t-96.5 53.5t-62.5 88.5t-22 122
q0 57 29 113.5t99.5 103t188 77.5t294.5 35v53q0 97 -41 142.5t-118 45.5q-57 0 -95 -13.5t-66.5 -29t-53.5 -29t-58 -13.5q-29 0 -48.5 14.5t-32.5 34.5l-49 88q91 82 201 122.5t238 40.5q92 0 164.5 -30t123 -83.5t77.5 -127.5t27 -162v-648q-20 -11 -38 -24.5t-31.5 -30
t-22 -35t-8.5 -39.5q0 -28 16.5 -44t46.5 -16q17 0 28 1.5t17.5 4t11.5 4t10 1.5zM433 170q68 0 119 24.5t101 75.5v160q-101 -4 -168 -17t-106.5 -32.5t-56 -45t-16.5 -55.5q0 -60 33.5 -85t93.5 -25z" />
    <glyph glyph-name="_238" horiz-adv-x="2119" 
d="M862 801q-12 -16 -24 -24.5t-34 -8.5q-20 0 -38.5 11.5t-42.5 25t-57 25t-82 11.5q-62 0 -107.5 -22.5t-75.5 -64.5t-44.5 -102t-14.5 -135q0 -158 63.5 -242t173.5 -84q38 0 65.5 6.5t48 16.5t35.5 22t28.5 22t27 16.5t30.5 6.5q32 0 50 -24l79 -100q-44 -51 -94 -84.5
t-103.5 -53t-108.5 -27t-109 -7.5q-95 0 -180 35.5t-149 103.5t-101.5 167t-37.5 226q0 113 33 210t97 168t158.5 111.5t218.5 40.5q19 0 37 -1t35 -3q-17 42 -26.5 85.5t-9.5 88.5q0 75 27.5 139t79.5 111.5t128 74t174 26.5q68 0 120.5 -12t95 -26.5t77.5 -26.5t70 -12
v-562q58 53 127 85.5t164 32.5q84 0 149 -29t109.5 -81t67 -124t22.5 -158v-655h-275v655q0 86 -40 133.5t-118 47.5q-59 0 -109.5 -25.5t-96.5 -69.5v-741h-276v1362q-5 18 -19.5 31t-36 21.5t-47.5 13t-52 4.5q-52 0 -91.5 -16t-66.5 -44t-40.5 -67t-13.5 -84
q0 -65 25.5 -126t70.5 -113q58 -35 106 -83z" />
    <glyph glyph-name="_239" horiz-adv-x="2075" 
d="M862 801q-12 -16 -24 -24.5t-34 -8.5q-20 0 -38.5 11.5t-42.5 25t-57 25t-82 11.5q-62 0 -107.5 -22.5t-75.5 -64.5t-44.5 -102t-14.5 -135q0 -158 63.5 -242t173.5 -84q38 0 65.5 6.5t48 16.5t35.5 22t28.5 22t27 16.5t30.5 6.5q32 0 50 -24l79 -100q-44 -51 -94 -84.5
t-103.5 -53t-108.5 -27t-109 -7.5q-95 0 -180 35.5t-149 103.5t-101.5 167t-37.5 226q0 113 33 210t97 168t158.5 111.5t218.5 40.5q19 0 37 -1t35 -3q-17 42 -26.5 85.5t-9.5 88.5q0 75 27.5 139t79.5 111.5t128 74t174 26.5q68 0 120.5 -12t95 -26.5t77.5 -26.5t70 -12
v-846h46q26 0 41 7.5t30 27.5l228 304q17 23 38.5 35t54.5 12h252l-296 -376q-35 -47 -81 -74q23 -16 40 -37t33 -47l319 -497h-248q-32 0 -55 10.5t-38 37.5l-232 379q-14 24 -29 31t-45 7h-58v-465h-276v1362q-5 18 -19.5 31t-36 21.5t-47.5 13t-52 4.5q-52 0 -91.5 -16
t-66.5 -44t-40.5 -67t-13.5 -84q0 -65 25.5 -126t70.5 -113q58 -35 106 -83z" />
    <glyph glyph-name="_240" horiz-adv-x="1718" 
d="M1419 1025h266v-192h-266v-538q0 -43 21 -68t58 -25q20 0 34 4.5t24 10t18.5 10t17.5 4.5q12 0 20 -5.5t16 -18.5l83 -132q-57 -45 -129 -68t-149 -23q-70 0 -124 20.5t-91 58.5t-56 92t-19 122v556h-97q-22 0 -37 14t-15 42v108l180 33q11 28 21.5 59.5t18.5 63t13 62.5
t5 58q0 37 -9 70.5t-31.5 59t-61 41t-97.5 15.5q-68 0 -121 -22t-89 -58.5t-55 -84.5t-19 -100q0 -54 20 -108.5t62 -105.5q54 -32 103 -81l-72 -98q-12 -16 -24 -24.5t-34 -8.5q-20 0 -38.5 11.5t-42.5 25t-57 25t-82 11.5q-62 0 -107.5 -22.5t-75.5 -64.5t-44.5 -102
t-14.5 -135q0 -158 63.5 -242t173.5 -84q38 0 65.5 6.5t48 16.5t35.5 22t28.5 22t27 16.5t30.5 6.5q32 0 50 -24l79 -100q-44 -51 -94 -84.5t-103.5 -53t-108.5 -27t-109 -7.5q-95 0 -180 35.5t-149 103.5t-101.5 167t-37.5 226q0 113 33 210t97 168t158.5 111.5t218.5 40.5
q21 0 40.5 -1t39.5 -4q-27 73 -27 150q0 72 25.5 139.5t76.5 120t128.5 84.5t182.5 32q104 0 177 -29.5t119.5 -77.5t68 -109.5t21.5 -125.5v-201z" />
    <glyph glyph-name="_241" horiz-adv-x="1720" 
d="M1419 1025h266v-192h-266v-538q0 -43 21 -68t58 -25q20 0 34 4.5t24 10t18.5 10t17.5 4.5q12 0 20 -5.5t16 -18.5l83 -132q-57 -45 -129 -68t-149 -23q-70 0 -124 20.5t-91 58.5t-56 92t-19 122v556h-97q-22 0 -37 14t-15 42v108l180 33q11 28 21.5 59.5t18.5 63t13 62.5
t5 58q0 37 -9 70.5t-31.5 59t-61 41t-97.5 15.5q-68 0 -121 -22t-89 -58.5t-55 -84.5t-19 -100q0 -54 20 -108.5t62 -105.5q54 -32 103 -81l-72 -98q-12 -16 -24 -24.5t-34 -8.5q-20 0 -38.5 11.5t-42.5 25t-57 25t-82 11.5q-62 0 -107.5 -22.5t-75.5 -64.5t-44.5 -102
t-14.5 -135q0 -158 63.5 -242t173.5 -84q38 0 65.5 6.5t48 16.5t35.5 22t28.5 22t27 16.5t30.5 6.5q32 0 50 -24l79 -100q-36 -42 -75.5 -72t-82.5 -49.5t-87 -31t-89 -15.5l-12 -45q47 -11 79 -26.5t51.5 -34.5t28 -42t8.5 -48q0 -35 -18.5 -62.5t-52 -46.5t-80.5 -29.5
t-104 -10.5q-41 0 -76.5 4.5t-70.5 14.5l25 85q6 24 31 24q14 0 30 -5.5t42 -5.5q30 0 44 11t14 26q0 25 -33.5 36.5t-107.5 22.5l45 134q-82 13 -153.5 54t-124.5 108t-83.5 158.5t-30.5 205.5q0 113 33 210t97 168t158.5 111.5t218.5 40.5q21 0 40.5 -1t39.5 -4
q-27 73 -27 150q0 72 25.5 139.5t76.5 120t128.5 84.5t182.5 32q104 0 177 -29.5t119.5 -77.5t68 -109.5t21.5 -125.5v-201z" />
    <glyph glyph-name="dcaron" unicode="&#x10f;" horiz-adv-x="1141" 
d="M62 0zM857 0q-53 0 -68 48l-23 90q-62 -68 -140.5 -110.5t-185.5 -42.5q-83 0 -152 35t-119.5 102.5t-78.5 165.5t-28 224q0 115 31.5 214t89.5 171t140 113t182 41q84 0 141.5 -25t104.5 -68v533h276v-1491h-170zM535 199q73 0 122.5 28.5t93.5 82.5v453
q-39 45 -84.5 63t-96.5 18q-50 0 -91 -19t-70.5 -59.5t-45.5 -103.5t-16 -150q0 -86 13 -146t37.5 -97t59.5 -53.5t78 -16.5zM1343 1493q30 0 37 -13.5t7 -25.5q0 -9 -3.5 -24t-14.5 -44.5t-30.5 -77t-52.5 -120.5q-15 -30 -37.5 -39t-57.5 -9h-98l64 353h186z" />
    <glyph glyph-name="dcroat" unicode="&#x111;" horiz-adv-x="1142" 
d="M530 1294h223v197h276v-197h142v-167h-142v-1127h-170q-53 0 -68 48l-23 90q-31 -34 -65.5 -62t-74.5 -48.5t-86 -31.5t-100 -11q-83 0 -152.5 32.5t-119.5 97t-78 159.5t-28 221q0 115 31.5 211t89.5 165t139.5 107t181.5 38q84 0 142 -25t105 -68v204h-223v167z
M537 199q73 0 122.5 28.5t93.5 82.5v418q-40 45 -85.5 63.5t-96.5 18.5q-50 0 -91 -16.5t-70 -53.5t-45 -97.5t-16 -147.5q0 -86 13 -143t37.5 -91t59.5 -48t78 -14z" />
    <glyph glyph-name="eth" unicode="&#xf0;" horiz-adv-x="1145" 
d="M368 1060q-17 26 -9.5 50t34.5 38l63 34q-27 10 -55.5 19t-60.5 18q-18 5 -32.5 15t-22.5 26t-8.5 37t9.5 48l32 94q103 -17 197.5 -48.5t179.5 -80.5l179 110l55 -87q15 -24 8.5 -47t-29.5 -37l-74 -40q111 -102 176.5 -250.5t65.5 -349.5q0 -148 -34.5 -264t-101 -196
t-164 -122t-223.5 -42q-106 0 -197 33.5t-157.5 96.5t-104.5 154.5t-38 207.5q0 91 33 173.5t93.5 145.5t145.5 100t189 37q93 0 167.5 -31t133.5 -90q-20 94 -66.5 164t-127.5 124l-204 -126zM560 191q52 0 97 19t79.5 62.5t55.5 114.5t24 175q-15 34 -37 64.5t-51.5 52.5
t-67.5 35t-86 13q-60 0 -105.5 -19.5t-76 -54t-46.5 -80.5t-16 -98q0 -69 18 -122t49 -89t73 -54.5t90 -18.5z" />
    <glyph glyph-name="eogonek" unicode="&#x119;" horiz-adv-x="1072" 
d="M738 -178q19 0 26 -17l41 -100q-34 -22 -84.5 -36.5t-107.5 -14.5q-103 0 -156.5 41.5t-53.5 106.5q0 50 30 97t91 88q-99 7 -184 46t-147.5 108.5t-98 168.5t-35.5 227q0 105 34.5 198t99.5 162t158 109.5t210 40.5q99 0 182.5 -31.5t144 -91.5t94 -147.5t33.5 -199.5
q0 -31 -3 -51t-10 -32t-19 -16.5t-31 -4.5h-619q13 -145 82.5 -212t182.5 -67q57 0 98.5 13.5t73 30t57 30t50.5 13.5q32 0 50 -24l80 -100q-64 -74 -144.5 -111t-163.5 -51q-37 -21 -64 -53t-27 -71q0 -28 16.5 -44t46.5 -16q17 0 28 1.5t17.5 4t11.5 4t10 1.5zM566 853
q-99 0 -155 -56.5t-73 -159.5h430q0 43 -11.5 82t-36.5 69t-63 47.5t-91 17.5z" />
    <glyph glyph-name="_275" horiz-adv-x="1141" 
d="M1027 1031v-948q0 -95 -36 -175t-104 -138.5t-165.5 -91.5t-219.5 -33q-69 0 -127.5 10.5t-107 28t-87 41.5t-68.5 51l64 103q11 19 27.5 29t42.5 10q25 0 46 -12.5t47 -27.5t62.5 -27.5t92.5 -12.5q64 0 112.5 18.5t81 50.5t48.5 74t16 89v63q-30 -32 -60 -54.5
t-62.5 -37t-70.5 -21.5t-84 -7q-96 0 -172.5 36t-130 103.5t-82 163t-28.5 214.5q0 109 31.5 204t89.5 165t140 110.5t182 40.5q94 0 157.5 -32t113.5 -85l13 50q16 48 69 48h169zM550 228q64 0 110.5 28.5t91.5 82.5v423q-38 45 -84.5 63.5t-97.5 18.5q-50 0 -91 -18.5
t-70.5 -57.5t-45.5 -98t-16 -140q0 -80 13.5 -137t39.5 -94t63.5 -54t86.5 -17z" />
    <glyph glyph-name="hcircumflex" unicode="&#x125;" horiz-adv-x="1134" 
d="M0 0zM114 0v1491h276v-562q58 53 127 85.5t164 32.5q84 0 149 -29t109.5 -81t67 -124t22.5 -158v-655h-275v655q0 86 -40 133.5t-118 47.5q-59 0 -109.5 -25.5t-96.5 -69.5v-741h-276zM618 1550h-200q-16 0 -39.5 6t-48.5 35l-68 94l-16 23l-16 -23l-68 -94
q-25 -29 -48.5 -35t-39.5 -6h-191l242 276h250z" />
    <glyph glyph-name="hbar" unicode="&#x127;" horiz-adv-x="1134" 
d="M-25 1299h139v192h275v-192h276v-167h-276v-237q58 53 127 85.5t164 32.5q84 0 149 -29t109.5 -81t67 -124t22.5 -158v-621h-275v621q0 86 -40 133.5t-118 47.5q-58 0 -109 -25.5t-97 -69.5v-707h-275v1132h-139v167z" />
    <glyph glyph-name="iogonek" unicode="&#x12f;" horiz-adv-x="520" 
d="M68 0zM398 1031v-1031h-276v1031h276zM431 1324q0 -35 -14 -65t-37.5 -53t-55 -36t-67.5 -13q-34 0 -64.5 13t-53.5 36t-36.5 53t-13.5 65t13.5 65.5t36.5 53.5t53.5 36t64.5 13q36 0 67.5 -13t55 -36t37.5 -53.5t14 -65.5zM403 -178q19 0 26 -17l41 -100
q-34 -22 -84.5 -36.5t-107.5 -14.5q-103 0 -156.5 41.5t-53.5 106.5q0 57 41 111.5t122 98.5l142 -12q-20 -11 -38 -24.5t-31.5 -30t-22 -35t-8.5 -39.5q0 -28 16.5 -44t46.5 -16q17 0 28 1.5t17.5 4t11.5 4t10 1.5z" />
    <glyph glyph-name="_279" horiz-adv-x="1078" 
d="M380 1031v-655q0 -86 43 -133t121 -47q27 0 48 3.5t37.5 12.5t30.5 23t29 35v761h275v-997q0 -84 -22.5 -156t-72 -124t-127.5 -81.5t-189 -29.5q-36 0 -73 5t-69 14l18 146q3 20 15.5 28t50.5 8q48 0 84.5 9.5t60.5 31.5t36.5 58.5t12.5 90.5v46q-47 -47 -100.5 -70.5
t-131.5 -23.5q-87 0 -153 28.5t-110.5 80.5t-67 123.5t-22.5 157.5v655h276zM1004 1324q0 -35 -14 -65t-37.5 -53t-55 -36t-67.5 -13q-35 0 -65.5 13t-53.5 36t-36.5 53t-13.5 65t13.5 65.5t36.5 53.5t53.5 36t65.5 13q36 0 67.5 -13t55 -36t37.5 -53.5t14 -65.5zM422 1324
q0 -35 -14 -65t-37.5 -53t-55 -36t-67.5 -13q-34 0 -64.5 13t-53.5 36t-36.5 53t-13.5 65t13.5 65.5t36.5 53.5t53.5 36t64.5 13q36 0 67.5 -13t55 -36t37.5 -53.5t14 -65.5z" />
    <glyph glyph-name="uni0237" unicode="&#x237;" horiz-adv-x="522" 
d="M399 1031v-1051q0 -70 -18 -131.5t-58.5 -107.5t-106 -73t-161.5 -27q-37 0 -68 5t-64 14l10 146q2 20 14.5 28t49.5 8t61 6.5t38.5 22.5t20.5 42.5t6 66.5v1051h276z" />
    <glyph glyph-name="kgreenlandic" unicode="&#x138;" horiz-adv-x="1091" 
d="M390 1031v-386h46q26 0 41 7.5t30 27.5l228 304q17 23 38.5 35t54.5 12h252l-296 -376q-35 -47 -81 -74q23 -16 40 -37t33 -47l319 -497h-248q-32 0 -55 10.5t-38 37.5l-232 379q-14 24 -29 31t-45 7h-58v-465h-276v1031h276z" />
    <glyph glyph-name="lslash" unicode="&#x142;" horiz-adv-x="677" 
d="M476 1491v-518l173 68v-156q0 -43 -37 -58l-136 -56v-771h-276v676l-163 -65v161q0 36 33 51l130 55v613h276z" />
    <glyph glyph-name="lcaron" unicode="&#x13e;" horiz-adv-x="507" 
d="M116 0zM392 1491v-1491h-276v1491h276zM727 1493q30 0 37 -13.5t7 -25.5q0 -9 -3.5 -24t-14.5 -44.5t-30.5 -77t-52.5 -120.5q-15 -30 -37.5 -39t-57.5 -9h-98l64 353h186z" />
    <glyph glyph-name="eng" unicode="&#x14b;" horiz-adv-x="1134" 
d="M114 0v1031h170q52 0 69 -48l17 -72q31 30 64.5 55t71 43t81 28t94.5 10q84 0 149 -29t109.5 -81t67 -124t22.5 -158v-606q0 -89 -22.5 -163.5t-69.5 -129t-121.5 -85t-177.5 -30.5q-28 0 -52 2.5t-47 7.5t-46.5 12.5t-48.5 18.5l30 118q9 32 25 42t36 10q16 0 31.5 -5.5
t46.5 -5.5q71 0 106 42.5t35 133.5v638q0 86 -40 133.5t-118 47.5q-59 0 -109.5 -25.5t-96.5 -69.5v-741h-276z" />
    <glyph glyph-name="thorn" unicode="&#xfe;" horiz-adv-x="1142" 
d="M114 -333v1824h276v-579q60 61 135 98t176 37q83 0 152.5 -35t119.5 -101.5t78 -164t28 -223.5q0 -116 -31.5 -214.5t-89.5 -170.5t-139.5 -112.5t-181.5 -40.5q-43 0 -78.5 8t-65.5 22.5t-55 35t-48 45.5v-429h-276zM606 836q-73 0 -122.5 -29t-93.5 -83v-452
q39 -45 84.5 -63t97.5 -18q50 0 91 19t70.5 59.5t45.5 103.5t16 150q0 86 -13.5 146t-38 97t-59.5 53.5t-78 16.5z" />
    <glyph glyph-name="scedilla" unicode="&#x15f;" horiz-adv-x="885" 
d="M306 -228q14 0 30 -5.5t42 -5.5q30 0 44 11t14 26q0 25 -33.5 36.5t-107.5 22.5l44 131q-89 10 -168 43.5t-130 79.5l64 103q11 18 27.5 28t42.5 10q25 0 46 -12.5t47 -27t61.5 -27t88.5 -12.5q40 0 69 9t47 24.5t26.5 35t8.5 40.5q0 34 -21.5 55.5t-56 37.5t-79.5 29
t-91.5 29t-91 38t-79 55.5t-56 82.5t-21.5 119q0 64 25 121.5t75 101.5t124.5 70t172.5 26q110 0 200 -36t148 -94l-63 -98q-11 -17 -22.5 -24.5t-31.5 -7.5t-41 10t-47 21.5t-59.5 21.5t-77.5 10q-67 0 -104 -27.5t-37 -72.5q0 -31 21 -52t55.5 -36.5t78.5 -29t90.5 -29.5
t90.5 -37t78.5 -52.5t55.5 -76t21 -107.5q0 -66 -21 -123.5t-62.5 -102t-103 -74t-142.5 -40.5l-12 -46q47 -11 79 -26.5t51.5 -34.5t28 -42t8.5 -48q0 -35 -18.5 -62.5t-52 -46.5t-80.5 -29.5t-104 -10.5q-41 0 -76.5 4.5t-70.5 14.5l25 85q6 24 31 24z" />
    <glyph glyph-name="_287" horiz-adv-x="1648" 
d="M755 819q-11 -17 -22.5 -24.5t-31.5 -7.5t-41 10t-47 21.5t-59.5 21.5t-77.5 10q-67 0 -104 -27.5t-37 -72.5q0 -31 21 -52t55.5 -36.5t78.5 -29t90.5 -29.5t90.5 -37t78.5 -52.5t55.5 -76t21 -107.5q0 -75 -27.5 -138.5t-80.5 -109.5t-132 -72t-182 -26q-53 0 -105 9.5
t-99 27t-88 40.5t-71 50l64 103q11 18 27.5 28t42.5 10q25 0 46 -12.5t47 -27t61.5 -27t88.5 -12.5q40 0 69 9t47 24.5t26.5 35t8.5 40.5q0 34 -21.5 55.5t-56 37.5t-79.5 29t-91.5 29t-91 38t-79 55.5t-56 82.5t-21.5 119q0 64 25 121.5t75 101.5t124.5 70t172.5 26
q57 0 106 -10q-27 73 -27 152q0 76 23 144.5t72 120.5t125.5 83t183.5 31q104 0 179 -30t123 -78.5t71 -110t23 -125.5v-199h266v-192h-266v-538q0 -43 21 -68t58 -25q20 0 34 4.5t24 10t18.5 10t17.5 4.5q13 0 20.5 -5.5t15.5 -18.5l84 -132q-57 -45 -129 -68t-150 -23
q-70 0 -124 20.5t-90.5 58.5t-55.5 92t-19 122v556h-97q-22 0 -37.5 14t-15.5 42v108l181 33q10 28 20.5 59t18.5 62.5t13 62t5 57.5q0 37 -10.5 71t-35 60t-64.5 41.5t-99 15.5q-70 0 -122 -21t-86 -57t-50.5 -85t-16.5 -105q0 -66 28.5 -130.5t85.5 -120.5
q7 -6 13.5 -11.5t12.5 -11.5z" />
    <glyph glyph-name="_288" horiz-adv-x="1650" 
d="M306 -228q14 0 30 -5.5t42 -5.5q30 0 44 11t14 26q0 25 -33.5 36.5t-107.5 22.5l44 131q-89 10 -168 43.5t-130 79.5l64 103q11 18 27.5 28t42.5 10q25 0 46 -12.5t47 -27t61.5 -27t88.5 -12.5q40 0 69 9t47 24.5t26.5 35t8.5 40.5q0 34 -21.5 55.5t-56 37.5t-79.5 29
t-91.5 29t-91 38t-79 55.5t-56 82.5t-21.5 119q0 64 25 121.5t75 101.5t124.5 70t172.5 26q57 0 106 -10q-27 73 -27 152q0 76 23 144.5t72 120.5t125.5 83t183.5 31q104 0 179 -30t123 -78.5t71 -110t23 -125.5v-199h266v-192h-266v-538q0 -43 21 -68t58 -25q20 0 34 4.5
t24 10t18.5 10t17.5 4.5q13 0 20.5 -5.5t15.5 -18.5l84 -132q-57 -45 -129 -68t-150 -23q-70 0 -124 20.5t-90.5 58.5t-55.5 92t-19 122v556h-97q-22 0 -37.5 14t-15.5 42v108l181 33q10 28 20.5 59t18.5 62.5t13 62t5 57.5q0 37 -10.5 71t-35 60t-64.5 41.5t-99 15.5
q-70 0 -122 -21t-86 -57t-50.5 -85t-16.5 -105q0 -66 28.5 -130.5t85.5 -120.5q7 -6 13.5 -11.5t12.5 -11.5l-63 -98q-11 -17 -22.5 -24.5t-31.5 -7.5t-41 10t-47 21.5t-59.5 21.5t-77.5 10q-67 0 -104 -27.5t-37 -72.5q0 -31 21 -52t55.5 -36.5t78.5 -29t90.5 -29.5
t90.5 -37t78.5 -52.5t55.5 -76t21 -107.5q0 -66 -21 -123.5t-62.5 -102t-103 -74t-142.5 -40.5l-12 -46q47 -11 79 -26.5t51.5 -34.5t28 -42t8.5 -48q0 -35 -18.5 -62.5t-52 -46.5t-80.5 -29.5t-104 -10.5q-41 0 -76.5 4.5t-70.5 14.5l25 85q6 24 31 24z" />
    <glyph glyph-name="longs" unicode="&#x17f;" horiz-adv-x="618" 
d="M189 0v833l-80 14q-31 6 -50.5 22t-19.5 46v110h150v68q0 88 27.5 159.5t79 121t125 76.5t166.5 27q37 0 69.5 -4.5t65.5 -13.5l-9 -142q-2 -23 -25.5 -29.5t-52.5 -6.5q-43 0 -75 -10t-53 -33.5t-31.5 -61t-10.5 -91.5v-1085h-276z" />
    <glyph glyph-name="tcaron" unicode="&#x165;" horiz-adv-x="754" 
d="M30 0zM470 -16q-70 0 -124 20.5t-91 58.5t-56 92t-19 122v556h-97q-22 0 -37.5 14t-15.5 42v108l165 30l56 267q11 45 61 45h144v-314h266v-192h-266v-538q0 -43 20.5 -68t58.5 -25q20 0 34 4.5t24 10t18.5 10t17.5 4.5q12 0 20 -5.5t16 -18.5l83 -132q-57 -45 -129 -68
t-149 -23zM850 1493q30 0 37 -13.5t7 -25.5q0 -9 -3.5 -24t-14.5 -44.5t-30.5 -77t-52.5 -120.5q-15 -30 -37.5 -39t-57.5 -9h-98l64 353h186z" />
    <glyph glyph-name="tbar" unicode="&#x167;" horiz-adv-x="763" 
d="M57 695h125v138h-97q-22 0 -37.5 14t-15.5 42v108l165 30l56 267q11 45 61 45h144v-314h266v-192h-266v-138h275v-167h-275v-233q0 -43 20.5 -68t58.5 -25q20 0 34 4.5t24 10t18.5 10t17.5 4.5q12 0 20 -5.5t16 -18.5l83 -132q-57 -45 -129 -68t-149 -23q-70 0 -124 20.5
t-91 58.5t-56 92t-19 122v251h-125v167z" />
    <glyph glyph-name="uogonek" unicode="&#x173;" horiz-adv-x="1133" 
d="M1049 -178q19 0 26 -17l41 -100q-34 -22 -84.5 -36.5t-107.5 -14.5q-103 0 -156.5 41.5t-53.5 106.5q0 54 35.5 105t106.5 93h-7q-53 0 -68 48l-18 72q-62 -61 -135.5 -98.5t-174.5 -37.5q-84 0 -149.5 29t-109.5 81t-67 124t-23 158v655h276v-655q0 -86 39.5 -133.5
t117.5 -47.5q58 0 109 25.5t97 69.5v741h276v-1031q-20 -11 -38 -24.5t-31.5 -30t-22 -35t-8.5 -39.5q0 -28 16.5 -44t46.5 -16q17 0 28 1.5t17.5 4t11.5 4t10 1.5z" />
    <glyph glyph-name="_300" horiz-adv-x="813" 
d="M728 842h-152q-21 0 -35 10t-21 27l-20 64h-187l-20 -64q-5 -14 -19.5 -25.5t-35.5 -11.5h-154l234 609h177zM355 1079h102l-35 114q-5 11 -8.5 23.5t-7.5 27.5q-6 -32 -15 -52z" />
    <glyph glyph-name="_301" horiz-adv-x="580" 
d="M430 918q-26 0 -39.5 7.5t-23.5 30.5l-9 18q-20 -16 -38 -28t-36.5 -20t-40 -12t-47.5 -4q-79 0 -122 39.5t-43 111.5q0 27 12.5 56.5t46.5 55t92.5 43t150.5 19.5v12q0 37 -15.5 51t-42.5 14q-25 0 -40.5 -4.5t-28.5 -10.5t-26.5 -10.5t-34.5 -4.5q-20 0 -34 10t-22 24
l-35 62q51 42 113.5 63t132.5 21q50 0 90.5 -16.5t69 -45.5t44 -68t15.5 -85v-329h-89zM257 1038q22 0 39 6.5t37 25.5v52q-39 -2 -62 -7t-36 -12t-17 -15.5t-4 -17.5q0 -17 9.5 -24.5t33.5 -7.5z" />
    <glyph glyph-name="_302" horiz-adv-x="634" 
d="M259 1404q28 25 63 40t84 15q39 0 73.5 -18.5t60 -53t40.5 -85t15 -113.5q0 -60 -17 -111.5t-47.5 -88.5t-72 -58t-90.5 -21q-23 0 -41 4.5t-33 13t-27 19.5t-24 24l-3 -18q-4 -20 -15.5 -27.5t-29.5 -7.5h-128v766h192v-280zM332 1312q-23 0 -39 -8t-34 -27v-204
q14 -11 30 -15.5t32 -4.5q14 0 27.5 6t24 21t17 41.5t6.5 67.5q0 36 -4.5 60t-13 38t-20 19.5t-26.5 5.5z" />
    <glyph glyph-name="_303" horiz-adv-x="545" 
d="M465 1305q-9 -11 -17 -16.5t-23 -5.5q-13 0 -23 5t-20.5 11.5t-24 11.5t-34.5 5q-49 0 -69 -34.5t-20 -95.5q0 -64 23 -98.5t65 -34.5q24 0 37.5 6t23.5 13.5t19 14t26 6.5q11 0 20 -4t14 -13l56 -70q-29 -32 -58.5 -51t-59.5 -29t-58.5 -13t-55.5 -3q-48 0 -93 18.5
t-79.5 53.5t-55.5 86.5t-21 117.5q0 57 17.5 107t52 86.5t85.5 58t118 21.5q66 0 115.5 -21t89.5 -63z" />
    <glyph glyph-name="_304" horiz-adv-x="634" 
d="M447 918q-35 0 -46 31l-9 34q-31 -32 -69.5 -52.5t-94.5 -20.5q-39 0 -73.5 19t-60 54t-40 85.5t-14.5 113.5q0 61 17 112t47 88.5t71.5 58.5t91.5 21q37 0 62 -10t46 -26v258h192v-766h-120zM307 1059q22 0 37.5 7.5t30.5 23.5v207q-14 12 -30.5 16.5t-31.5 4.5
t-28.5 -6t-24 -21t-17 -41.5t-6.5 -67.5q0 -72 18.5 -97.5t51.5 -25.5z" />
    <glyph glyph-name="_305" horiz-adv-x="596" 
d="M306 1459q55 0 101 -16.5t78.5 -48.5t50.5 -78t18 -105q0 -22 -2 -36t-6.5 -22t-13 -11t-21.5 -3h-280q10 -45 36 -64t65 -19q24 0 41.5 6t32 12.5t28 12.5t30.5 6q23 0 34 -17l56 -70q-28 -32 -59 -51t-62.5 -29t-61.5 -13t-56 -3q-56 0 -106.5 18t-88.5 54t-60.5 89.5
t-22.5 124.5q0 52 18.5 99.5t53.5 84t85 58t112 21.5zM310 1325q-65 0 -80 -73h152q0 11 -2.5 23.5t-10.5 23.5t-22 18.5t-37 7.5z" />
    <glyph glyph-name="_306" horiz-adv-x="424" 
d="M103 918v407l-23 7q-21 5 -34 15t-13 31v77h70v18q0 46 15.5 84t44.5 65t72 42t97 15q20 0 36.5 -2t35.5 -6l-3 -96q-1 -37 -44 -37q-33 0 -50.5 -14t-17.5 -57v-12h110v-133h-104v-404h-192z" />
    <glyph glyph-name="_307" horiz-adv-x="595" 
d="M273 1461q33 0 63 -6.5t56 -17.5h168v-72q0 -16 -8.5 -25t-29.5 -14l-29 -8q3 -15 3 -31q0 -41 -17.5 -73t-48 -54.5t-71 -34.5t-86.5 -12q-10 0 -19 0.5t-18 1.5q-8 -5 -8 -13q0 -14 24 -16.5t59.5 -3.5t77.5 -3.5t77.5 -16.5t59.5 -43t24 -81q0 -37 -18 -72.5
t-52.5 -63.5t-85.5 -45t-117 -17q-64 0 -110.5 11.5t-76.5 31t-44.5 44.5t-14.5 52q0 32 18 54t50 35q-16 13 -25.5 32t-9.5 47q0 24 17 51.5t55 44.5q-42 23 -67 59t-25 85q0 41 18 73t48.5 54.5t72.5 34.5t90 12zM373 908q0 12 -14 17.5t-36.5 7t-51 1.5t-58.5 2
q-17 -14 -17 -28q0 -8 2.5 -16t11.5 -14t25.5 -9.5t45.5 -3.5q28 0 45.5 4t28 10t14.5 13.5t4 15.5zM273 1232q30 0 42 13.5t12 34.5q0 23 -11.5 36.5t-42.5 13.5q-32 0 -43.5 -13.5t-11.5 -36.5q0 -20 11.5 -34t43.5 -14z" />
    <glyph glyph-name="_308" horiz-adv-x="632" 
d="M68 918v766h192v-268q25 20 55 31.5t73 11.5t77 -15.5t57 -43t35.5 -65t12.5 -80.5v-337h-192v337q0 57 -50 57q-19 0 -35.5 -7t-32.5 -18v-369h-192z" />
    <glyph glyph-name="_309" horiz-adv-x="322" 
d="M257 1417v-499h-191v499h191zM275 1584q0 -22 -9 -41.5t-24.5 -34.5t-36 -23.5t-43.5 -8.5q-22 0 -42 8.5t-35 23.5t-23.5 34.5t-8.5 41.5q0 23 8.5 43t23.5 34.5t35 23t42 8.5q23 0 43.5 -8.5t36 -23t24.5 -34.5t9 -43z" />
    <glyph glyph-name="_310" horiz-adv-x="323" 
d="M257 1417v-477q0 -41 -10 -77t-33.5 -63.5t-63 -43.5t-98.5 -16q-20 0 -38 2t-38 7l6 102q0 11 5.5 19.5t23.5 8.5t28.5 2t16.5 8.5t8 18.5t2 32v477h191zM274 1584q0 -22 -9 -41.5t-24 -34.5t-35.5 -23.5t-43.5 -8.5q-22 0 -42 8.5t-35 23.5t-23.5 34.5t-8.5 41.5
q0 23 8.5 43t23.5 34.5t35 23t42 8.5q23 0 43.5 -8.5t35.5 -23t24 -34.5t9 -43z" />
    <glyph glyph-name="_311" horiz-adv-x="652" 
d="M260 1684v-417h23q17 0 26.5 4.5t14.5 17.5l66 132q7 17 22.5 23.5t36.5 6.5h176l-108 -178q-19 -35 -54 -54q28 -15 44 -51l121 -250h-174q-21 0 -38 6.5t-22 25.5l-64 171q-5 15 -13.5 18.5t-23.5 3.5h-33v-225h-192v766h192z" />
    <glyph glyph-name="_312" horiz-adv-x="327" 
d="M259 1684v-766h-191v766h191z" />
    <glyph glyph-name="_313" horiz-adv-x="925" 
d="M68 918v533h120q33 0 42 -34l4 -23q27 27 58.5 46t81.5 19q46 0 76 -23t47 -61q29 46 75.5 65t95.5 19q97 0 146 -53.5t49 -150.5v-337h-191v337q0 30 -13 43.5t-41 13.5q-25 0 -40 -15t-15 -42v-337h-192v337q0 29 -12.5 43t-42.5 14q-29 0 -56 -21v-373h-192z" />
    <glyph glyph-name="uni207F" unicode="&#x207f;" horiz-adv-x="630" 
d="M68 918v533h102q19 0 30.5 -8.5t19.5 -28.5l8 -27q32 32 67.5 52t91.5 20q44 0 78 -15.5t57 -43t35 -64.5t12 -80v-338h-191v338q0 55 -51 55q-18 0 -35 -7t-33 -19v-367h-191z" />
    <glyph glyph-name="_315" horiz-adv-x="636" 
d="M319 1459q61 0 112.5 -19t88.5 -54t57.5 -85.5t20.5 -114.5t-20.5 -115t-57.5 -87t-88.5 -55t-112.5 -19q-62 0 -113.5 19t-89 55t-58.5 87t-21 115t21 114.5t58.5 85.5t89 54t113.5 19zM319 1054q43 0 62 30.5t19 100.5q0 69 -19 99.5t-62 30.5q-45 0 -64.5 -30.5
t-19.5 -99.5q0 -70 19.5 -100.5t64.5 -30.5z" />
    <glyph glyph-name="_316" horiz-adv-x="635" 
d="M68 755v696h120q17 0 29.5 -7.5t16.5 -23.5l7 -34q31 33 70 54.5t96 21.5q39 0 73.5 -19t60 -54t40.5 -86t15 -114q0 -60 -17 -111.5t-47.5 -88.5t-72.5 -58t-91 -21q-38 0 -63 9.5t-45 25.5v-190h-192zM338 1312q-29 0 -46 -8.5t-32 -25.5v-205q14 -11 30.5 -15.5
t31.5 -4.5t28.5 6t24 21t16.5 41.5t6 67.5q0 36 -4.5 60t-12.5 38t-19 19.5t-23 5.5z" />
    <glyph glyph-name="_317" horiz-adv-x="634" 
d="M566 1451v-696h-192v211q-28 -25 -63 -40.5t-84 -15.5q-39 0 -73.5 19t-60 54t-40 85.5t-14.5 113.5q0 61 17 112t47 88.5t71.5 58.5t91.5 21q24 0 42.5 -4t34 -11.5t28.5 -17.5t25 -21l4 12q12 31 46 31h120zM300 1059q25 0 41 8.5t33 25.5v205q-15 11 -31.5 15.5
t-30.5 4.5q-34 0 -54.5 -29t-20.5 -107q0 -36 5 -59.5t14 -38t20.5 -20t23.5 -5.5z" />
    <glyph glyph-name="_318" horiz-adv-x="437" 
d="M68 918v533h115q29 0 39 -9.5t16 -35.5l5 -33q25 41 55.5 65t68.5 24q19 0 33 -5t25 -14l-13 -144q-3 -14 -10.5 -19t-18.5 -5q-9 0 -26 2t-27 2q-27 0 -43 -13t-27 -36v-312h-192z" />
    <glyph glyph-name="_319" horiz-adv-x="505" 
d="M419 1317q-8 -11 -15.5 -16t-20.5 -5t-24.5 4t-24.5 9.5t-27 9.5t-32 4q-43 0 -43 -25q0 -15 17 -24t43 -17t55.5 -17.5t55.5 -27t43 -45t17 -70.5q0 -41 -15 -75.5t-44.5 -59.5t-73.5 -38.5t-102 -13.5q-27 0 -55.5 5t-55 14t-49.5 21t-38 26l45 73q8 13 19 19.5t29 6.5
q16 0 27.5 -5.5t23 -11.5t26.5 -11.5t38 -5.5q28 0 36.5 7.5t8.5 15.5q0 16 -17.5 24.5t-43 16t-56 17.5t-56 28.5t-43 50t-17.5 81.5q0 36 13.5 68t40.5 56.5t68.5 38.5t98.5 14q60 0 111.5 -21.5t80.5 -51.5z" />
    <glyph glyph-name="_320" horiz-adv-x="457" 
d="M269 910q-83 0 -126 46.5t-43 120.5v245h-35q-14 0 -24.5 9.5t-10.5 28.5v76l85 20l35 110q6 29 41 29h101v-140h121v-133h-121v-231q0 -11 5 -20t18 -9q12 0 15.5 1.5t14.5 1.5q13 0 24 -16l59 -93q-35 -24 -75.5 -35t-83.5 -11z" />
    <glyph glyph-name="_321" horiz-adv-x="630" 
d="M252 1451v-338q0 -26 13.5 -41t37.5 -15q18 0 35 7t33 18v369h192v-533h-120q-17 0 -28 8.5t-18 22.5l-7 21q-29 -26 -62.5 -43t-84.5 -17q-43 0 -77 15.5t-57 43t-35.5 64.5t-12.5 80v338h191z" />
    <glyph glyph-name="_322" horiz-adv-x="573" 
d="M-2 1451h160q20 0 34.5 -8.5t18.5 -24.5l48 -179q8 -37 15.5 -71.5t13.5 -69.5q8 35 15.5 70t17.5 73l51 177q3 15 17 24t32 9h154l-202 -533h-175z" />
    <glyph glyph-name="_323" horiz-adv-x="888" 
d="M17 1451h159q20 0 35 -9.5t18 -31.5l32 -167q5 -33 10.5 -63t10.5 -59q7 29 14 59.5t16 62.5l47 168q5 20 19 30t32 10h77q20 0 35 -10.5t21 -30.5l43 -167q8 -31 14.5 -60t11.5 -57l22 116l38 169q3 20 17.5 30t32.5 10h151l-166 -533h-152q-24 0 -34 33l-57 209
q-6 20 -10 39.5t-8 39.5q-4 -20 -8.5 -40.5t-10.5 -40.5l-59 -207q-9 -33 -39 -33h-150z" />
    <glyph glyph-name="_324" horiz-adv-x="627" 
d="M186 1194l-167 257h185q20 0 29 -4.5t16 -16.5l80 -139q3 11 7.5 22.5t9.5 23.5l44 89q7 14 17 19.5t24 5.5h176l-167 -248l174 -285h-185q-20 0 -31.5 9.5t-19.5 23.5l-77 139q-3 -10 -6.5 -19t-7.5 -17l-54 -103q-7 -13 -19.5 -23t-30.5 -10h-171z" />
    <glyph glyph-name="_325" horiz-adv-x="574" 
d="M307 803q-12 -27 -25 -37.5t-39 -10.5h-145l105 220l-208 476h171q21 0 33 -9.5t17 -23.5l59 -167q7 -19 12 -37.5t10 -38.5q6 20 12.5 40t13.5 40l57 163q5 14 19 23.5t31 9.5h149z" />
    <glyph glyph-name="_326" horiz-adv-x="520" 
d="M474 1373q0 -43 -29 -77l-183 -233h209v-145h-430v81q0 11 7 30.5t24 39.5l184 238h-202v144h420v-78z" />
    <glyph glyph-name="_327" 
d="M260 1864q21 0 36.5 -1t28 -5.5t23.5 -13t23 -23.5l213 -271h-200q-16 0 -28 0.5t-22 3t-19.5 8t-20.5 14.5l-322 288h288z" />
    <glyph glyph-name="_328" 
d="M855 1864l-323 -286q-11 -9 -21 -14.5t-20.5 -8.5t-23 -4t-27.5 -1h-200l200 271q11 15 21.5 23.5t23 13t28.5 5.5t37 1h305z" />
    <glyph glyph-name="_329" 
d="M772 1550h-200q-16 0 -39.5 6t-48.5 35l-68 94l-16 23l-16 -23l-68 -94q-25 -29 -48.5 -35t-39.5 -6h-191l242 276h250z" />
    <glyph glyph-name="_330" 
d="M28 1826h200q8 0 18 -0.5t21 -3.5t21.5 -9.5t19.5 -18.5l76 -104q5 -6 8.5 -12t7.5 -12q4 6 7.5 12t8.5 12l75 103q9 12 19.5 19t21.5 10t21.5 3.5t18.5 0.5h200l-243 -276h-258z" />
    <glyph glyph-name="uni0315" unicode="&#x315;" 
d="M512 1493q30 0 37 -13.5t7 -25.5q0 -9 -3.5 -24t-14.5 -44.5t-30.5 -77t-52.5 -120.5q-15 -30 -37.5 -39t-57.5 -9h-98l64 353h186z" />
    <glyph glyph-name="_332" 
d="M524 1713q22 0 38 8.5t26 22t15 29.5t5 31h167q0 -52 -14 -100t-41.5 -85t-68 -59.5t-93.5 -22.5t-91.5 15.5t-69 34t-56 34t-52.5 15.5q-22 0 -37.5 -9t-25 -23t-14.5 -30t-5 -31h-169q0 52 14.5 100.5t42 86t68 60t93.5 22.5t92 -15.5t69 -34t55.5 -34t51.5 -15.5z" />
    <glyph glyph-name="_333" 
d="M320 1667q0 -29 -11.5 -54.5t-32 -44t-47.5 -29.5t-57 -11q-28 0 -53 11t-44.5 29.5t-31 44t-11.5 54.5t11.5 55.5t31 46t44.5 31t53 11.5q30 0 57 -11.5t47.5 -31t32 -46t11.5 -55.5zM768 1667q0 -29 -11.5 -54.5t-31 -44t-45.5 -29.5t-56 -11t-56 11t-45.5 29.5t-31 44
t-11.5 54.5t11.5 55.5t31 46t45.5 31t56 11.5t56 -11.5t45.5 -31t31 -46t11.5 -55.5z" />
    <glyph glyph-name="_334" 
d="M91 1719h618v-155h-618v155z" />
    <glyph glyph-name="_335" 
d="M400 1546q-77 0 -140 16.5t-108 50.5t-70 86.5t-25 123.5h211q0 -55 29 -85t103 -30t103 30t29 85h211q0 -64 -25 -115.5t-70 -87.5t-108.5 -55t-139.5 -19z" />
    <glyph glyph-name="_336" 
d="M184 1710q0 44 17.5 80.5t47 62.5t68 40t80.5 14q44 0 84 -14t70 -40t47.5 -62.5t17.5 -80.5q0 -43 -17.5 -78.5t-47.5 -60.5t-70 -39t-84 -14q-42 0 -80.5 14t-68 39t-47 60.5t-17.5 78.5zM315 1710q0 -38 22 -61.5t64 -23.5q38 0 61 23.5t23 61.5q0 40 -23 63.5
t-61 23.5q-42 0 -64 -23.5t-22 -63.5z" />
    <glyph glyph-name="_337" 
d="M168 1341q0 48 19 87t50.5 67t73 43t87.5 15q47 0 90 -15t75.5 -43t51.5 -67t19 -87q0 -47 -19 -85.5t-51.5 -65.5t-75.5 -42t-90 -15q-46 0 -87.5 15t-73 42t-50.5 65.5t-19 85.5zM316 1341q0 -38 22 -61.5t64 -23.5q38 0 61 23.5t23 61.5q0 40 -23 63t-61 23
q-42 0 -64 -23t-22 -63zM806 1903l-253 -262q-20 -21 -39.5 -30t-50.5 -9h-165l139 245q16 27 37.5 41.5t64.5 14.5h267z" />
    <glyph glyph-name="_338" 
d="M197 1675q0 41 16.5 75t44 58t63.5 37.5t75 13.5q41 0 78 -13.5t65 -37.5t44.5 -58t16.5 -75q0 -40 -16.5 -73t-44.5 -56.5t-65 -36.5t-78 -13q-39 0 -75 13t-63.5 36.5t-44 56.5t-16.5 73zM319 1675q0 -35 20 -57.5t60 -22.5q36 0 57.5 22.5t21.5 57.5q0 38 -21.5 60
t-57.5 22q-40 0 -60 -22t-20 -60zM872 2134l-315 -210q-22 -19 -41 -23.5t-51 -4.5h-200l191 195q11 15 21.5 23.5t23 13t28.5 5.5t37 1h306z" />
    <glyph glyph-name="_339" 
d="M548 1826l-207 -237q-22 -19 -40.5 -29t-49.5 -10h-130l134 220q16 26 43.5 41t70.5 15h179zM955 1826l-262 -237q-23 -20 -45.5 -29.5t-53.5 -9.5h-148l182 220q21 25 50 40.5t72 15.5h205z" />
    <glyph glyph-name="_340" 
d="M563 1699q0 -32 -13 -60.5t-36 -50.5t-53.5 -34.5t-64.5 -12.5q-32 0 -60.5 12.5t-50.5 34.5t-35 50.5t-13 60.5q0 33 13 62.5t35 51.5t50.5 35t60.5 13q34 0 64.5 -13t53.5 -35t36 -51.5t13 -62.5z" />
    <glyph glyph-name="_341" 
d="M491 -88q30 0 37 -13.5t7 -25.5q0 -9 -2 -24.5t-9.5 -40.5t-21.5 -61.5t-38 -86.5q-15 -31 -37.5 -39.5t-57.5 -8.5h-98l51 300h169z" />
    <glyph glyph-name="_342" 
d="M517 1170h-236l115 284h173z" />
    <glyph glyph-name="Gamma" unicode="&#x393;" horiz-adv-x="1106" 
d="M1076 1224h-622v-1224h-302v1451h924v-227z" />
    <glyph glyph-name="uni0394" unicode="&#x394;" horiz-adv-x="1411" 
d="M14 84q0 79 35 169l506 1198h306l499 -1194q35 -83 35 -173v-84h-1381v84zM321 233h739l-300 762q-15 38 -32 90.5t-32 113.5q-15 -63 -32 -114.5t-33 -91.5z" />
    <glyph glyph-name="Theta" unicode="&#x398;" horiz-adv-x="1622" 
d="M549 845h522v-236h-522v236zM1554 726q0 -159 -53.5 -295t-151 -235t-234.5 -155.5t-304 -56.5t-304 56.5t-235 155.5t-151.5 235t-53.5 295t53.5 294.5t151.5 234.5t235 155.5t304 56.5t304 -56.5t234.5 -156t151 -235t53.5 -293.5zM1247 726q0 114 -30 204.5t-86.5 154
t-137 97t-182.5 33.5t-183 -33.5t-137.5 -97t-86.5 -154t-30 -204.5q0 -115 30 -205.5t86.5 -153.5t137.5 -96.5t183 -33.5t182.5 33.5t137 96.5t86.5 153.5t30 205.5z" />
    <glyph glyph-name="Lambda" unicode="&#x39b;" horiz-adv-x="1401" 
d="M1419 0h-259q-39 0 -63.5 18.5t-36.5 47.5l-314 836q-18 46 -35.5 102t-32.5 116q-13 -60 -28.5 -116t-33.5 -102l-312 -836q-10 -25 -35.5 -45.5t-63.5 -20.5h-225l584 1451h271z" />
    <glyph glyph-name="Xi" unicode="&#x39e;" horiz-adv-x="1248" 
d="M1179 1451v-244h-1107v244h1107zM1179 244v-244h-1107v244h1107zM321 853h608v-252h-608v252z" />
    <glyph glyph-name="Pi" unicode="&#x3a0;" horiz-adv-x="1547" 
d="M1395 0h-302v1224h-639v-1224h-302v1451h1243v-1451z" />
    <glyph glyph-name="Sigma" unicode="&#x3a3;" horiz-adv-x="1229" 
d="M812 751q0 -15 -2.5 -30.5t-10.5 -33.5t-23.5 -40t-40.5 -49l-241 -289q-33 -37 -56 -58.5t-46 -35.5q45 7 83.5 9.5t70.5 2.5h619v-227h-1108v110q0 32 16 64t39 56l435 494l-455 519q-15 16 -25 37.5t-10 44.5v126h1108v-227h-583q-58 0 -104.5 4t-91.5 12
q100 -48 165 -121l185 -229q25 -27 40 -47.5t23 -36.5t10.5 -29.5t2.5 -25.5z" />
    <glyph glyph-name="Phi" unicode="&#x3a6;" horiz-adv-x="1720" 
d="M1003 1375q152 -2 275.5 -53.5t210.5 -139.5t134 -205t47 -250t-47 -250t-134 -205t-210.5 -139.5t-275.5 -52.5v-191h-285v191q-152 1 -275.5 52.5t-210.5 139.5t-134 205t-47 250t47 250t134 205t210.5 139.5t275.5 53.5v188h285v-188zM342 727q0 -86 26.5 -161.5
t75.5 -132t118.5 -90t155.5 -35.5v838q-86 -2 -155.5 -35.5t-118.5 -90t-75.5 -132t-26.5 -161.5zM1379 727q0 86 -26.5 161.5t-76 132t-119 90t-154.5 35.5v-838q85 2 154.5 35.5t119 90t76 132t26.5 161.5z" />
    <glyph glyph-name="Psi" unicode="&#x3a8;" horiz-adv-x="1681" 
d="M282 1451q48 0 74 -28.5t26 -70.5v-423q0 -80 14.5 -141.5t50 -105t94 -68.5t146.5 -32v869h302v-870q88 7 147.5 32t95 68.5t50.5 105.5t15 142v423q0 42 26 70.5t74 28.5h202v-522q0 -127 -39 -231t-115.5 -179.5t-190.5 -120t-265 -53.5v-345h-302v345q-150 9 -264 54
t-190 120.5t-114.5 179t-38.5 230.5v522h202z" />
    <glyph glyph-name="uni03A9" unicode="&#x3a9;" horiz-adv-x="1637" 
d="M926 333q64 10 120.5 50.5t99 103t67.5 143t25 171.5q0 105 -33 183t-90 129t-133.5 76.5t-163.5 25.5q-86 0 -162 -25.5t-133 -76.5t-90.5 -129t-33.5 -183q0 -91 25 -171.5t67.5 -143t99.5 -103t121 -50.5v-333h-535q-46 0 -73 25.5t-27 66.5v151h206q51 0 104.5 -5
t105.5 -13q-87 33 -159.5 90t-124 132t-80 165.5t-28.5 191.5q0 141 55 262.5t151 210.5t227.5 139.5t284.5 50.5t284 -50.5t227.5 -139.5t151.5 -210.5t55 -262.5q0 -101 -28.5 -191.5t-80 -165.5t-124 -132t-159.5 -90q52 8 105 13t104 5h207v-151q0 -41 -27.5 -66.5
t-72.5 -25.5h-535v333z" />
    <glyph glyph-name="alpha" unicode="&#x3b1;" horiz-adv-x="1214" 
d="M1041 -10q-75 0 -138 38t-98 120q-35 -45 -76 -76.5t-84 -50.5t-87 -27.5t-84 -8.5q-88 0 -164 35.5t-131.5 101.5t-87 160t-31.5 212q0 124 35 227t97.5 176t147.5 113.5t184 40.5q92 0 165.5 -33t125.5 -87l13 52q16 48 69 48h169l-51 -526q-1 -48 -5.5 -95.5
t-4.5 -92.5q0 -33 10.5 -57.5t27.5 -40t40 -23.5t49 -8h78v-107q0 -17 -11.5 -33.5t-33.5 -29.5t-53.5 -20.5t-70.5 -7.5zM544 199q40 0 75 15t62 48.5t45 86.5t26 129l23 241q-14 25 -34 47.5t-46 39.5t-57 27.5t-65 10.5q-44 0 -85 -18.5t-72.5 -59.5t-51 -106.5
t-19.5 -158.5q0 -84 16 -142t43.5 -93.5t63.5 -51t76 -15.5z" />
    <glyph glyph-name="beta" unicode="&#x3b2;" horiz-adv-x="1145" 
d="M634 -15q-75 0 -136 21.5t-109 66.5v-413h-276v1268q0 123 27.5 222.5t85 169.5t145 108t207.5 38q113 0 193 -32t131 -84t74.5 -118t23.5 -133q0 -104 -48 -183.5t-145 -118.5q67 -20 120 -55t89 -82.5t55 -106t19 -124.5q0 -88 -32.5 -168.5t-92.5 -141.5t-144 -97.5
t-187 -36.5zM541 896q51 0 88.5 9t62 30t37 55t12.5 84q0 104 -46 150t-122 46q-50 0 -85 -19t-57 -60.5t-32 -108t-10 -162.5v-640q34 -48 75.5 -68t99.5 -20q65 0 111.5 21t76.5 57.5t44 85t14 103.5q0 72 -21 116.5t-55 68.5t-75.5 32t-83.5 8h-63v212h29z" />
    <glyph glyph-name="_355" horiz-adv-x="1158" 
d="M1029 1155q0 -88 -47.5 -154t-146.5 -123q63 -11 112 -45t83 -85t52 -116.5t18 -139.5q0 -116 -41 -209.5t-111.5 -159.5t-166 -102t-204.5 -36q-128 0 -220.5 49t-152.5 138t-89 214t-29 277q0 195 42.5 345t120 252.5t185 155.5t237.5 53q102 0 171 -30t110.5 -76
t59 -101.5t17.5 -106.5zM355 614q4 -116 21.5 -196t47.5 -129.5t71 -71.5t92 -22q56 0 101.5 23.5t77.5 64t49.5 95t17.5 117.5q0 64 -19 112t-54 75t-84.5 30.5t-109.5 -20.5zM640 1261q-53 0 -99.5 -24t-83.5 -77t-62.5 -137t-35.5 -203l186 66q116 44 167 108t51 142
q0 57 -28.5 91t-94.5 34z" />
    <glyph glyph-name="gamma" unicode="&#x3b3;" horiz-adv-x="1131" 
d="M425 -332v438q-12 80 -29.5 166t-41 168t-52.5 155t-64.5 128t-77 87t-90.5 32h-38v99q0 21 5.5 39t20.5 31.5t41 21.5t67 8q102 0 178.5 -49.5t132 -139t90.5 -213.5t54 -273q35 68 64.5 143t53.5 150.5t41.5 149.5t29.5 140q8 47 30 64.5t49 17.5h236
q-23 -108 -67 -226.5t-101 -238.5t-123 -236.5t-133 -219.5v-442h-276z" />
    <glyph glyph-name="delta" unicode="&#x3b4;" horiz-adv-x="1125" 
d="M934 1252q-5 -34 -21 -45.5t-49 -11.5q-19 0 -55.5 8.5t-80.5 19t-91.5 19.5t-87.5 9q-56 0 -80 -17t-24 -42q0 -27 27 -52t70.5 -51t99.5 -56t114.5 -67t114.5 -83.5t99.5 -106.5t70.5 -136t27 -171q0 -104 -34 -192t-98.5 -152.5t-158.5 -101t-214 -36.5
q-119 0 -213 36t-159 100t-100 152.5t-35 193.5q0 158 79.5 271t243.5 179q-40 24 -75 51t-61.5 60t-41.5 72.5t-15 89.5q0 60 23.5 109.5t71.5 85t119.5 55t167.5 19.5q39 0 89 -3t102.5 -9t103.5 -14t93 -17zM793 463q0 68 -19 121.5t-51 95.5t-74.5 75t-89.5 62
q-42 -19 -81.5 -47.5t-70 -69.5t-48.5 -95.5t-18 -126.5q0 -59 13.5 -111.5t40.5 -91.5t69 -61.5t99 -22.5q51 0 93.5 18.5t73 54t47 86t16.5 113.5z" />
    <glyph glyph-name="epsilon" unicode="&#x3b5;" horiz-adv-x="917" 
d="M800 813q-15 -24 -28 -31t-33 -7q-17 0 -35 10.5t-43.5 22.5t-60.5 22.5t-86 10.5q-80 0 -121.5 -29t-41.5 -77q0 -52 47 -83t138 -31h166v-175h-166q-103 0 -147.5 -32t-44.5 -89t42 -95.5t123 -38.5q57 0 93.5 14t63.5 31t48 31t46 14q34 0 50 -24l80 -100
q-44 -51 -95 -84t-103.5 -52t-103.5 -26.5t-94 -7.5q-84 0 -162 20.5t-137.5 60.5t-95 99t-35.5 135q0 84 45.5 141.5t118.5 91.5q-39 20 -67 46t-45.5 55t-25.5 60.5t-8 62.5q0 58 27.5 110.5t81 92t133.5 62.5t185 23q121 0 207.5 -36t146.5 -94z" />
    <glyph glyph-name="zeta" unicode="&#x3b6;" horiz-adv-x="819" 
d="M838 1339q3 -14 0 -30t-16.5 -37.5t-39.5 -50.5t-67 -69q-35 -34 -77.5 -76t-86 -90.5t-84.5 -103.5t-73 -114.5t-51.5 -124t-19.5 -132.5q0 -54 13.5 -93.5t42 -69.5t73 -52.5t106.5 -43.5q88 -29 145 -60.5t90 -68t46 -77.5t13 -87q0 -135 -94 -281l-213 80
q8 14 17.5 31.5t17 37t12.5 39t5 36.5q0 16 -7 33t-27 34t-56 34.5t-94 35.5q-88 28 -154.5 64.5t-111 86t-67 114.5t-22.5 149q0 108 35 208.5t98 198t149.5 194t189.5 196.5q-90 -18 -190 -18h-118q-32 0 -53.5 8.5t-35 21t-19.5 28.5t-6 31v130h705z" />
    <glyph glyph-name="eta" unicode="&#x3b7;" horiz-adv-x="1194" 
d="M1090 -333h-276v988q0 86 -39.5 133.5t-117.5 47.5q-58 0 -109.5 -25t-96.5 -70v-741h-276v718q0 64 -27.5 94.5t-78.5 30.5h-52v108q0 17 7.5 33.5t24 29t42.5 20.5t64 8q79 0 143 -35t97 -107q69 65 154 106t192 41q84 0 149.5 -29t109.5 -81t67 -124t23 -158v-988z
" />
    <glyph glyph-name="theta" unicode="&#x3b8;" horiz-adv-x="1210" 
d="M607 1469q116 0 211 -47.5t163 -140.5t105.5 -231.5t37.5 -320.5q0 -183 -37.5 -322.5t-105.5 -233t-163 -141t-211 -47.5q-117 0 -213 47.5t-164.5 141t-106 233t-37.5 322.5q0 182 37.5 320.5t106 231.5t164.5 140.5t213 47.5zM607 195q55 0 98.5 25.5t75 80t50 141
t23.5 208.5h-500q4 -122 23 -208.5t51.5 -141t77 -80t101.5 -25.5zM607 1261q-55 0 -99 -24t-76 -75.5t-51.5 -132.5t-25.5 -195h498q-6 114 -25.5 195t-51 132.5t-74 75.5t-95.5 24z" />
    <glyph glyph-name="_362" horiz-adv-x="1330" 
d="M180 598q0 48 -13.5 73t-58.5 25h-78v107q0 17 11.5 33.5t33.5 29.5t54 21t72 8q53 0 99.5 -15t81 -50t54.5 -92t20 -140v-171q0 -112 44.5 -172t130.5 -60q57 0 104.5 29t81.5 94t53 169t19 255q0 49 -3 96q-289 4 -438 89t-149 249q0 62 23.5 114.5t68 91t107.5 60.5
t143 22q184 0 306.5 -109.5t170.5 -323.5h184v-107q0 -33 -21 -59.5t-68 -26.5h-69q3 -47 3 -97q0 -171 -33 -311t-100 -239t-168.5 -153t-239.5 -54q-105 0 -185 31t-133.5 88.5t-80.5 139.5t-27 184v171zM550 1167q0 -33 16 -58t53 -41.5t97 -25.5t147 -11q-12 54 -30 98
t-43 75.5t-57.5 48.5t-72.5 17q-52 0 -81 -27.5t-29 -75.5z" />
    <glyph glyph-name="iota" unicode="&#x3b9;" horiz-adv-x="572" 
d="M107 1031h276v-717q0 -63 25 -95t83 -32h97v-82q0 -28 -18.5 -49.5t-48.5 -36.5t-67 -22.5t-74 -7.5q-67 0 -118 23.5t-85.5 65t-52 98t-17.5 122.5v733z" />
    <glyph glyph-name="lambda" unicode="&#x3bb;" horiz-adv-x="1108" 
d="M412 921l-82 244q-11 31 -23 50.5t-28.5 30.5t-39 15.5t-54.5 4.5h-79v99q0 21 7.5 39t25 31.5t47 21t73.5 7.5q41 0 85.5 -8.5t85.5 -30.5t75.5 -60.5t55.5 -99.5l355 -984q16 -47 44 -71t87 -24h62v-107q0 -29 -8.5 -46.5t-24.5 -27.5t-38.5 -13.5t-49.5 -3.5
q-45 0 -90.5 9.5t-86.5 33.5t-75 66t-56 107l-113 314q-11 26 -16.5 48.5t-9.5 43.5q-6 -22 -13.5 -44t-16.5 -45l-180 -471q-8 -20 -26.5 -35t-51.5 -15h-237z" />
    <glyph glyph-name="uni03BC" unicode="&#x3bc;" horiz-adv-x="1215" 
d="M390 1031v-604q0 -86 39.5 -137.5t117.5 -51.5q75 0 126 40.5t81 112.5v640h276v-718q0 -64 29.5 -94.5t80.5 -30.5h78v-107q0 -17 -11.5 -33.5t-33.5 -29.5t-53.5 -21t-70.5 -8q-43 0 -82 12t-72 37t-58 62t-39 88q-52 -81 -117.5 -125.5t-150.5 -44.5q-55 0 -98.5 14
t-78.5 40q11 -44 15 -90.5t4 -87.5v-227h-137q-57 0 -89 29t-32 84v1251h276z" />
    <glyph glyph-name="nu" unicode="&#x3bd;" horiz-adv-x="1051" 
d="M1044 1031q-27 -126 -74 -263.5t-108.5 -273t-133.5 -262.5t-150 -232h-171l-405 1031h229q30 0 50.5 -14t27.5 -36l173 -510q16 -47 27.5 -92t21.5 -90q41 73 72 157t55 171.5t41.5 174t31.5 163.5q6 42 28 59t49 17h236z" />
    <glyph glyph-name="xi" unicode="&#x3be;" horiz-adv-x="818" 
d="M817 1339q0 -24 -9 -43t-24 -32t-34.5 -20t-39.5 -7h-95q-54 0 -98.5 -16t-76 -44.5t-48.5 -69t-17 -89.5q0 -81 62 -118t174 -37h105v-211h-162q-58 0 -99.5 -14t-68.5 -39t-39.5 -60t-12.5 -78t14 -74.5t47 -58t87 -51t134 -54.5q115 -44 163.5 -105.5t48.5 -147.5
q0 -77 -23.5 -148.5t-70.5 -144.5l-213 81q8 13 17.5 30.5t17 36.5t12.5 37.5t5 33.5q0 38 -24 68t-88 49q-78 22 -150.5 55t-128 82.5t-88.5 119t-33 164.5q0 41 9.5 87.5t33 92t62.5 86t98 69.5q-70 36 -106.5 93t-36.5 136q0 43 13 79.5t36 68t54 57t67 46.5h-100
q-62 0 -87.5 28.5t-25.5 75.5v98h739v-112z" />
    <glyph glyph-name="_368" horiz-adv-x="824" 
d="M814 1339q0 -24 -9.5 -42.5t-24.5 -32t-34.5 -20.5t-39.5 -7h-99q-61 0 -105.5 -14.5t-73.5 -39t-43 -58.5t-14 -73q0 -51 16 -87t46 -58.5t74 -33t100 -10.5h105v-211h-162q-58 0 -99.5 -14t-68 -39t-39 -60t-12.5 -78t14 -74.5t47 -58t86.5 -51t133.5 -54.5
q115 -44 164 -105.5t49 -147.5q0 -77 -23.5 -148.5t-70.5 -144.5l-214 81q8 13 17.5 30.5t17 36.5t12.5 37.5t5 33.5q0 38 -24 68t-88 49q-78 22 -150.5 55t-127.5 82.5t-88 119t-33 164.5q0 42 10.5 90.5t35.5 95t67 87.5t106 70q-78 36 -119 103.5t-41 174.5
q0 97 35 171.5t98.5 124t152 75t196.5 25.5h215v-112z" />
    <glyph glyph-name="rho" unicode="&#x3c1;" horiz-adv-x="1145" 
d="M101 581q0 106 31.5 192t93.5 147t152.5 94.5t209.5 33.5q101 0 191 -36t158 -104t108 -165.5t40 -219.5q0 -116 -31.5 -214.5t-89.5 -170.5t-139.5 -112.5t-181.5 -40.5q-80 0 -146.5 24.5t-120.5 69.5v-412h-275v914zM376 291q42 -54 96 -77t106 -23q50 0 91 19
t70.5 59.5t45.5 103.5t16 150q0 86 -15.5 146t-43.5 97t-67 53.5t-87 16.5q-44 0 -82.5 -16.5t-67 -48.5t-45.5 -79.5t-17 -110.5v-290z" />
    <glyph glyph-name="sigma" unicode="&#x3c3;" horiz-adv-x="1245" 
d="M968 824q58 -55 91.5 -136t33.5 -190q0 -111 -37 -205.5t-104.5 -162.5t-162.5 -106.5t-211 -38.5t-211.5 35.5t-164 102.5t-106 162.5t-37.5 215.5q0 125 42 223.5t120 166.5t189 103.5t249 35.5h601v-130q0 -12 -6 -25.5t-17 -24.5t-27 -18.5t-35 -7.5h-207zM810 510
q0 49 -5.5 98t-18.5 91.5t-33 75t-48 49.5h-48q-164 0 -239 -80t-75 -248q0 -304 234 -304q119 0 176 78.5t57 239.5z" />
    <glyph glyph-name="sigma1" unicode="&#x3c2;" horiz-adv-x="951" 
d="M860 801q-12 -16 -23.5 -24.5t-33.5 -8.5q-21 0 -39.5 11.5t-42 25t-56.5 25t-82 11.5q-62 0 -107.5 -21.5t-75.5 -58.5t-44.5 -86t-14.5 -104q0 -86 18.5 -139.5t59.5 -89.5t105 -62t156 -57q115 -43 164 -104.5t49 -148.5q0 -77 -23.5 -148.5t-70.5 -143.5l-214 80
q8 14 17.5 31.5t17 36.5t12.5 37.5t5 33.5q0 38 -24 67.5t-88 49.5q-62 18 -121 40t-111 51t-95 68t-74 93t-48.5 124.5t-17.5 163.5q0 99 33 188.5t97.5 157t159 107.5t218.5 40q118 0 207 -38t160 -110z" />
    <glyph glyph-name="tau" unicode="&#x3c4;" horiz-adv-x="964" 
d="M13 942q0 34 22.5 60t69.5 26h841v-106q0 -47 -24.5 -71t-69.5 -24h-269v-512q0 -63 25 -94.5t83 -31.5h97v-82q0 -29 -18.5 -50.5t-48.5 -36.5t-67 -22.5t-74 -7.5q-67 0 -118 23.5t-85.5 65.5t-52 98.5t-17.5 122.5v527h-294v115z" />
    <glyph glyph-name="upsilon" unicode="&#x3c5;" horiz-adv-x="1124" 
d="M379 1031v-655q0 -43 13 -76.5t36 -57t55 -35.5t71 -12t78 16t69.5 56t50 108t19.5 172q0 51 -5.5 100t-13.5 98t-16.5 98.5t-14.5 100.5q-2 24 4.5 40.5t17.5 27t25.5 15t28.5 4.5h190q10 -64 19 -123.5t16 -118.5t11.5 -119t4.5 -123q0 -148 -42.5 -254.5t-112.5 -175
t-160.5 -101t-186.5 -32.5q-104 0 -185 27.5t-136 78.5t-83.5 123.5t-28.5 162.5v655h276z" />
    <glyph glyph-name="phi" unicode="&#x3c6;" horiz-adv-x="1576" 
d="M333 516q0 -76 22.5 -137t64 -103.5t101 -66t133.5 -25.5v511q0 94 26 161t74.5 109.5t117 62t153.5 19.5q111 0 201.5 -38.5t155.5 -106.5t100.5 -160.5t35.5 -199.5q0 -129 -45.5 -231.5t-126 -174.5t-191.5 -111t-243 -40v-317h-258v318q-131 2 -240.5 40.5
t-189 107.5t-123.5 166.5t-44 216.5q0 91 28 172t79 148t121.5 118.5t155.5 85.5l72 -109q10 -15 11.5 -32.5t-3.5 -32.5t-14.5 -27t-20.5 -17q-70 -45 -111.5 -122t-41.5 -185zM912 184q78 1 139.5 25t104 69t65 111.5t22.5 152.5q0 72 -20.5 129t-52 96.5t-70 60
t-75.5 20.5q-25 0 -45.5 -7.5t-35.5 -25.5t-23.5 -47.5t-8.5 -72.5v-511z" />
    <glyph glyph-name="_375" horiz-adv-x="1576" 
d="M917 1451v-404q132 -2 242.5 -39t190.5 -106t124.5 -166.5t44.5 -218.5q0 -122 -44.5 -219.5t-124.5 -166.5t-190.5 -107t-242.5 -39v-317h-258v317q-132 1 -242.5 39t-190 107t-124 166.5t-44.5 219.5q0 121 44.5 218.5t124 166.5t190 106t242.5 39v404h258zM333 516
q0 -79 23 -140t65 -103.5t102.5 -65t135.5 -23.5v664q-75 -2 -135.5 -24.5t-102.5 -64.5t-65 -103.5t-23 -139.5zM1243 516q0 78 -23 139.5t-65.5 103.5t-102.5 64.5t-135 24.5v-664q75 1 135 23.5t102.5 65t65.5 103.5t23 140z" />
    <glyph glyph-name="chi" unicode="&#x3c7;" horiz-adv-x="998" 
d="M464 169q-4 -32 -10.5 -61.5t-14.5 -52.5l-153 -336q-8 -20 -26 -35t-50 -15h-198l331 719l-154 358q-14 30 -27.5 49.5t-30.5 31t-39.5 16t-54.5 4.5h-39v99q0 21 1 39t10 31.5t30.5 21.5t64.5 8q57 0 104.5 -10.5t87 -33.5t70.5 -61.5t55 -93.5l133 -311q4 32 10.5 61
t14.5 52l148 333q8 20 26 35t50 15h198l-328 -709l165 -382q10 -23 21 -41t26.5 -30t36.5 -18t50 -6h41v-107q0 -29 -5 -46.5t-17 -27.5t-31.5 -13.5t-49.5 -3.5q-51 0 -96 8.5t-84.5 32t-73 65.5t-61.5 110z" />
    <glyph glyph-name="psi" unicode="&#x3c8;" horiz-adv-x="1602" 
d="M941 1451v-1249q72 9 127.5 30.5t93.5 62t57.5 102t19.5 150.5q0 81 -7.5 137t-16.5 99.5t-17.5 80t-9.5 80.5q0 24 6.5 40.5t17.5 27t24.5 15t27.5 4.5h199q12 -64 21.5 -123.5t16.5 -118.5t10.5 -119t3.5 -123q0 -148 -44.5 -249.5t-122 -166t-182.5 -97.5t-225 -43
v-323h-276v321q-151 12 -258 52.5t-175.5 107t-100.5 157t-32 201.5v524h191q17 0 32 -10t26.5 -25t18.5 -33t7 -34v-422q0 -133 75.5 -206.5t215.5 -95.5v1246h276z" />
    <glyph glyph-name="omega" unicode="&#x3c9;" horiz-adv-x="1610" 
d="M522 195q40 0 67.5 20t45 56t25 85t7.5 107v233h276v-233h1q0 -58 7.5 -107t25 -85t45 -56t67.5 -20q31 0 63.5 14t58.5 52t42.5 103.5t16.5 169.5q0 57 -15.5 119.5t-35 117t-37.5 93.5t-23 50q-14 32 -11 54.5t15 36.5t28.5 20t30.5 6h199q28 -57 51 -119t39.5 -125.5
t25.5 -127.5t9 -125q0 -117 -29 -218t-83 -174.5t-132.5 -115.5t-177.5 -42q-60 0 -109 12.5t-88.5 34.5t-70 52t-52.5 66q-23 -36 -54 -66t-70 -52t-87 -34.5t-106 -12.5q-99 0 -177 42t-132.5 115.5t-83.5 174.5t-29 218q0 61 9 125t25.5 127.5t39.5 125.5t52 119h198
q14 0 30.5 -6t28.5 -20t15 -36.5t-10 -54.5q-5 -11 -23.5 -50t-38 -93.5t-35 -117t-15.5 -119.5q0 -104 16.5 -169.5t42.5 -103.5t58 -52t64 -14z" />
    <glyph glyph-name="tonos" unicode="&#x384;" 
d="M318 1142l53 376h169q38 0 51.5 -23.5t-0.5 -61.5l-115 -291h-158z" />
    <glyph glyph-name="dieresistonos" unicode="&#x385;" 
d="M314 1150l53 376h170q38 0 51 -23t0 -62l-115 -291h-159zM842 1300q0 -24 -9.5 -44.5t-26 -36.5t-38 -25t-46.5 -9t-46.5 9t-38 25t-26 36.5t-9.5 44.5q0 25 9.5 46.5t26 38t38 26t46.5 9.5t46.5 -9.5t38 -26t26 -38t9.5 -46.5zM280 1300q0 -24 -9.5 -44.5t-26 -36.5
t-39 -25t-47.5 -9q-24 0 -45 9t-37.5 25t-26 36.5t-9.5 44.5q0 25 9.5 46.5t26 38t37.5 26t45 9.5q25 0 47.5 -9.5t39 -26t26 -38t9.5 -46.5z" />
    <glyph glyph-name="uni0374" unicode="&#x374;" horiz-adv-x="460" 
d="M361 1522q42 -174 -5.5 -335t-181.5 -299l-87 52q-25 16 -27 37.5t10 36.5q29 40 52 77t33 74t2 76.5t-40 86.5v125q0 30 17 49.5t55 19.5h172z" />
    <glyph glyph-name="uni0375" unicode="&#x375;" horiz-adv-x="460" 
d="M361 389q42 -174 -5.5 -335t-181.5 -299l-87 52q-25 16 -27 37.5t10 36.5q29 40 52 77t33 74t2 76.5t-40 86.5v125q0 30 17 49.5t55 19.5h172z" />
    <glyph glyph-name="uni0411" unicode="&#x411;" horiz-adv-x="1267" 
d="M1156 1223h-704v-363h218q145 0 248 -32t167.5 -87t94.5 -127.5t30 -154.5q0 -104 -36.5 -188.5t-105.5 -144.5t-169.5 -93t-228.5 -33h-518v1451h1004v-228zM452 629v-399h218q71 0 118 16t75 43.5t39.5 63.5t11.5 76q0 45 -11.5 82t-39 63.5t-74.5 40.5t-119 14h-218z
" />
    <glyph glyph-name="uni0413" unicode="&#x413;" horiz-adv-x="1086" 
d="M1056 1224h-602v-1224h-302v1451h904v-227z" />
    <glyph glyph-name="uni0490" unicode="&#x490;" horiz-adv-x="1086" 
d="M1056 1224h-602v-1224h-302v1451h672v320h232v-547z" />
    <glyph glyph-name="uni0414" unicode="&#x414;" horiz-adv-x="1635" 
d="M1368 1451v-1224h221v-485q0 -38 -26.5 -61t-68.5 -23h-180v342h-1024v-258q0 -38 -26.5 -61t-68.5 -23h-181v569h161q26 15 53 48t52.5 92t48 149.5t41 221.5t32 307t19.5 406h947zM705 1224q-12 -202 -32 -360t-46 -279t-58.5 -209t-68.5 -149h566v997h-361z" />
    <glyph glyph-name="uni0416" unicode="&#x416;" horiz-adv-x="2160" 
d="M277 1451q45 0 83.5 -22t61.5 -61l269 -444q25 -44 56 -58t70 -14h121v599h283v-599h121q40 0 70.5 14t56.5 58l269 444q23 39 61.5 61t83.5 22h238l-354 -553q-30 -48 -62.5 -79.5t-78.5 -49.5q56 -20 99 -57.5t81 -101.5l358 -610h-201q-65 0 -111.5 27.5t-73.5 74.5
l-268 446q-26 45 -59.5 63t-81.5 18h-148v-629h-283v629h-147q-49 0 -82 -18t-59 -63l-268 -446q-28 -47 -74 -74.5t-112 -27.5h-200l357 610q38 64 81.5 101.5t98.5 57.5q-45 18 -77.5 49.5t-62.5 79.5l-354 553h238z" />
    <glyph glyph-name="uni0417" unicode="&#x417;" horiz-adv-x="1168" 
d="M1057 1084q0 -100 -44.5 -183.5t-137.5 -136.5q48 -24 88.5 -56t69 -70.5t44.5 -83.5t16 -95q0 -99 -37 -185.5t-107.5 -150t-173.5 -100.5t-235 -37q-75 0 -149.5 14t-142.5 39t-127.5 60t-105.5 78l89 142q11 16 28.5 26.5t38.5 10.5q28 0 60 -20t75 -44t102 -44
t141 -20q124 0 193 52t69 167q0 46 -19.5 82.5t-54.5 61.5t-85 38t-110 12h-208l-1 238h186q125 0 191 46t66 134q0 77 -61.5 122t-181.5 45q-69 0 -120 -15t-88.5 -33.5t-65 -33.5t-49.5 -15q-23 0 -38 10.5t-29 32.5l-74 141q85 72 204 113t262 41q120 0 216.5 -28
t164.5 -78.5t104.5 -121t36.5 -155.5z" />
    <glyph glyph-name="uni0418" unicode="&#x418;" horiz-adv-x="1547" 
d="M1037 1360q10 16 24 32.5t30.5 29.5t36 21t41.5 8h226v-1451h-302v865q0 54 3 113t12 126q-22 -59 -47 -110t-48 -89l-503 -813q-10 -17 -24 -33t-30.5 -29.5t-36 -21.5t-41.5 -8h-226v1451h302v-865q0 -54 -3 -113.5t-12 -125.5q21 59 46.5 110t48.5 89z" />
    <glyph glyph-name="uni041A" unicode="&#x41a;" horiz-adv-x="1413" 
d="M452 852h131q39 0 68 14t54 52l293 454q21 35 51 57t72 22h257l-376 -577q-25 -39 -59 -64.5t-75 -40.5q63 -17 107.5 -55.5t83.5 -107.5l355 -606h-274q-41 0 -69 21.5t-52 63.5l-277 472q-12 21 -25.5 35t-29 22.5t-35 11.5t-43.5 3h-157v-629h-300v1451h300v-599z" />
    <glyph glyph-name="uni041B" unicode="&#x41b;" horiz-adv-x="1503" 
d="M1351 1451v-1451h-302v1224h-362q-15 -270 -41 -467t-62.5 -334.5t-83 -223t-102 -133t-119 -64.5t-133.5 -17q-79 0 -114 14t-35 41v185h80q32 0 66.5 10.5t68 50t65 117.5t57 214.5t44 340t26.5 493.5h947z" />
    <glyph glyph-name="uni0409" unicode="&#x409;" horiz-adv-x="2143" 
d="M1351 1451v-591h217q146 0 248.5 -32t167.5 -87t95 -127.5t30 -154.5q0 -104 -36.5 -188.5t-105.5 -144.5t-169.5 -93t-229.5 -33h-519v1224h-362q-15 -270 -41 -467t-62.5 -334.5t-83 -223t-102 -133t-119 -64.5t-133.5 -17q-79 0 -114 14t-35 41v185h80q32 0 66.5 10.5
t68 50t65 117.5t57 214.5t44 340t26.5 493.5h947zM1351 629v-399h217q72 0 119 16t74.5 43.5t39 63.5t11.5 76q0 45 -11.5 82t-39 63.5t-74.5 40.5t-119 14h-217z" />
    <glyph glyph-name="uni040A" unicode="&#x40a;" horiz-adv-x="2188" 
d="M1395 860h218q145 0 248 -32t167.5 -87t94.5 -127.5t30 -154.5q0 -104 -36.5 -188.5t-105.5 -144.5t-169.5 -93t-229.5 -33h-519v625h-639v-625h-302v1451h302v-616h639v616h302v-591zM1395 629v-399h217q72 0 119 16t74.5 43.5t39 63.5t11.5 76q0 45 -11 82t-39 63.5
t-74.5 40.5t-118.5 14h-218z" />
    <glyph glyph-name="uni0472" unicode="&#x472;" horiz-adv-x="1622" 
d="M1554 726q0 -159 -53.5 -295t-151 -235t-234.5 -155.5t-304 -56.5t-304 56.5t-235 155.5t-151.5 235t-53.5 295t53.5 294.5t151.5 234.5t235 155.5t304 56.5t304 -56.5t234.5 -156t151 -235t53.5 -293.5zM811 237q90 0 164 26t128.5 76t89.5 122.5t47 164.5h-860
q12 -92 47 -164.5t90.5 -122.5t129.5 -76t164 -26zM811 1215q-88 0 -160.5 -25t-127 -73t-90 -116.5t-50.5 -155.5h854q-14 87 -49.5 155.5t-90 116.5t-127 73t-159.5 25z" />
    <glyph glyph-name="uni041F" unicode="&#x41f;" horiz-adv-x="1499" 
d="M1347 0h-302v1224h-591v-1224h-302v1451h1195v-1451z" />
    <glyph glyph-name="uni0423" unicode="&#x423;" horiz-adv-x="1305" 
d="M337 225q20 0 42.5 3.5t45 15t43.5 32.5t39 57l52 103l-582 1015h282q39 0 62 -18.5t38 -47.5l252 -486q25 -46 44.5 -92t34.5 -93q27 94 72 185l222 486q12 24 36.5 45t62.5 21h249l-585 -1245q-32 -67 -69 -110t-79.5 -67.5t-90.5 -34t-103 -9.5q-79 0 -114 14t-35 41
v185h81v0z" />
    <glyph glyph-name="uni0474" unicode="&#x474;" horiz-adv-x="1438" 
d="M-22 1451h241q39 0 63.5 -18.5t36.5 -47.5l314 -836q18 -47 36 -102.5t32 -115.5q13 60 29 115.5t34 102.5l216 682q37 117 114 173.5t208 56.5q39 0 63 -3t37 -9.5t17.5 -17t4.5 -25.5v-184h-54q-46 0 -77 -24t-51 -78l-408 -1120h-272z" />
    </font>
</defs>
</svg>
