<?xml version="1.0" standalone="no"?>
<!DOCTYPE svg PUBLIC "-//W3C//DTD SVG 1.1//EN" "http://www.w3.org/Graphics/SVG/1.1/DTD/svg11.dtd" >
<svg>
<metadata>
Created by FontForge 20110222 at Tue Jun 23 04:59:59 2015
 By www-data
Copyright (c) 2010-2014 by tyPoland Lukasz Dziedzic with Reserved Font Name "Lato". Licensed under the SIL Open Font License, Version 1.1. 
</metadata>
<defs>
<font id="Lato-Bold" horiz-adv-x="800" >
  <font-face 
    font-family="Lato"
    font-weight="700"
    font-stretch="normal"
    units-per-em="2000"
    panose-1="2 15 8 2 2 2 4 3 2 3"
    ascent="1610"
    descent="-390"
    x-height="1026"
    cap-height="1446"
    bbox="-1206 -570 2688 2199"
    underline-thickness="194"
    underline-position="-6"
    unicode-range="U+000D-FEFF"
  />
<missing-glyph horiz-adv-x="1094" 
d="M239 1147q57 46 129.5 77.5t171.5 31.5q70 0 126 -19t95 -53.5t59.5 -83t20.5 -107.5q0 -55 -14 -94.5t-35 -69t-46 -50.5t-48 -39.5t-40.5 -36.5t-22.5 -40l-22 -96h-169l-17 114q-6 37 5.5 63.5t32 48t46 40t48 39t38 46t15.5 60.5t-24 57t-70 22q-36 0 -60.5 -7
t-42.5 -15t-31.5 -15t-28.5 -7q-34 0 -50 29zM385 313q0 28 10.5 53t28.5 43.5t43 29t54 10.5q28 0 52.5 -10.5t43 -29t29 -43.5t10.5 -53q0 -29 -10.5 -53.5t-29 -42.5t-43 -28.5t-52.5 -10.5q-29 0 -54 10.5t-43 28.5t-28.5 42.5t-10.5 53.5zM42 1446h1010v-1446h-1010
v1446zM107 69h873v1309h-873v-1309z" />
    <glyph glyph-name="fi" unicode="fi" horiz-adv-x="1201" 
d="M195 0v840l-89 14q-29 6 -46.5 20.5t-17.5 41.5v101h153v33q0 94 31 174.5t94 139.5t159.5 92.5t227.5 33.5q42 0 85.5 -4.5t75.5 -14.5l-8 -128q-2 -23 -25 -27.5t-57 -4.5q-97 0 -162.5 -17t-106 -50.5t-58 -84t-17.5 -117.5v-25h636v-1017h-247v841h-381v-841h-247z
" />
    <glyph glyph-name="fl" unicode="fl" horiz-adv-x="1224" 
d="M195 0v840l-89 14q-29 6 -46.5 20.5t-17.5 41.5v101h153v43q0 82 26 157t79 132.5t134 92t191 34.5q85 0 160.5 -5.5t150.5 -6.5h163v-1464h-246v1292q-53 2 -103.5 5t-85.5 3q-112 0 -171 -62.5t-59 -177.5v-43h243v-176h-235v-841h-247z" />
    <glyph glyph-name="_246" unicode="fb" horiz-adv-x="1867" 
d="M854 0v1320q-38 13 -80.5 21.5t-82.5 8.5q-64 0 -112.5 -20t-80.5 -55.5t-48.5 -84t-16.5 -105.5v-68h267v-176h-259v-841h-247v840l-89 14q-29 6 -46.5 20.5t-17.5 41.5v101h153v68q0 92 28.5 170t90 134.5t158.5 88.5t235 32q47 0 89 -3.5t85 -8t90.5 -8t105.5 -4.5h25
v-587q62 66 137.5 104.5t172.5 38.5q89 0 160.5 -35t122 -100.5t77.5 -158.5t27 -209q0 -125 -31 -227t-88.5 -174.5t-138.5 -112.5t-180 -40q-48 0 -87.5 9.5t-72 26.5t-60 41.5t-52.5 54.5l-11 -69q-6 -26 -20.5 -37t-39.5 -11h-163zM1326 850q-71 0 -124 -32.5
t-101 -91.5v-460q42 -52 91.5 -72.5t104.5 -20.5q57 0 102.5 20.5t77.5 64t49 111t17 161.5q0 169 -56 244.5t-161 75.5z" />
    <glyph glyph-name="_247" unicode="ffb" horiz-adv-x="2515" 
d="M194 0v840l-89 14q-29 6 -46.5 20.5t-17.5 41.5v101h153v58q0 88 26.5 158t76 119t120.5 75t160 26q71 0 132 -19l-5 -123q-1 -14 -8 -23t-18.5 -13.5t-26.5 -6t-32 -1.5q-44 0 -78.5 -9.5t-58.5 -33t-36.5 -62t-12.5 -95.5v-50h409v68q0 92 28.5 170t90 134.5
t158.5 88.5t235 32q47 0 89 -3.5t85 -8t90 -8t106 -4.5h24h1l-1 -1v-586q62 66 137.5 104.5t172.5 38.5q89 0 160.5 -35t122 -100.5t77.5 -158.5t27 -209q0 -125 -31 -227t-88.5 -174.5t-138.5 -112.5t-180 -40q-48 0 -87.5 9.5t-72 26.5t-60 41.5t-52.5 54.5l-11 -69
q-6 -26 -20.5 -37t-39.5 -11h-163v1320q-38 13 -80 21.5t-82 8.5q-64 0 -112.5 -20t-80.5 -55.5t-48.5 -84t-16.5 -105.5v-68h266v-176h-258v-841h-247v841h-401v-841h-247zM1973 850q-71 0 -124 -32.5t-101 -91.5v-460q42 -52 91.5 -72.5t104.5 -20.5q57 0 102.5 20.5
t77.5 64t49 111t17 161.5q0 169 -56 244.5t-161 75.5z" />
    <glyph glyph-name="f_f" unicode="ff" horiz-adv-x="1365" 
d="M194 0v840l-89 14q-29 6 -46.5 20.5t-17.5 41.5v101h153v58q0 88 26.5 158t76 119t120.5 75t160 26q71 0 132 -19l-5 -123q-1 -14 -8 -23t-18.5 -13.5t-26.5 -6t-32 -1.5q-44 0 -78.5 -9.5t-58.5 -33t-36.5 -62t-12.5 -95.5v-50h409v91q0 88 26.5 158t76 119t120.5 75
t160 26q35 0 67.5 -4.5t64.5 -13.5l-6 -124q-2 -29 -26.5 -36.5t-57.5 -7.5q-44 0 -78.5 -9.5t-58.5 -33t-36.5 -62t-12.5 -95.5v-83h266v-176h-258v-841h-247v841h-401v-841h-247z" />
    <glyph glyph-name="_249" unicode="fh" horiz-adv-x="1860" 
d="M854 0v1320q-38 13 -80.5 21.5t-82.5 8.5q-64 0 -112.5 -20t-80.5 -55.5t-48.5 -84t-16.5 -105.5v-68h267v-176h-259v-841h-247v840l-89 14q-29 6 -46.5 20.5t-17.5 41.5v101h153v68q0 92 28.5 170t90 134.5t158.5 88.5t235 32q47 0 89 -3.5t85 -8t90.5 -8t105.5 -4.5h25
v-571q60 57 132 92t169 35q84 0 149 -28.5t108.5 -80t66 -123t22.5 -157.5v-653h-247v653q0 94 -43 145.5t-131 51.5q-64 0 -120 -29t-106 -79v-742h-247z" />
    <glyph glyph-name="_250" unicode="ffh" horiz-adv-x="2508" 
d="M194 0v840l-89 14q-29 6 -46.5 20.5t-17.5 41.5v101h153v58q0 88 26.5 158t76 119t120.5 75t160 26q71 0 132 -19l-5 -123q-1 -14 -8 -23t-18.5 -13.5t-26.5 -6t-32 -1.5q-44 0 -78.5 -9.5t-58.5 -33t-36.5 -62t-12.5 -95.5v-50h409v68q0 92 28.5 170t90 134.5
t158.5 88.5t235 32q47 0 89 -3.5t85 -8t90 -8t106 -4.5h24h1l-1 -1v-570q60 57 132 92t169 35q84 0 149 -28.5t108.5 -80t66 -123t22.5 -157.5v-653h-247v653q0 94 -43 145.5t-131 51.5q-64 0 -120 -29t-106 -79v-742h-247v1320q-38 13 -80 21.5t-82 8.5q-64 0 -112.5 -20
t-80.5 -55.5t-48.5 -84t-16.5 -105.5v-68h266v-176h-258v-841h-247v841h-401v-841h-247z" />
    <glyph glyph-name="_251" unicode="f&#xec;" horiz-adv-x="1201" 
d="M746 1490q69 0 111 -22.5t62 -58.5l142 -243h-140q-28 0 -45.5 7.5t-36.5 27.5l-104 109q-83 -2 -140.5 -20t-93 -51.5t-51.5 -83t-16 -113.5v-25h636v-1017h-247v841h-381v-841h-247v840l-89 14q-29 6 -46.5 20.5t-17.5 41.5v101h153v33q0 94 29 174.5t94.5 139.5
t170.5 92.5t257 33.5z" />
    <glyph glyph-name="_252" unicode="f&#xee;" horiz-adv-x="1201" 
d="M195 0v840l-89 14q-29 6 -46.5 20.5t-17.5 41.5v101h153v117q0 82 21 146t60.5 108t97.5 67.5t133 23.5q27 0 49 -2.5t43 -9.5v-135q0 -19 -16.5 -25.5t-39.5 -6.5q-59 0 -84 -38t-25 -127v-118h636v-1017h-247v841h-381v-841h-247zM1299 1168h-165q-14 0 -28.5 5.5
t-28.5 19.5l-98 104q-11 10 -21 24q-11 -14 -21 -24l-100 -104q-12 -13 -27 -19t-30 -6h-171l229 278h232z" />
    <glyph glyph-name="_253" unicode="f&#x129;" horiz-adv-x="1201" 
d="M42 0zM1054 1359q30 0 47 16.5t17 59.5h150q0 -56 -15.5 -101.5t-42.5 -78t-64.5 -50t-82.5 -17.5q-36 0 -67 13t-58 28t-50.5 28t-43.5 13q-29 0 -45.5 -17.5t-16.5 -59.5h-153q0 56 15.5 101.5t43.5 78t65.5 50.5t81.5 18q36 0 67.5 -13t58.5 -28t50 -28t43 -13zM195 0
v840l-89 14q-29 6 -46.5 20.5t-17.5 41.5v101h153v117q0 82 21 146t60.5 108t97.5 67.5t133 23.5q27 0 49 -2.5t43 -9.5v-135q0 -19 -16.5 -25.5t-39.5 -6.5q-59 0 -84 -38t-25 -127v-118h636v-1017h-247v841h-381v-841h-247z" />
    <glyph glyph-name="_254" unicode="f&#xef;" horiz-adv-x="1201" 
d="M910 1292q0 -28 -11 -52.5t-30 -42.5t-44.5 -28.5t-54.5 -10.5q-27 0 -51.5 10.5t-43 28.5t-29.5 42.5t-11 52.5q0 29 11 54.5t29.5 44.5t43 30t51.5 11q29 0 54.5 -11t44.5 -30t30 -44.5t11 -54.5zM1259 1292q0 -28 -11 -52.5t-29.5 -42.5t-44 -28.5t-53.5 -10.5
q-29 0 -54 10.5t-43.5 28.5t-29.5 42.5t-11 52.5q0 29 11 54.5t29.5 44.5t43.5 30t54 11q28 0 53.5 -11t44 -30t29.5 -44.5t11 -54.5zM195 0v840l-89 14q-29 6 -46.5 20.5t-17.5 41.5v101h153v117q0 82 21 146t60.5 108t97.5 67.5t133 23.5q27 0 49 -2.5t43 -9.5v-135
q0 -19 -16.5 -25.5t-39.5 -6.5q-59 0 -84 -38t-25 -127v-118h636v-1017h-247v841h-381v-841h-247z" />
    <glyph glyph-name="_255" unicode="f&#x12b;" horiz-adv-x="1201" 
d="M42 0zM648 1372h598v-158h-598v158zM195 0v840l-89 14q-29 6 -46.5 20.5t-17.5 41.5v101h153v117q0 82 21 146t60.5 108t97.5 67.5t133 23.5q27 0 49 -2.5t43 -9.5v-135q0 -19 -16.5 -25.5t-39.5 -6.5q-59 0 -84 -38t-25 -127v-118h636v-1017h-247v841h-381v-841h-247z
" />
    <glyph glyph-name="_256" unicode="f&#x12d;" horiz-adv-x="1201" 
d="M42 0zM947 1161q-86 0 -143.5 22.5t-93 61.5t-50.5 91t-15 110h173q0 -30 5.5 -54t20 -40.5t39.5 -25.5t64 -9t64 9t39.5 25.5t20 40.5t5.5 54h173q0 -58 -15 -110t-50.5 -91t-93.5 -61.5t-143 -22.5zM195 0v840l-89 14q-29 6 -46.5 20.5t-17.5 41.5v101h153v117
q0 82 21 146t60.5 108t97.5 67.5t133 23.5q27 0 49 -2.5t43 -9.5v-135q0 -19 -16.5 -25.5t-39.5 -6.5q-59 0 -84 -38t-25 -127v-118h636v-1017h-247v841h-381v-841h-247z" />
    <glyph glyph-name="_257" unicode="f&#x12f;" horiz-adv-x="1201" 
d="M195 0v840l-89 14q-29 6 -46.5 20.5t-17.5 41.5v101h153v33q0 94 31 174.5t94 139.5t159.5 92.5t227.5 33.5q42 0 85.5 -4.5t75.5 -14.5l-8 -128q-2 -23 -25 -27.5t-57 -4.5q-97 0 -162.5 -17t-106 -50.5t-58 -84t-17.5 -117.5v-25h636v-1017h-29q-20 -11 -39 -25
t-34 -31.5t-24 -37.5t-9 -42q0 -30 19 -47.5t53 -17.5q19 0 31 2t19.5 5t13 5t10.5 2q18 0 23 -16l38 -91q-33 -22 -82.5 -36.5t-104.5 -14.5q-98 0 -151 41t-53 106q0 55 36.5 106t104.5 92h-69v841h-381v-841h-247z" />
    <glyph glyph-name="_258" unicode="f&#x131;" horiz-adv-x="1201" 
d="M195 0v840l-89 14q-29 6 -46.5 20.5t-17.5 41.5v101h153v117q0 82 21 146t60.5 108t97.5 67.5t133 23.5q27 0 49 -2.5t43 -9.5v-135q0 -19 -16.5 -25.5t-39.5 -6.5q-59 0 -84 -38t-25 -127v-118h636v-1017h-247v841h-381v-841h-247z" />
    <glyph glyph-name="f_f_i" unicode="ffi" horiz-adv-x="1849" 
d="M195 0v840l-89 14q-29 6 -46.5 20.5t-17.5 41.5v101h153v58q0 88 26.5 158t76 119t120.5 75t160 26q70 0 131 -19l-5 -123q-2 -29 -26.5 -36.5t-57.5 -7.5q-44 0 -78.5 -9.5t-58.5 -33t-36.5 -62t-12.5 -95.5v-50h408v33q0 94 31 174.5t94 139.5t159.5 92.5t227.5 33.5
q42 0 86 -4.5t76 -14.5l-8 -128q-2 -23 -25 -27.5t-57 -4.5q-97 0 -162.5 -17t-106 -50.5t-58 -84t-17.5 -117.5v-25h636v-1017h-247v841h-381v-841h-248v841h-400v-841h-247z" />
    <glyph glyph-name="_260" unicode="ff&#xec;" horiz-adv-x="1848" 
d="M195 0v840l-90 14q-29 6 -46.5 20.5t-17.5 41.5v101h154v58q0 88 26.5 158t76 119t120.5 75t160 26q70 0 131 -19l-5 -123q-2 -29 -26.5 -36.5t-57.5 -7.5q-44 0 -78.5 -9.5t-58.5 -33t-36.5 -62t-12.5 -95.5v-50h408v91q0 88 30.5 158.5t93 119t158 74.5t226.5 26
q92 0 139.5 -12.5t61.5 -38.5l157 -269h-140q-29 0 -46.5 7.5t-35.5 27.5l-113 119h-22q-73 0 -124 -12.5t-83.5 -39.5t-47.5 -68.5t-15 -99.5v-83h636v-1017h-247v841h-381v-841h-247v841h-400v-841h-247z" />
    <glyph glyph-name="_261" unicode="ff&#xee;" horiz-adv-x="1848" 
d="M42 0zM195 0v840l-89 14q-29 6 -46.5 20.5t-17.5 41.5v101h153v58q0 88 26.5 158t76 119t120.5 75t160 26q70 0 131 -19l-5 -123q-2 -29 -26.5 -36.5t-57.5 -7.5q-44 0 -78.5 -9.5t-58.5 -33t-36.5 -62t-12.5 -95.5v-50h408v117q0 82 21 146t61 108t98 67.5t132 23.5
q28 0 49.5 -2.5t42.5 -9.5v-135q0 -19 -16 -25.5t-40 -6.5q-58 0 -83 -38t-25 -127v-118h636v-1017h-247v841h-381v-841h-248v841h-400v-841h-247zM1944 1168h-165q-14 0 -28.5 5.5t-28.5 19.5l-98 104q-11 10 -21 24q-11 -14 -21 -24l-100 -104q-12 -13 -27 -19t-30 -6
h-171l229 278h232z" />
    <glyph glyph-name="_262" unicode="ff&#x129;" horiz-adv-x="1848" 
d="M42 0zM195 0v840l-89 14q-29 6 -46.5 20.5t-17.5 41.5v101h153v58q0 88 26.5 158t76 119t120.5 75t160 26q70 0 131 -19l-5 -123q-2 -29 -26.5 -36.5t-57.5 -7.5q-44 0 -78.5 -9.5t-58.5 -33t-36.5 -62t-12.5 -95.5v-50h408v117q0 82 21 146t61 108t98 67.5t132 23.5
q28 0 49.5 -2.5t42.5 -9.5v-135q0 -19 -16 -25.5t-40 -6.5q-58 0 -83 -38t-25 -127v-118h636v-1017h-247v841h-381v-841h-248v841h-400v-841h-247zM1704 1359q30 0 47 16.5t17 59.5h150q0 -56 -15.5 -101.5t-42.5 -78t-64.5 -50t-82.5 -17.5q-36 0 -67 13t-58 28t-50.5 28
t-43.5 13q-29 0 -45.5 -17.5t-16.5 -59.5h-153q0 56 15.5 101.5t43.5 78t65.5 50.5t81.5 18q36 0 67.5 -13t58.5 -28t50 -28t43 -13z" />
    <glyph glyph-name="_263" unicode="ff&#xef;" horiz-adv-x="1848" 
d="M1557 1292q0 -28 -11 -52.5t-30.5 -42.5t-45 -28.5t-54.5 -10.5q-27 0 -51.5 10.5t-43 28.5t-29.5 42.5t-11 52.5q0 29 11 54.5t29.5 44.5t43 30t51.5 11q29 0 54.5 -11t45 -30t30.5 -44.5t11 -54.5zM1905 1292q0 -28 -11 -52.5t-29.5 -42.5t-44 -28.5t-53.5 -10.5
q-29 0 -53.5 10.5t-43.5 28.5t-29.5 42.5t-10.5 52.5q0 29 10.5 54.5t29.5 44.5t43.5 30t53.5 11q28 0 53.5 -11t44 -30t29.5 -44.5t11 -54.5zM195 0v840l-89 14q-29 6 -46.5 20.5t-17.5 41.5v101h153v58q0 88 26.5 158t76 119t120.5 75t160 26q70 0 131 -19l-5 -123
q-2 -29 -26.5 -36.5t-57.5 -7.5q-44 0 -78.5 -9.5t-58.5 -33t-36.5 -62t-12.5 -95.5v-50h408v117q0 82 21 146t61 108t98 67.5t132 23.5q28 0 49.5 -2.5t42.5 -9.5v-135q0 -19 -16 -25.5t-40 -6.5q-58 0 -83 -38t-25 -127v-118h636v-1017h-247v841h-381v-841h-248v841h-400
v-841h-247z" />
    <glyph glyph-name="_264" unicode="ff&#x12b;" horiz-adv-x="1848" 
d="M42 0zM195 0v840l-89 14q-29 6 -46.5 20.5t-17.5 41.5v101h153v58q0 88 26.5 158t76 119t120.5 75t160 26q70 0 131 -19l-5 -123q-2 -29 -26.5 -36.5t-57.5 -7.5q-44 0 -78.5 -9.5t-58.5 -33t-36.5 -62t-12.5 -95.5v-50h408v117q0 82 21 146t61 108t98 67.5t132 23.5
q28 0 49.5 -2.5t42.5 -9.5v-135q0 -19 -16 -25.5t-40 -6.5q-58 0 -83 -38t-25 -127v-118h636v-1017h-247v841h-381v-841h-248v841h-400v-841h-247zM1299 1372h598v-158h-598v158z" />
    <glyph glyph-name="_265" unicode="ff&#x12d;" horiz-adv-x="1848" 
d="M42 0zM195 0v840l-89 14q-29 6 -46.5 20.5t-17.5 41.5v101h153v58q0 88 26.5 158t76 119t120.5 75t160 26q70 0 131 -19l-5 -123q-2 -29 -26.5 -36.5t-57.5 -7.5q-44 0 -78.5 -9.5t-58.5 -33t-36.5 -62t-12.5 -95.5v-50h408v117q0 82 21 146t61 108t98 67.5t132 23.5
q28 0 49.5 -2.5t42.5 -9.5v-135q0 -19 -16 -25.5t-40 -6.5q-58 0 -83 -38t-25 -127v-118h636v-1017h-247v841h-381v-841h-248v841h-400v-841h-247zM1598 1161q-86 0 -143.5 22.5t-93 61.5t-50.5 91t-15 110h173q0 -30 5.5 -54t20 -40.5t39.5 -25.5t64 -9t64 9t39.5 25.5
t20 40.5t5.5 54h173q0 -58 -15 -110t-50.5 -91t-93.5 -61.5t-143 -22.5z" />
    <glyph glyph-name="_266" unicode="ff&#x12f;" horiz-adv-x="1848" 
d="M195 0v840l-89 14q-29 6 -46.5 20.5t-17.5 41.5v101h153v58q0 88 26.5 158t76 119t120.5 75t160 26q70 0 131 -19l-5 -123q-2 -29 -26.5 -36.5t-57.5 -7.5q-44 0 -78.5 -9.5t-58.5 -33t-36.5 -62t-12.5 -95.5v-50h408v33q0 94 31 174.5t94 139.5t159.5 92.5t227.5 33.5
q42 0 86 -4.5t76 -14.5l-8 -128q-2 -23 -25 -27.5t-57 -4.5q-97 0 -162.5 -17t-106 -50.5t-58 -84t-17.5 -117.5v-25h636v-1017h-25q-20 -11 -39 -25t-34 -31.5t-24 -37.5t-9 -42q0 -30 19 -47.5t53 -17.5q19 0 31 2t19.5 5t13 5t10.5 2q18 0 23 -16l38 -91
q-33 -22 -82.5 -36.5t-104.5 -14.5q-98 0 -151 41t-53 106q0 55 36.5 106t104.5 92h-73v841h-381v-841h-248v841h-400v-841h-247z" />
    <glyph glyph-name="_267" unicode="ff&#x131;" horiz-adv-x="1849" 
d="M195 0v840l-89 14q-29 6 -46.5 20.5t-17.5 41.5v101h153v58q0 88 26.5 158t76 119t120.5 75t160 26q70 0 131 -19l-5 -123q-2 -29 -26.5 -36.5t-57.5 -7.5q-44 0 -78.5 -9.5t-58.5 -33t-36.5 -62t-12.5 -95.5v-50h408v117q0 82 21 146t61 108t98 67.5t132 23.5
q28 0 49.5 -2.5t42.5 -9.5v-135q0 -19 -16 -25.5t-40 -6.5q-58 0 -83 -38t-25 -127v-118h636v-1017h-247v841h-381v-841h-248v841h-400v-841h-247z" />
    <glyph glyph-name="_268" unicode="fj" horiz-adv-x="1201" 
d="M195 0v840l-89 14q-29 6 -46.5 20.5t-17.5 41.5v101h153v33q0 94 31 174.5t94 139.5t159.5 92.5t227.5 33.5q42 0 85.5 -4.5t75.5 -14.5l-8 -128q-2 -23 -25 -27.5t-57 -4.5q-97 0 -162.5 -17t-106 -50.5t-58 -84t-17.5 -117.5v-25h636v-1052q0 -67 -17.5 -126
t-56 -103.5t-101 -70t-152.5 -25.5q-35 0 -65 4.5t-61 14.5l9 133q2 20 15 25.5t51 5.5q37 0 62 7.5t40.5 24t22 43.5t6.5 67v876h-381v-841h-247z" />
    <glyph glyph-name="_269" unicode="ffj" horiz-adv-x="1849" 
d="M195 0v840l-89 14q-29 6 -46.5 20.5t-17.5 41.5v101h153v58q0 88 26.5 158t76 119t120.5 75t160 26q70 0 131 -19l-5 -123q-2 -29 -26.5 -36.5t-57.5 -7.5q-44 0 -78.5 -9.5t-58.5 -33t-36.5 -62t-12.5 -95.5v-50h408v33q0 94 31 174.5t94 139.5t159.5 92.5t227.5 33.5
q42 0 86 -4.5t76 -14.5l-8 -128q-2 -23 -25 -27.5t-57 -4.5q-97 0 -162.5 -17t-106 -50.5t-58 -84t-17.5 -117.5v-25h636v-1052q0 -67 -17.5 -126t-56 -103.5t-101 -70t-152.5 -25.5q-35 0 -65 4.5t-61 14.5l8 133q3 20 16 25.5t50 5.5t62.5 7.5t41 24t22 43.5t6.5 67v876
h-381v-841h-248v841h-400v-841h-247z" />
    <glyph glyph-name="_270" unicode="fk" horiz-adv-x="1800" 
d="M194 0v840l-89 14q-29 6 -46.5 20.5t-17.5 41.5v101h153v68q0 92 28.5 170t90 134.5t158.5 88.5t235 32q50 0 94 -4t89.5 -8.5t96.5 -8t115 -3.5v-851h46q25 0 39.5 6.5t29.5 26.5l255 315q16 21 35.5 32t50.5 11h226l-319 -381q-34 -45 -74 -69q21 -15 37.5 -35
t31.5 -43l342 -498h-223q-29 0 -50 9.5t-35 34.5l-262 389q-14 23 -29 30t-45 7h-56v-470h-247v1320q-38 13 -80.5 21.5t-82.5 8.5q-64 0 -112.5 -20t-80.5 -55.5t-48.5 -84t-16.5 -105.5v-68h267v-176h-259v-841h-247z" />
    <glyph glyph-name="_271" unicode="ffk" horiz-adv-x="2449" 
d="M195 0v840l-89 14q-29 6 -46.5 20.5t-17.5 41.5v101h153v58q0 88 26.5 158t76 119t120.5 75t160 26q70 0 131 -19l-5 -123q-2 -29 -26.5 -36.5t-57.5 -7.5q-44 0 -78.5 -9.5t-58.5 -33t-36.5 -62t-12.5 -95.5v-50h408v68q0 92 28.5 170t90 134.5t159 88.5t235.5 32
q49 0 93 -4t89.5 -8.5t96.5 -8t115 -3.5v-851h46q25 0 39.5 6.5t29.5 26.5l255 315q16 21 35.5 32t50.5 11h226l-319 -381q-34 -45 -74 -69q21 -15 37.5 -35t31.5 -43l342 -498h-223q-29 0 -50 9.5t-35 34.5l-262 389q-14 23 -29 30t-45 7h-56v-470h-247v1320
q-38 13 -80 21.5t-82 8.5q-64 0 -112.5 -20t-80.5 -55.5t-48.5 -84t-16.5 -105.5v-68h266v-176h-258v-841h-248v841h-400v-841h-247z" />
    <glyph glyph-name="f_f_l" unicode="ffl" horiz-adv-x="1871" 
d="M194 0v840l-89 14q-29 6 -46.5 20.5t-17.5 41.5v101h153v58q0 88 26.5 158t76 119t120.5 75t160 26q71 0 132 -19l-5 -123q-1 -14 -8 -23t-18.5 -13.5t-26.5 -6t-32 -1.5q-44 0 -78.5 -9.5t-58.5 -33t-36.5 -62t-12.5 -95.5v-50h409v43q0 82 26 157t79 132.5t134 92
t191 34.5q91 0 173 -6t163 -6h138v-1464h-246v1292q-53 2 -103.5 5t-85.5 3q-112 0 -171 -62.5t-59 -177.5v-43h266v-176h-258v-841h-247v841h-401v-841h-247z" />
    <glyph glyph-name="_273" unicode="ft" horiz-adv-x="1415" 
d="M1105 841v-556q0 -48 24 -75t64 -27q23 0 38.5 5.5t27 11.5t20.5 11.5t18 5.5q11 0 18 -5.5t15 -16.5l74 -120q-54 -45 -123.5 -68t-144.5 -23q-134 0 -206 75.5t-72 208.5v573h-417v-841h-247v840l-89 14q-29 6 -46.5 20.5t-17.5 41.5v101h153v76q0 88 26.5 158t76 119
t120.5 75t160 26q71 0 132 -19l-5 -124q-1 -14 -8 -22.5t-18.5 -13t-26.5 -6t-32 -1.5q-44 0 -78.5 -9.5t-58.5 -33t-36.5 -62t-12.5 -95.5v-68h436l53 281q5 20 19 31t36 11h128v-323h274v-176h-274z" />
    <glyph glyph-name="_274" unicode="fft" horiz-adv-x="2063" 
d="M195 0v840l-89 14q-29 6 -46.5 20.5t-17.5 41.5v101h153v58q0 88 26.5 158t76 119t120.5 75t160 26q70 0 131 -19l-5 -123q-2 -29 -26.5 -36.5t-57.5 -7.5q-44 0 -78.5 -9.5t-58.5 -33t-36.5 -62t-12.5 -95.5v-50h408v76q0 88 26.5 158t76.5 119t121 75t160 26
q70 0 131 -19l-5 -124q-2 -29 -26.5 -36t-57.5 -7q-44 0 -78.5 -9.5t-58.5 -33t-36.5 -62t-12.5 -95.5v-68h435l53 281q5 20 19 31t37 11h127v-323h274v-176h-274v-556q0 -48 24 -75t65 -27q22 0 38 5.5t27.5 11.5t20.5 11.5t18 5.5q11 0 18 -5.5t15 -16.5l74 -120
q-54 -45 -124 -68t-145 -23q-134 0 -206 75.5t-72 208.5v573h-416v-841h-248v841h-400v-841h-247z" />
    <glyph glyph-name="_292" unicode="tf" horiz-adv-x="1406" 
d="M881 0v841h-447v-556q0 -48 23.5 -75t64.5 -27q23 0 38.5 5.5t27 11.5t20.5 11.5t18 5.5q11 0 18 -5.5t15 -16.5l74 -120q-54 -45 -124 -68t-145 -23q-134 0 -205.5 75.5t-71.5 208.5v573h-105q-20 0 -34 13t-14 39v98l165 27l52 280q5 20 19 31t36 11h128v-323h447v76
q0 88 26.5 158t76 119t120.5 75t160 26q71 0 132 -19l-5 -124q-1 -14 -8 -22.5t-18.5 -13t-26.5 -6t-32 -1.5q-44 0 -78.5 -9.5t-58.5 -33t-36.5 -62t-12.5 -95.5v-68h267v-176h-259v-841h-247z" />
    <glyph glyph-name="_293" unicode="t&#x12f;" horiz-adv-x="1288" 
d="M1176 -187q18 0 23 -16l37 -91q-32 -22 -81.5 -36.5t-104.5 -14.5q-98 0 -151 41t-53 106q0 55 36.5 106t104.5 92h-77v841h-476v-556q0 -48 24 -75t65 -27q22 0 38 5.5t27.5 11.5t20.5 11.5t18 5.5q11 0 18 -5.5t15 -16.5l74 -120q-54 -45 -124 -68t-145 -23
q-134 0 -206 75.5t-72 208.5v573h-104q-20 0 -34 13t-14 39v98l164 27l53 280q5 20 18.5 31t36.5 11h127v-323h723v-1017h-21q-20 -11 -39 -25t-34 -31.5t-24 -37.5t-9 -42q0 -30 19 -47.5t53 -17.5q19 0 31 2t19.5 5t13 5t10.5 2zM1192 1325q0 -32 -13 -60t-34.5 -49
t-51 -33.5t-62.5 -12.5q-32 0 -60 12.5t-49 33.5t-33.5 49t-12.5 60q0 33 12.5 62t33.5 50t49 33.5t60 12.5q33 0 62.5 -12.5t51 -33.5t34.5 -50t13 -62z" />
    <glyph glyph-name="_294" unicode="t&#x131;" horiz-adv-x="1288" 
d="M464 -16q-134 0 -205.5 75.5t-71.5 208.5v573h-105q-20 0 -34 13t-14 39v98l165 27l52 280q5 20 19 31t36 11h128v-323h723v-1017h-247v841h-476v-556q0 -48 23.5 -75t64.5 -27q23 0 38.5 5.5t27 11.5t20.5 11.5t18 5.5q11 0 18 -5.5t15 -16.5l74 -120q-54 -45 -124 -68
t-145 -23z" />
    <glyph glyph-name="_295" unicode="tt" horiz-adv-x="1406" 
d="M464 -16q-134 0 -205.5 75.5t-71.5 208.5v573h-105q-20 0 -34 13t-14 39v98l165 27l52 280q5 20 19 31t36 11h128v-323h427l53 281q5 20 18.5 31t36.5 11h127v-323h274v-176h-274v-556q0 -48 24 -75t65 -27q22 0 38 5.5t27.5 11.5t20.5 11.5t18 5.5q11 0 18 -5.5
t15 -16.5l74 -120q-54 -45 -124 -68t-145 -23q-134 0 -206 75.5t-72 208.5v573h-415v-556q0 -48 23.5 -75t64.5 -27q23 0 38.5 5.5t27 11.5t20.5 11.5t18 5.5q11 0 18 -5.5t15 -16.5l74 -120q-54 -45 -124 -68t-145 -23z" />
    <glyph glyph-name="_296" unicode="ttf" horiz-adv-x="2068" 
d="M1544 0v841h-448v-556q0 -48 24 -75t65 -27q22 0 38 5.5t27.5 11.5t20.5 11.5t18 5.5q11 0 18 -5.5t15 -16.5l74 -120q-54 -45 -124 -68t-145 -23q-134 0 -206 75.5t-72 208.5v573h-415v-556q0 -48 23.5 -75t64.5 -27q23 0 38.5 5.5t27 11.5t20.5 11.5t18 5.5
q11 0 18 -5.5t15 -16.5l74 -120q-54 -45 -124 -68t-145 -23q-134 0 -205.5 75.5t-71.5 208.5v573h-105q-20 0 -34 13t-14 39v98l165 27l52 280q5 20 19 31t36 11h128v-323h427l53 281q5 20 18.5 31t36.5 11h127v-323h448v76q0 88 26.5 158t76 119t120.5 75t160 26
q69 0 132 -19l-6 -124q-2 -29 -26.5 -36t-57.5 -7q-44 0 -78.5 -9.5t-58.5 -33t-36.5 -62t-12.5 -95.5v-68h266v-176h-258v-841h-247z" />
    <glyph glyph-name="_297" unicode="tt&#x12f;" horiz-adv-x="1931" 
d="M1821 -187q18 0 23 -16l38 -91q-33 -22 -82.5 -36.5t-104.5 -14.5q-98 0 -151 41t-53 106q0 55 36.5 106t104.5 92h-79v841h-456v-556q0 -48 24 -75t64 -27q23 0 39 5.5t27.5 11.5t20 11.5t17.5 5.5q20 0 33 -22l75 -120q-54 -45 -124 -68t-145 -23q-134 0 -206 75.5
t-72 208.5v573h-416v-556q0 -48 24 -75t65 -27q22 0 38 5.5t27.5 11.5t20.5 11.5t18 5.5q11 0 18 -5.5t15 -16.5l74 -120q-54 -45 -124 -68t-145 -23q-134 0 -206 75.5t-72 208.5v573h-104q-20 0 -34 13t-14 39v98l164 27l53 280q5 20 18.5 31t36.5 11h127v-323h427l53 281
q5 20 19 31t36 11h128v-323h703v-1017h-19q-20 -11 -39 -25t-34 -31.5t-24 -37.5t-9 -42q0 -30 19 -47.5t53 -17.5q19 0 31 2t19.5 5t13 5t10.5 2zM1835 1325q0 -32 -13 -60t-35 -49t-51 -33.5t-62 -12.5q-32 0 -60 12.5t-49.5 33.5t-34 49t-12.5 60q0 33 12.5 62t34 50
t49.5 33.5t60 12.5q33 0 62 -12.5t51 -33.5t35 -50t13 -62z" />
    <glyph glyph-name="_298" unicode="tt&#x131;" horiz-adv-x="1931" 
d="M464 -16q-134 0 -205.5 75.5t-71.5 208.5v573h-105q-20 0 -34 13t-14 39v98l165 27l52 280q5 20 19 31t36 11h128v-323h427l53 281q5 20 18.5 31t36.5 11h127v-323h703v-1017h-247v841h-456v-556q0 -48 24 -75t65 -27q22 0 38 5.5t27.5 11.5t20.5 11.5t18 5.5
q11 0 18 -5.5t15 -16.5l74 -120q-54 -45 -124 -68t-145 -23q-134 0 -206 75.5t-72 208.5v573h-415v-556q0 -48 23.5 -75t64.5 -27q23 0 38.5 5.5t27 11.5t20.5 11.5t18 5.5q11 0 18 -5.5t15 -16.5l74 -120q-54 -45 -124 -68t-145 -23z" />
    <glyph glyph-name="_735" unicode="f&#x1d0;" horiz-adv-x="1201" 
d="M195 0v840l-89 14q-29 6 -46.5 20.5t-17.5 41.5v101h153v117q0 82 21 146t60.5 108t97.5 67.5t133 23.5q27 0 49 -2.5t43 -9.5v-135q0 -19 -16.5 -25.5t-39.5 -6.5q-59 0 -84 -38t-25 -127v-118h636v-1017h-247v841h-381v-841h-247zM1068 1168h-231l-206 278h171
q15 0 30 -4.5t20 -12.5l82 -111q5 -9 11 -19.5t11 -21.5q10 23 21 41l82 111q5 8 20 12.5t30 4.5h165z" />
    <glyph glyph-name="_736" unicode="f&#x209;" horiz-adv-x="1201" 
d="M541 1479q42 0 72 -3.5t51.5 -11.5t37 -21.5t29.5 -33.5l178 -243h-117q-28 0 -45.5 7.5t-36.5 27.5l-93 98q-54 -2 -89.5 -10.5t-56 -27t-29 -49.5t-8.5 -77v-118h636v-1017h-247v841h-381v-841h-247v840l-89 14q-29 6 -46.5 20.5t-17.5 41.5v101h153v117q0 83 25.5 147
t71 108t109 67t140.5 23zM968 1462q40 0 60.5 -13.5t34.5 -39.5l127 -243h-102q-28 0 -46.5 7.5t-34.5 27.5l-200 261h161z" />
    <glyph glyph-name="_737" unicode="f&#x20b;" horiz-adv-x="1201" 
d="M195 0v840l-89 14q-29 6 -46.5 20.5t-17.5 41.5v101h153v117q0 82 21 146t60.5 108t97.5 67.5t133 23.5q27 0 49 -2.5t43 -9.5v-135q0 -19 -16.5 -25.5t-39.5 -6.5q-59 0 -84 -38t-25 -127v-118h636v-1017h-247v841h-381v-841h-247zM954 1456q85 0 143 -22.5t93.5 -61.5
t50.5 -91t15 -110h-173q0 30 -6 54t-20.5 41t-39.5 26t-63 9q-39 0 -64 -9t-39.5 -26t-20.5 -41t-6 -54h-173q0 58 15.5 110t50.5 91t93 61.5t144 22.5z" />
    <glyph glyph-name="_738" unicode="f&#x1e2f;" horiz-adv-x="1201" 
d="M905 1211q0 -25 -10 -46.5t-27.5 -38t-40 -26t-47.5 -9.5t-47 9.5t-38.5 26t-26.5 38t-10 46.5t10 48t26.5 40t38.5 27t47 10t47.5 -10t40 -27t27.5 -40t10 -48zM1251 1211q0 -25 -10 -46.5t-26.5 -38t-39 -26t-47.5 -9.5q-26 0 -48 9.5t-39 26t-26.5 38t-9.5 46.5
t9.5 48t26.5 40t39 27t48 10q25 0 47.5 -10t39 -27t26.5 -40t10 -48zM1312 1601l-224 -211q-20 -17 -43 -26.5t-54 -9.5h-133l119 194q15 26 35 39.5t60 13.5h240zM195 0v840l-89 14q-29 6 -46.5 20.5t-17.5 41.5v101h153v117q0 82 21 146t60.5 108t97.5 67.5t133 23.5
q27 0 49 -2.5t43 -9.5v-135q0 -19 -16.5 -25.5t-39.5 -6.5q-59 0 -84 -38t-25 -127v-118h636v-1017h-247v841h-381v-841h-247z" />
    <glyph glyph-name="_740" unicode="ff&#x1d0;" horiz-adv-x="1848" 
d="M1471 0v841h-381v-841h-248v841h-400v-841h-247v840l-89 14q-29 6 -46.5 20.5t-17.5 41.5v101h153v58q0 88 26.5 158t76 119t120.5 75t160 26q70 0 131 -19l-5 -123q-2 -29 -26.5 -36.5t-57.5 -7.5q-44 0 -78.5 -9.5t-58.5 -33t-36.5 -62t-12.5 -95.5v-50h408v117
q0 82 21 146t61 108t98 67.5t132 23.5q28 0 49.5 -2.5t42.5 -9.5v-135q0 -19 -16 -25.5t-40 -6.5q-58 0 -83 -38t-25 -127v-118h636v-1017h-247zM1709 1168h-231l-206 278h171q15 0 30 -4.5t20 -12.5l82 -111q5 -9 11 -19.5t11 -21.5q10 23 21 41l82 111q5 8 20.5 12.5
t29.5 4.5h165z" />
    <glyph glyph-name="_741" unicode="ff&#x209;" horiz-adv-x="1848" 
d="M195 0v840l-89 14q-29 6 -46.5 20.5t-17.5 41.5v101h153v58q0 88 26.5 158t76 119t120.5 75t160 26q70 0 131 -19l-5 -123q-2 -29 -26.5 -36.5t-57.5 -7.5q-44 0 -78.5 -9.5t-58.5 -33t-36.5 -62t-12.5 -95.5v-50h408v117q0 82 23 146t68 108t111.5 67.5t153.5 23.5
q42 0 72 -3.5t51.5 -11.5t37 -21.5t29.5 -33.5l178 -243h-117q-28 0 -45 8t-37 27l-93 98q-54 -1 -91 -9.5t-59.5 -27.5t-32 -50t-9.5 -77v-118h636v-1017h-247v841h-381v-841h-248v841h-400v-841h-247zM1626 1462q41 0 61 -13.5t34 -39.5l127 -243h-101q-29 0 -47.5 7.5
t-34.5 27.5l-199 261h160z" />
    <glyph glyph-name="_742" unicode="ff&#x20b;" horiz-adv-x="1848" 
d="M195 0v840l-89 14q-29 6 -46.5 20.5t-17.5 41.5v101h153v58q0 88 26.5 158t76 119t120.5 75t160 26q70 0 131 -19l-5 -123q-2 -29 -26.5 -36.5t-57.5 -7.5q-44 0 -78.5 -9.5t-58.5 -33t-36.5 -62t-12.5 -95.5v-50h408v117q0 82 21 146t61 108t98 67.5t132 23.5
q28 0 49.5 -2.5t42.5 -9.5v-135q0 -19 -16 -25.5t-40 -6.5q-58 0 -83 -38t-25 -127v-118h636v-1017h-247v841h-381v-841h-248v841h-400v-841h-247zM1587 1456q85 0 143 -22.5t93.5 -61.5t50.5 -91t15 -110h-173q0 30 -6 54t-20.5 41t-39.5 26t-63 9q-39 0 -64 -9t-39.5 -26
t-20 -41t-5.5 -54h-173q0 58 15 110t50.5 91t93 61.5t143.5 22.5z" />
    <glyph glyph-name="_743" unicode="ff&#x1e2f;" horiz-adv-x="1848" 
d="M1471 0v841h-381v-841h-248v841h-400v-841h-247v840l-89 14q-29 6 -46.5 20.5t-17.5 41.5v101h153v58q0 88 26.5 158t76 119t120.5 75t160 26q70 0 131 -19l-5 -123q-2 -29 -26.5 -36.5t-57.5 -7.5q-44 0 -78.5 -9.5t-58.5 -33t-36.5 -62t-12.5 -95.5v-50h408v117
q0 82 21 146t61 108t98 67.5t132 23.5q28 0 49.5 -2.5t42.5 -9.5v-135q0 -19 -16 -25.5t-40 -6.5q-58 0 -83 -38t-25 -127v-118h636v-1017h-247zM1957 1601l-224 -211q-20 -17 -43 -26.5t-54 -9.5h-132l119 194q15 26 34.5 39.5t60.5 13.5h239zM1897 1211q0 -25 -10 -46.5
t-26.5 -38t-39.5 -26t-48 -9.5t-47.5 9.5t-39 26t-26.5 38t-10 46.5t10 48t26.5 40t39 27t47.5 10t48 -10t39.5 -27t26.5 -40t10 -48zM1551 1211q0 -25 -10 -46.5t-27.5 -38t-40.5 -26t-48 -9.5q-24 0 -46 9.5t-38.5 26t-26.5 38t-10 46.5t10 48t26.5 40t38.5 27t46 10
q25 0 48 -10t40.5 -27t27.5 -40t10 -48z" />
    <glyph glyph-name="_1525" unicode="f&#x237;" horiz-adv-x="1201" 
d="M195 0v840l-89 14q-29 6 -46.5 20.5t-17.5 41.5v101h153v117q0 82 21 146t60.5 108t97.5 67.5t133 23.5q27 0 49 -2.5t43 -9.5v-135q0 -19 -16.5 -25.5t-39.5 -6.5q-59 0 -84 -38t-25 -127v-118h636v-1052q0 -67 -17.5 -126t-56 -103.5t-101 -70t-152.5 -25.5
q-35 0 -65 4.5t-61 14.5l9 133q2 20 15 25.5t51 5.5q37 0 62 7.5t40.5 24t22 43.5t6.5 67v876h-381v-841h-247z" />
    <glyph glyph-name="_1526" unicode="ff&#x237;" horiz-adv-x="1849" 
d="M1718 -35q0 -67 -17.5 -126t-56 -103.5t-101 -70t-152.5 -25.5q-35 0 -65 4.5t-61 14.5l8 133q3 20 16 25.5t50 5.5t62.5 7.5t41 24t22 43.5t6.5 67v876h-381v-841h-248v841h-400v-841h-247v840l-89 14q-29 6 -46.5 20.5t-17.5 41.5v101h153v58q0 88 26.5 158t76 119
t120.5 75t160 26q70 0 131 -19l-5 -123q-2 -29 -26.5 -36.5t-57.5 -7.5q-44 0 -78.5 -9.5t-58.5 -33t-36.5 -62t-12.5 -95.5v-50h408v117q0 82 21 146t61 108t98 67.5t132 23.5q28 0 49.5 -2.5t42.5 -9.5v-135q0 -19 -16 -25.5t-40 -6.5q-58 0 -83 -38t-25 -127v-118h636
v-1052v0z" />
    <glyph glyph-name="_1539" unicode="f&#x135;" horiz-adv-x="1201" 
d="M42 0zM195 0v840l-89 14q-29 6 -46.5 20.5t-17.5 41.5v101h153v117q0 82 21 146t60.5 108t97.5 67.5t133 23.5q27 0 49 -2.5t43 -9.5v-135q0 -19 -16.5 -25.5t-39.5 -6.5q-59 0 -84 -38t-25 -127v-118h636v-1052q0 -67 -17.5 -126t-56 -103.5t-101 -70t-152.5 -25.5
q-35 0 -65 4.5t-61 14.5l9 133q2 20 15 25.5t51 5.5q37 0 62 7.5t40.5 24t22 43.5t6.5 67v876h-381v-841h-247zM1294 1168h-165q-14 0 -28.5 5.5t-28.5 19.5l-98 104q-11 10 -21 24q-11 -14 -21 -24l-100 -104q-12 -13 -27 -19t-30 -6h-171l229 278h232z" />
    <glyph glyph-name="_1540" unicode="f&#x13e;" horiz-adv-x="1223" 
d="M42 0zM195 0v840l-89 14q-29 6 -46.5 20.5t-17.5 41.5v101h153v43q0 82 26 157t79 132.5t134 92t191 34.5q85 0 160.5 -5.5t150.5 -6.5h163v-1464h-246v1292q-53 2 -103.5 5t-85.5 3q-112 0 -171 -62.5t-59 -177.5v-43h243v-176h-235v-841h-247zM1429 1488
q28 0 34.5 -12.5t6.5 -24.5q0 -9 -3.5 -24.5t-14 -45t-29.5 -76t-49 -118.5q-13 -29 -33 -37t-52 -8h-88l62 346h166z" />
    <glyph glyph-name="_1541" unicode="f&#x13c;" horiz-adv-x="1224" 
d="M42 0zM195 0v840l-89 14q-29 6 -46.5 20.5t-17.5 41.5v101h153v43q0 82 26 157t79 132.5t134 92t191 34.5q85 0 160.5 -5.5t150.5 -6.5h163v-1464h-246v1292q-53 2 -103.5 5t-85.5 3q-112 0 -171 -62.5t-59 -177.5v-43h243v-176h-235v-841h-247zM1045 -90
q28 0 34.5 -12.5t6.5 -24.5q0 -9 -2.5 -25t-9.5 -41.5t-21 -62.5t-36 -88q-14 -28 -34 -36t-52 -8h-87l50 298h151z" />
    <glyph glyph-name="_1542" unicode="f&#x21b;" horiz-adv-x="1415" 
d="M41 0zM1105 841v-556q0 -48 24 -75t64 -27q23 0 38.5 5.5t27 11.5t20.5 11.5t18 5.5q11 0 18 -5.5t15 -16.5l74 -120q-54 -45 -123.5 -68t-144.5 -23q-134 0 -206 75.5t-72 208.5v573h-417v-841h-247v840l-89 14q-29 6 -46.5 20.5t-17.5 41.5v101h153v76q0 88 26.5 158
t76 119t120.5 75t160 26q71 0 132 -19l-5 -124q-1 -14 -8 -22.5t-18.5 -13t-26.5 -6t-32 -1.5q-44 0 -78.5 -9.5t-58.5 -33t-36.5 -62t-12.5 -95.5v-68h436l53 281q5 20 19 31t36 11h128v-323h274v-176h-274zM1181 -90q28 0 34.5 -12.5t6.5 -24.5q0 -9 -2.5 -25t-9.5 -41.5
t-21 -62.5t-36 -88q-14 -28 -34 -36t-52 -8h-87l50 298h151z" />
    <glyph glyph-name="_1543" unicode="f&#x165;" horiz-adv-x="1415" 
d="M41 0zM1105 841v-556q0 -48 24 -75t64 -27q23 0 38.5 5.5t27 11.5t20.5 11.5t18 5.5q11 0 18 -5.5t15 -16.5l74 -120q-54 -45 -123.5 -68t-144.5 -23q-134 0 -206 75.5t-72 208.5v573h-417v-841h-247v840l-89 14q-29 6 -46.5 20.5t-17.5 41.5v101h153v76q0 88 26.5 158
t76 119t120.5 75t160 26q71 0 132 -19l-5 -124q-1 -14 -8 -22.5t-18.5 -13t-26.5 -6t-32 -1.5q-44 0 -78.5 -9.5t-58.5 -33t-36.5 -62t-12.5 -95.5v-68h436l53 281q5 20 19 31t36 11h128v-323h274v-176h-274zM1499 1488q28 0 34.5 -12.5t6.5 -24.5q0 -9 -3.5 -24.5t-14 -45
t-29.5 -76t-49 -118.5q-13 -29 -33 -37t-52 -8h-88l62 346h166z" />
    <glyph glyph-name="_2305" unicode="f&#x1ecb;" horiz-adv-x="1201" 
d="M42 0zM195 0v840l-89 14q-29 6 -46.5 20.5t-17.5 41.5v101h153v33q0 94 31 174.5t94 139.5t159.5 92.5t227.5 33.5q42 0 85.5 -4.5t75.5 -14.5l-8 -128q-2 -23 -25 -27.5t-57 -4.5q-97 0 -162.5 -17t-106 -50.5t-58 -84t-17.5 -117.5v-25h636v-1017h-247v841h-381v-841
h-247zM1087 -238q0 -28 -11.5 -53t-30.5 -44t-45 -30t-54 -11t-53 11t-43.5 30t-29.5 44t-11 53t11 53.5t29.5 44t43.5 29.5t53 11t54 -11t45 -29.5t30.5 -44t11.5 -53.5z" />
    <glyph glyph-name="_2306" unicode="f&#x1e2d;" horiz-adv-x="1201" 
d="M42 0zM195 0v840l-89 14q-29 6 -46.5 20.5t-17.5 41.5v101h153v33q0 94 31 174.5t94 139.5t159.5 92.5t227.5 33.5q42 0 85.5 -4.5t75.5 -14.5l-8 -128q-2 -23 -25 -27.5t-57 -4.5q-97 0 -162.5 -17t-106 -50.5t-58 -84t-17.5 -117.5v-25h636v-1017h-247v841h-381v-841
h-247zM1051 -152q30 0 47 16.5t17 59.5h150q0 -56 -15.5 -101.5t-42.5 -78t-64.5 -50t-82.5 -17.5q-36 0 -67 13t-58 28t-50.5 28t-43.5 13q-29 0 -45.5 -17.5t-16.5 -59.5h-153q0 56 15.5 101.5t43.5 78t65.5 50.5t81.5 18q36 0 67.5 -13t58.5 -28t50 -28t43 -13z" />
    <glyph glyph-name="_2307" unicode="f&#x268;" horiz-adv-x="1243" 
d="M823 573v268h-381v-841h-247v840l-89 14q-29 6 -46.5 20.5t-17.5 41.5v101h153v33q0 94 31 174.5t94 139.5t159.5 92.5t227.5 33.5q42 0 85.5 -4.5t75.5 -14.5l-8 -128q-2 -23 -25 -27.5t-57 -4.5q-97 0 -162.5 -17t-106 -50.5t-58 -84t-17.5 -117.5v-25h636v-444h142
v-175h-142v-398h-247v398h-136v175h136z" />
    <glyph glyph-name="_2308" unicode="f&#xed;" horiz-adv-x="1201" 
d="M42 0zM195 0v840l-89 14q-29 6 -46.5 20.5t-17.5 41.5v101h153v117q0 82 21 146t60.5 108t97.5 67.5t133 23.5q27 0 49 -2.5t43 -9.5v-135q0 -19 -16.5 -25.5t-39.5 -6.5q-59 0 -84 -38t-25 -127v-118h636v-1017h-247v841h-381v-841h-247zM1291 1462l-247 -261
q-19 -20 -36.5 -27.5t-45.5 -7.5h-148l142 243q15 26 35 39.5t60 13.5h240z" />
    <glyph glyph-name="_2309" unicode="f&#x1ec9;" horiz-adv-x="1201" 
d="M42 0zM195 0v840l-89 14q-29 6 -46.5 20.5t-17.5 41.5v101h153v117q0 82 21 146t60.5 108t97.5 67.5t133 23.5q27 0 49 -2.5t43 -9.5v-135q0 -19 -16.5 -25.5t-39.5 -6.5q-59 0 -84 -38t-25 -127v-118h636v-1017h-247v841h-381v-841h-247zM728 1444q16 12 39 22.5
t50.5 17.5t58.5 11t63 4q104 0 153.5 -39t49.5 -99q0 -53 -35 -92.5t-87 -62.5l-22 -86h-118v150q52 7 70 25t18 39t-14 35t-47 14q-18 0 -33 -4t-27.5 -9l-22.5 -9t-19 -4q-11 0 -18 6t-14 16z" />
    <glyph glyph-name="_2313" unicode="ff&#x1ecb;" horiz-adv-x="1849" 
d="M42 0zM195 0v840l-89 14q-29 6 -46.5 20.5t-17.5 41.5v101h153v58q0 88 26.5 158t76 119t120.5 75t160 26q70 0 131 -19l-5 -123q-2 -29 -26.5 -36.5t-57.5 -7.5q-44 0 -78.5 -9.5t-58.5 -33t-36.5 -62t-12.5 -95.5v-50h408v33q0 94 31 174.5t94 139.5t159.5 92.5
t227.5 33.5q42 0 86 -4.5t76 -14.5l-8 -128q-2 -23 -25 -27.5t-57 -4.5q-97 0 -162.5 -17t-106 -50.5t-58 -84t-17.5 -117.5v-25h636v-1017h-247v841h-381v-841h-248v841h-400v-841h-247zM1738 -238q0 -28 -11.5 -53t-30.5 -44t-45 -30t-54 -11t-53 11t-43.5 30t-29.5 44
t-11 53t11 53.5t29.5 44t43.5 29.5t53 11t54 -11t45 -29.5t30.5 -44t11.5 -53.5z" />
    <glyph glyph-name="_2314" unicode="ff&#x1e2d;" horiz-adv-x="1849" 
d="M42 0zM195 0v840l-89 14q-29 6 -46.5 20.5t-17.5 41.5v101h153v58q0 88 26.5 158t76 119t120.5 75t160 26q70 0 131 -19l-5 -123q-2 -29 -26.5 -36.5t-57.5 -7.5q-44 0 -78.5 -9.5t-58.5 -33t-36.5 -62t-12.5 -95.5v-50h408v33q0 94 31 174.5t94 139.5t159.5 92.5
t227.5 33.5q42 0 86 -4.5t76 -14.5l-8 -128q-2 -23 -25 -27.5t-57 -4.5q-97 0 -162.5 -17t-106 -50.5t-58 -84t-17.5 -117.5v-25h636v-1017h-247v841h-381v-841h-248v841h-400v-841h-247zM1702 -152q30 0 47 16.5t17 59.5h150q0 -56 -15.5 -101.5t-42.5 -78t-64.5 -50
t-82.5 -17.5q-36 0 -67 13t-58 28t-50.5 28t-43.5 13q-29 0 -45.5 -17.5t-16.5 -59.5h-153q0 56 15.5 101.5t43.5 78t65.5 50.5t81.5 18q36 0 67.5 -13t58.5 -28t50 -28t43 -13z" />
    <glyph glyph-name="_2315" unicode="ff&#x268;" horiz-adv-x="1894" 
d="M1471 573v268h-381v-841h-248v841h-400v-841h-247v840l-89 14q-29 6 -46.5 20.5t-17.5 41.5v101h153v58q0 88 26.5 158t76 119t120.5 75t160 26q70 0 131 -19l-5 -123q-2 -29 -26.5 -36.5t-57.5 -7.5q-44 0 -78.5 -9.5t-58.5 -33t-36.5 -62t-12.5 -95.5v-50h408v33
q0 94 31 174.5t94 139.5t159.5 92.5t227.5 33.5q42 0 86 -4.5t76 -14.5l-8 -128q-2 -23 -25 -27.5t-57 -4.5q-97 0 -162.5 -17t-106 -50.5t-58 -84t-17.5 -117.5v-25h636v-444h144v-175h-144v-398h-247v398h-134v175h134z" />
    <glyph glyph-name="_2316" unicode="ff&#xed;" horiz-adv-x="1848" 
d="M42 0zM195 0v840l-89 14q-29 6 -46.5 20.5t-17.5 41.5v101h153v58q0 88 26.5 158t76 119t120.5 75t160 26q70 0 131 -19l-5 -123q-2 -29 -26.5 -36.5t-57.5 -7.5q-44 0 -78.5 -9.5t-58.5 -33t-36.5 -62t-12.5 -95.5v-50h408v117q0 82 21 146t61 108t98 67.5t132 23.5
q28 0 49.5 -2.5t42.5 -9.5v-135q0 -19 -16 -25.5t-40 -6.5q-58 0 -83 -38t-25 -127v-118h636v-1017h-247v841h-381v-841h-248v841h-400v-841h-247zM1943 1462l-247 -261q-19 -20 -36.5 -27.5t-45.5 -7.5h-148l142 243q15 26 35 39.5t60 13.5h240z" />
    <glyph glyph-name="_2317" unicode="ff&#x1ec9;" horiz-adv-x="1839" 
d="M42 0zM195 0v840l-89 14q-29 6 -46.5 20.5t-17.5 41.5v101h153v58q0 88 26.5 158t76 119t120.5 75t160 26q70 0 131 -19l-5 -123q-2 -29 -26.5 -36.5t-57.5 -7.5q-44 0 -78.5 -9.5t-58.5 -33t-36.5 -62t-12.5 -95.5v-50h408v117q0 82 21 146t61 108t98 67.5t132 23.5
q28 0 49.5 -2.5t42.5 -9.5v-135q0 -19 -16 -25.5t-40 -6.5q-58 0 -83 -38t-25 -127v-118h636v-1017h-247v841h-381v-841h-248v841h-400v-841h-247zM1380 1444q16 12 39 22.5t50.5 17.5t58.5 11t63 4q104 0 153.5 -39t49.5 -99q0 -53 -35 -92.5t-87 -62.5l-22 -86h-118v150
q52 7 70 25t18 39t-14 35t-47 14q-18 0 -33 -4t-27.5 -9l-22.5 -9t-19 -4q-11 0 -18 6t-14 16z" />
    <glyph glyph-name="_2321" unicode="f&#x13a;" horiz-adv-x="1224" 
d="M42 0zM195 0v840l-89 14q-29 6 -46.5 20.5t-17.5 41.5v101h153v43q0 82 26 157t79 132.5t134 92t191 34.5q85 0 160.5 -5.5t150.5 -6.5h163v-1464h-246v1292q-53 2 -103.5 5t-85.5 3q-112 0 -171 -62.5t-59 -177.5v-43h243v-176h-235v-841h-247zM1399 1861l-324 -286
q-20 -18 -38 -22t-46 -4h-179l209 271q10 14 20 22.5t22 12.5t26.5 5t34.5 1h275z" />
    <glyph glyph-name="_2471" unicode="ti" horiz-adv-x="1287" 
d="M34 0zM464 -16q-134 0 -205.5 75.5t-71.5 208.5v573h-105q-20 0 -34 13t-14 39v98l165 27l52 280q5 20 19 31t36 11h128v-323h723v-1017h-247v841h-476v-556q0 -48 23.5 -75t64.5 -27q23 0 38.5 5.5t27 11.5t20.5 11.5t18 5.5q11 0 18 -5.5t15 -16.5l74 -120
q-54 -45 -124 -68t-145 -23zM1200 1329q0 -32 -13 -60.5t-34.5 -49.5t-51 -33.5t-62.5 -12.5q-32 0 -60 12.5t-49 33.5t-33.5 49.5t-12.5 60.5q0 33 12.5 61.5t33.5 50t49 34t60 12.5q33 0 62.5 -12.5t51 -34t34.5 -50t13 -61.5z" />
    <glyph glyph-name="_2472" unicode="t&#xec;" horiz-adv-x="1287" 
d="M34 0zM464 -16q-134 0 -205.5 75.5t-71.5 208.5v573h-105q-20 0 -34 13t-14 39v98l165 27l52 280q5 20 19 31t36 11h128v-323h723v-1017h-247v841h-476v-556q0 -48 23.5 -75t64.5 -27q23 0 38.5 5.5t27 11.5t20.5 11.5t18 5.5q11 0 18 -5.5t15 -16.5l74 -120
q-54 -45 -124 -68t-145 -23zM952 1462q41 0 61 -13.5t34 -39.5l143 -243h-141q-28 0 -45.5 7.5t-35.5 27.5l-247 261h231z" />
    <glyph glyph-name="_2473" unicode="t&#xed;" horiz-adv-x="1286" 
d="M33 0zM463 -16q-134 0 -205.5 75.5t-71.5 208.5v573h-105q-20 0 -34 13t-14 39v98l165 27l52 280q5 20 19 31t36 11h128v-323h723v-1017h-247v841h-476v-556q0 -48 23.5 -75t64.5 -27q23 0 38.5 5.5t27 11.5t20.5 11.5t18 5.5q11 0 18 -5.5t15 -16.5l74 -120
q-54 -45 -124 -68t-145 -23zM1386 1462l-247 -261q-19 -20 -36.5 -27.5t-45.5 -7.5h-148l142 243q15 26 35 39.5t60 13.5h240z" />
    <glyph glyph-name="_2474" unicode="t&#xee;" horiz-adv-x="1287" 
d="M34 0zM464 -16q-134 0 -205.5 75.5t-71.5 208.5v573h-105q-20 0 -34 13t-14 39v98l165 27l52 280q5 20 19 31t36 11h128v-323h723v-1017h-247v841h-476v-556q0 -48 23.5 -75t64.5 -27q23 0 38.5 5.5t27 11.5t20.5 11.5t18 5.5q11 0 18 -5.5t15 -16.5l74 -120
q-54 -45 -124 -68t-145 -23zM1386 1168h-165q-14 0 -28.5 5.5t-28.5 19.5l-98 104q-11 10 -21 24q-11 -14 -21 -24l-100 -104q-12 -13 -27 -19t-30 -6h-171l229 278h232z" />
    <glyph glyph-name="_2475" unicode="t&#xef;" horiz-adv-x="1287" 
d="M34 0zM464 -16q-134 0 -205.5 75.5t-71.5 208.5v573h-105q-20 0 -34 13t-14 39v98l165 27l52 280q5 20 19 31t36 11h128v-323h723v-1017h-247v841h-476v-556q0 -48 23.5 -75t64.5 -27q23 0 38.5 5.5t27 11.5t20.5 11.5t18 5.5q11 0 18 -5.5t15 -16.5l74 -120
q-54 -45 -124 -68t-145 -23zM1009 1292q0 -28 -11 -52.5t-30.5 -42.5t-45 -28.5t-53.5 -10.5q-27 0 -51.5 10.5t-43.5 28.5t-30 42.5t-11 52.5q0 29 11 54.5t30 44.5t43.5 30t51.5 11q28 0 53.5 -11t45 -30t30.5 -44.5t11 -54.5zM1349 1292q0 -28 -11 -52.5t-29.5 -42.5
t-44 -28.5t-54.5 -10.5q-28 0 -53 10.5t-43.5 28.5t-29.5 42.5t-11 52.5q0 29 11 54.5t29.5 44.5t43.5 30t53 11q29 0 54.5 -11t44 -30t29.5 -44.5t11 -54.5z" />
    <glyph glyph-name="_2476" unicode="t&#x12b;" horiz-adv-x="1287" 
d="M34 0zM464 -16q-134 0 -205.5 75.5t-71.5 208.5v573h-105q-20 0 -34 13t-14 39v98l165 27l52 280q5 20 19 31t36 11h128v-323h723v-1017h-247v841h-476v-556q0 -48 23.5 -75t64.5 -27q23 0 38.5 5.5t27 11.5t20.5 11.5t18 5.5q11 0 18 -5.5t15 -16.5l74 -120
q-54 -45 -124 -68t-145 -23zM742 1372h598v-158h-598v158z" />
    <glyph glyph-name="_2477" unicode="t&#x129;" horiz-adv-x="1287" 
d="M33 0zM463 -16q-134 0 -205.5 75.5t-71.5 208.5v573h-105q-20 0 -34 13t-14 39v98l165 27l52 280q5 20 19 31t36 11h128v-323h723v-1017h-247v841h-476v-556q0 -48 23.5 -75t64.5 -27q23 0 38.5 5.5t27 11.5t20.5 11.5t18 5.5q11 0 18 -5.5t15 -16.5l74 -120
q-54 -45 -124 -68t-145 -23zM1147 1359q30 0 47 16.5t17 59.5h150q0 -56 -15.5 -101.5t-42.5 -78t-64.5 -50t-82.5 -17.5q-36 0 -67 13t-58 28t-50.5 28t-43.5 13q-29 0 -45.5 -17.5t-16.5 -59.5h-153q0 56 15.5 101.5t43.5 78t65.5 50.5t81.5 18q36 0 67.5 -13t58.5 -28
t50 -28t43 -13z" />
    <glyph glyph-name="_2478" unicode="t&#x12d;" horiz-adv-x="1287" 
d="M34 0zM464 -16q-134 0 -205.5 75.5t-71.5 208.5v573h-105q-20 0 -34 13t-14 39v98l165 27l52 280q5 20 19 31t36 11h128v-323h723v-1017h-247v841h-476v-556q0 -48 23.5 -75t64.5 -27q23 0 38.5 5.5t27 11.5t20.5 11.5t18 5.5q11 0 18 -5.5t15 -16.5l74 -120
q-54 -45 -124 -68t-145 -23zM1041 1161q-86 0 -143.5 22.5t-93 61.5t-50.5 91t-15 110h173q0 -30 5.5 -54t20 -40.5t39.5 -25.5t64 -9t64 9t39.5 25.5t20 40.5t5.5 54h173q0 -58 -15 -110t-50.5 -91t-93.5 -61.5t-143 -22.5z" />
    <glyph glyph-name="_2479" unicode="t&#x1d0;" horiz-adv-x="1287" 
d="M34 0zM464 -16q-134 0 -205.5 75.5t-71.5 208.5v573h-105q-20 0 -34 13t-14 39v98l165 27l52 280q5 20 19 31t36 11h128v-323h723v-1017h-247v841h-476v-556q0 -48 23.5 -75t64.5 -27q23 0 38.5 5.5t27 11.5t20.5 11.5t18 5.5q11 0 18 -5.5t15 -16.5l74 -120
q-54 -45 -124 -68t-145 -23zM696 1446h171q15 0 28.5 -5t21.5 -12l106 -111q5 -5 10.5 -11.5t10.5 -13.5q10 13 22 25l105 111q8 6 22 11.5t28 5.5h165l-229 -278h-232z" />
    <glyph glyph-name="_2480" unicode="t&#x1e2d;" horiz-adv-x="1287" 
d="M33 0zM463 -16q-134 0 -205.5 75.5t-71.5 208.5v573h-105q-20 0 -34 13t-14 39v98l165 27l52 280q5 20 19 31t36 11h128v-323h723v-1017h-247v841h-476v-556q0 -48 23.5 -75t64.5 -27q23 0 38.5 5.5t27 11.5t20.5 11.5t18 5.5q11 0 18 -5.5t15 -16.5l74 -120
q-54 -45 -124 -68t-145 -23zM1199 1329q0 -32 -13 -60.5t-34.5 -49.5t-51 -33.5t-62.5 -12.5q-32 0 -60 12.5t-49 33.5t-33.5 49.5t-12.5 60.5q0 33 12.5 61.5t33.5 50t49 34t60 12.5q33 0 62.5 -12.5t51 -34t34.5 -50t13 -61.5zM1144 -152q30 0 47 16.5t17 59.5h150
q0 -56 -15.5 -101.5t-42.5 -78t-64.5 -50t-82.5 -17.5q-36 0 -67 13t-58 28t-50.5 28t-43.5 13q-29 0 -45.5 -17.5t-16.5 -59.5h-153q0 56 15.5 101.5t43.5 78t65.5 50.5t81.5 18q36 0 67.5 -13t58.5 -28t50 -28t43 -13z" />
    <glyph glyph-name="_2482" unicode="t&#x1e2f;" horiz-adv-x="1286" 
d="M33 0zM463 -16q-134 0 -205.5 75.5t-71.5 208.5v573h-105q-20 0 -34 13t-14 39v98l165 27l52 280q5 20 19 31t36 11h128v-323h723v-1017h-247v841h-476v-556q0 -48 23.5 -75t64.5 -27q23 0 38.5 5.5t27 11.5t20.5 11.5t18 5.5q11 0 18 -5.5t15 -16.5l74 -120
q-54 -45 -124 -68t-145 -23zM1428 1784l-247 -261q-19 -20 -36.5 -27.5t-45.5 -7.5h-148l142 243q15 26 35 39.5t60 13.5h240zM976 1292q0 -28 -11 -52.5t-30.5 -42.5t-45 -28.5t-54.5 -10.5q-27 0 -51.5 10.5t-43 28.5t-29.5 42.5t-11 52.5q0 29 11 54.5t29.5 44.5t43 30
t51.5 11q29 0 54.5 -11t45 -30t30.5 -44.5t11 -54.5zM1380 1292q0 -28 -11 -52.5t-29.5 -42.5t-44 -28.5t-54.5 -10.5q-28 0 -53 10.5t-43.5 28.5t-29.5 42.5t-11 52.5q0 29 11 54.5t29.5 44.5t43.5 30t53 11q29 0 54.5 -11t44 -30t29.5 -44.5t11 -54.5z" />
    <glyph glyph-name="_2483" unicode="t&#x268;" horiz-adv-x="1342" 
d="M910 573v268h-476v-556q0 -48 23.5 -75t64.5 -27q23 0 38.5 5.5t27 11.5t20.5 11.5t18 5.5q11 0 18 -5.5t15 -16.5l74 -120q-54 -45 -124 -68t-145 -23q-134 0 -205.5 75.5t-71.5 208.5v573h-105q-20 0 -34 13t-14 39v98l165 27l52 280q5 20 19 31t36 11h128v-323h723
v-444h149v-175h-149v-398h-247v398h-129v175h129zM1200 1329q0 -32 -13 -60.5t-34.5 -49.5t-51 -33.5t-62.5 -12.5q-32 0 -60 12.5t-49 33.5t-33.5 49.5t-12.5 60.5q0 33 12.5 61.5t33.5 50t49 34t60 12.5q33 0 62.5 -12.5t51 -34t34.5 -50t13 -61.5z" />
    <glyph glyph-name="_2485" unicode="t&#x20b;" horiz-adv-x="1287" 
d="M34 0zM464 -16q-134 0 -205.5 75.5t-71.5 208.5v573h-105q-20 0 -34 13t-14 39v98l165 27l52 280q5 20 19 31t36 11h128v-323h723v-1017h-247v841h-476v-556q0 -48 23.5 -75t64.5 -27q23 0 38.5 5.5t27 11.5t20.5 11.5t18 5.5q11 0 18 -5.5t15 -16.5l74 -120
q-54 -45 -124 -68t-145 -23zM1041 1461q85 0 143 -22.5t93.5 -61.5t50.5 -91t15 -110h-173q0 30 -5.5 54t-20 41t-39.5 26t-64 9t-64 -9t-39.5 -26t-20 -41t-5.5 -54h-173q0 58 15 110t50.5 91t93 61.5t143.5 22.5z" />
    <glyph glyph-name="_2486" unicode="t&#x209;" horiz-adv-x="1287" 
d="M34 0zM464 -16q-134 0 -205.5 75.5t-71.5 208.5v573h-105q-20 0 -34 13t-14 39v98l165 27l52 280q5 20 19 31t36 11h128v-323h723v-1017h-247v841h-476v-556q0 -48 23.5 -75t64.5 -27q23 0 38.5 5.5t27 11.5t20.5 11.5t18 5.5q11 0 18 -5.5t15 -16.5l74 -120
q-54 -45 -124 -68t-145 -23zM1070 1462q41 0 61 -13.5t34 -39.5l127 -243h-101q-29 0 -47.5 7.5t-34.5 27.5l-199 261h160zM739 1462q20 0 34 -3.5t24.5 -10.5t19 -16.5t17.5 -22.5l177 -243h-117q-28 0 -45.5 7.5t-35.5 27.5l-252 261h178z" />
    <glyph glyph-name="_2487" unicode="tti" horiz-adv-x="1930" 
d="M34 0zM464 -16q-134 0 -205.5 75.5t-71.5 208.5v573h-105q-20 0 -34 13t-14 39v98l165 27l52 280q5 20 19 31t36 11h128v-323h427l53 281q5 20 18.5 31t36.5 11h127v-323h703v-1017h-247v841h-456v-556q0 -48 24 -75t65 -27q22 0 38 5.5t27.5 11.5t20.5 11.5t18 5.5
q11 0 18 -5.5t15 -16.5l74 -120q-54 -45 -124 -68t-145 -23q-134 0 -206 75.5t-72 208.5v573h-415v-556q0 -48 23.5 -75t64.5 -27q23 0 38.5 5.5t27 11.5t20.5 11.5t18 5.5q11 0 18 -5.5t15 -16.5l74 -120q-54 -45 -124 -68t-145 -23zM1838 1329q0 -32 -13 -60.5
t-34.5 -49.5t-51 -33.5t-62.5 -12.5q-32 0 -60 12.5t-49 33.5t-33.5 49.5t-12.5 60.5q0 33 12.5 61.5t33.5 50t49 34t60 12.5q33 0 62.5 -12.5t51 -34t34.5 -50t13 -61.5z" />
    <glyph glyph-name="_2488" unicode="tt&#xec;" horiz-adv-x="1930" 
d="M34 0zM464 -16q-134 0 -205.5 75.5t-71.5 208.5v573h-105q-20 0 -34 13t-14 39v98l165 27l52 280q5 20 19 31t36 11h128v-323h427l53 281q5 20 18.5 31t36.5 11h127v-323h703v-1017h-247v841h-456v-556q0 -48 24 -75t65 -27q22 0 38 5.5t27.5 11.5t20.5 11.5t18 5.5
q11 0 18 -5.5t15 -16.5l74 -120q-54 -45 -124 -68t-145 -23q-134 0 -206 75.5t-72 208.5v573h-415v-556q0 -48 23.5 -75t64.5 -27q23 0 38.5 5.5t27 11.5t20.5 11.5t18 5.5q11 0 18 -5.5t15 -16.5l74 -120q-54 -45 -124 -68t-145 -23zM1590 1462q41 0 61 -13.5t34 -39.5
l143 -243h-141q-28 0 -45.5 7.5t-35.5 27.5l-247 261h231z" />
    <glyph glyph-name="_2489" unicode="tt&#xed;" horiz-adv-x="1929" 
d="M33 0zM463 -16q-134 0 -205.5 75.5t-71.5 208.5v573h-105q-20 0 -34 13t-14 39v98l165 27l52 280q5 20 19 31t36 11h128v-323h427l53 281q5 20 18.5 31t36.5 11h127v-323h703v-1017h-247v841h-456v-556q0 -48 24 -75t65 -27q22 0 38 5.5t27.5 11.5t20.5 11.5t18 5.5
q11 0 18 -5.5t15 -16.5l74 -120q-54 -45 -124 -68t-145 -23q-134 0 -206 75.5t-72 208.5v573h-415v-556q0 -48 23.5 -75t64.5 -27q23 0 38.5 5.5t27 11.5t20.5 11.5t18 5.5q11 0 18 -5.5t15 -16.5l74 -120q-54 -45 -124 -68t-145 -23zM2025 1462l-247 -261
q-19 -20 -36.5 -27.5t-45.5 -7.5h-148l142 243q15 26 35 39.5t60 13.5h240z" />
    <glyph glyph-name="_2490" unicode="tt&#xee;" horiz-adv-x="1930" 
d="M34 0zM464 -16q-134 0 -205.5 75.5t-71.5 208.5v573h-105q-20 0 -34 13t-14 39v98l165 27l52 280q5 20 19 31t36 11h128v-323h427l53 281q5 20 18.5 31t36.5 11h127v-323h703v-1017h-247v841h-456v-556q0 -48 24 -75t65 -27q22 0 38 5.5t27.5 11.5t20.5 11.5t18 5.5
q11 0 18 -5.5t15 -16.5l74 -120q-54 -45 -124 -68t-145 -23q-134 0 -206 75.5t-72 208.5v573h-415v-556q0 -48 23.5 -75t64.5 -27q23 0 38.5 5.5t27 11.5t20.5 11.5t18 5.5q11 0 18 -5.5t15 -16.5l74 -120q-54 -45 -124 -68t-145 -23zM2024 1168h-165q-14 0 -28.5 5.5
t-28.5 19.5l-98 104q-11 10 -21 24q-11 -14 -21 -24l-100 -104q-12 -13 -27 -19t-30 -6h-171l229 278h232z" />
    <glyph glyph-name="_2491" unicode="tt&#xef;" horiz-adv-x="1930" 
d="M34 0zM464 -16q-134 0 -205.5 75.5t-71.5 208.5v573h-105q-20 0 -34 13t-14 39v98l165 27l52 280q5 20 19 31t36 11h128v-323h427l53 281q5 20 18.5 31t36.5 11h127v-323h703v-1017h-247v841h-456v-556q0 -48 24 -75t65 -27q22 0 38 5.5t27.5 11.5t20.5 11.5t18 5.5
q11 0 18 -5.5t15 -16.5l74 -120q-54 -45 -124 -68t-145 -23q-134 0 -206 75.5t-72 208.5v573h-415v-556q0 -48 23.5 -75t64.5 -27q23 0 38.5 5.5t27 11.5t20.5 11.5t18 5.5q11 0 18 -5.5t15 -16.5l74 -120q-54 -45 -124 -68t-145 -23zM1647 1292q0 -28 -11 -52.5
t-30.5 -42.5t-45 -28.5t-53.5 -10.5q-27 0 -51.5 10.5t-43.5 28.5t-30 42.5t-11 52.5q0 29 11 54.5t30 44.5t43.5 30t51.5 11q28 0 53.5 -11t45 -30t30.5 -44.5t11 -54.5zM1987 1292q0 -28 -11 -52.5t-29.5 -42.5t-44 -28.5t-54.5 -10.5q-28 0 -53 10.5t-43.5 28.5
t-29.5 42.5t-11 52.5q0 29 11 54.5t29.5 44.5t43.5 30t53 11q29 0 54.5 -11t44 -30t29.5 -44.5t11 -54.5z" />
    <glyph glyph-name="_2492" unicode="tt&#x12b;" horiz-adv-x="1930" 
d="M34 0zM464 -16q-134 0 -205.5 75.5t-71.5 208.5v573h-105q-20 0 -34 13t-14 39v98l165 27l52 280q5 20 19 31t36 11h128v-323h427l53 281q5 20 18.5 31t36.5 11h127v-323h703v-1017h-247v841h-456v-556q0 -48 24 -75t65 -27q22 0 38 5.5t27.5 11.5t20.5 11.5t18 5.5
q11 0 18 -5.5t15 -16.5l74 -120q-54 -45 -124 -68t-145 -23q-134 0 -206 75.5t-72 208.5v573h-415v-556q0 -48 23.5 -75t64.5 -27q23 0 38.5 5.5t27 11.5t20.5 11.5t18 5.5q11 0 18 -5.5t15 -16.5l74 -120q-54 -45 -124 -68t-145 -23zM1380 1372h598v-158h-598v158z" />
    <glyph glyph-name="_2493" unicode="tt&#x129;" horiz-adv-x="1929" 
d="M33 0zM463 -16q-134 0 -205.5 75.5t-71.5 208.5v573h-105q-20 0 -34 13t-14 39v98l165 27l52 280q5 20 19 31t36 11h128v-323h427l53 281q5 20 18.5 31t36.5 11h127v-323h703v-1017h-247v841h-456v-556q0 -48 24 -75t65 -27q22 0 38 5.5t27.5 11.5t20.5 11.5t18 5.5
q11 0 18 -5.5t15 -16.5l74 -120q-54 -45 -124 -68t-145 -23q-134 0 -206 75.5t-72 208.5v573h-415v-556q0 -48 23.5 -75t64.5 -27q23 0 38.5 5.5t27 11.5t20.5 11.5t18 5.5q11 0 18 -5.5t15 -16.5l74 -120q-54 -45 -124 -68t-145 -23zM1786 1359q30 0 47 16.5t17 59.5h150
q0 -56 -15.5 -101.5t-42.5 -78t-64.5 -50t-82.5 -17.5q-36 0 -67 13t-58 28t-50.5 28t-43.5 13q-29 0 -45.5 -17.5t-16.5 -59.5h-153q0 56 15.5 101.5t43.5 78t65.5 50.5t81.5 18q36 0 67.5 -13t58.5 -28t50 -28t43 -13z" />
    <glyph glyph-name="_2494" unicode="tt&#x12d;" horiz-adv-x="1930" 
d="M34 0zM464 -16q-134 0 -205.5 75.5t-71.5 208.5v573h-105q-20 0 -34 13t-14 39v98l165 27l52 280q5 20 19 31t36 11h128v-323h427l53 281q5 20 18.5 31t36.5 11h127v-323h703v-1017h-247v841h-456v-556q0 -48 24 -75t65 -27q22 0 38 5.5t27.5 11.5t20.5 11.5t18 5.5
q11 0 18 -5.5t15 -16.5l74 -120q-54 -45 -124 -68t-145 -23q-134 0 -206 75.5t-72 208.5v573h-415v-556q0 -48 23.5 -75t64.5 -27q23 0 38.5 5.5t27 11.5t20.5 11.5t18 5.5q11 0 18 -5.5t15 -16.5l74 -120q-54 -45 -124 -68t-145 -23zM1679 1161q-86 0 -143.5 22.5t-93 61.5
t-50.5 91t-15 110h173q0 -30 5.5 -54t20 -40.5t39.5 -25.5t64 -9t64 9t39.5 25.5t20 40.5t5.5 54h173q0 -58 -15 -110t-50.5 -91t-93.5 -61.5t-143 -22.5z" />
    <glyph glyph-name="_2495" unicode="tt&#x1d0;" horiz-adv-x="1930" 
d="M34 0zM464 -16q-134 0 -205.5 75.5t-71.5 208.5v573h-105q-20 0 -34 13t-14 39v98l165 27l52 280q5 20 19 31t36 11h128v-323h427l53 281q5 20 18.5 31t36.5 11h127v-323h703v-1017h-247v841h-456v-556q0 -48 24 -75t65 -27q22 0 38 5.5t27.5 11.5t20.5 11.5t18 5.5
q11 0 18 -5.5t15 -16.5l74 -120q-54 -45 -124 -68t-145 -23q-134 0 -206 75.5t-72 208.5v573h-415v-556q0 -48 23.5 -75t64.5 -27q23 0 38.5 5.5t27 11.5t20.5 11.5t18 5.5q11 0 18 -5.5t15 -16.5l74 -120q-54 -45 -124 -68t-145 -23zM1334 1446h171q15 0 28.5 -5t21.5 -12
l106 -111q5 -5 10.5 -11.5t10.5 -13.5q10 13 22 25l105 111q8 6 22 11.5t28 5.5h165l-229 -278h-232z" />
    <glyph glyph-name="_2496" unicode="tt&#x1e2d;" horiz-adv-x="1929" 
d="M33 0zM463 -16q-134 0 -205.5 75.5t-71.5 208.5v573h-105q-20 0 -34 13t-14 39v98l165 27l52 280q5 20 19 31t36 11h128v-323h427l53 281q5 20 18.5 31t36.5 11h127v-323h703v-1017h-247v841h-456v-556q0 -48 24 -75t65 -27q22 0 38 5.5t27.5 11.5t20.5 11.5t18 5.5
q11 0 18 -5.5t15 -16.5l74 -120q-54 -45 -124 -68t-145 -23q-134 0 -206 75.5t-72 208.5v573h-415v-556q0 -48 23.5 -75t64.5 -27q23 0 38.5 5.5t27 11.5t20.5 11.5t18 5.5q11 0 18 -5.5t15 -16.5l74 -120q-54 -45 -124 -68t-145 -23zM1785 -152q30 0 47 16.5t17 59.5h150
q0 -56 -15.5 -101.5t-42.5 -78t-64.5 -50t-82.5 -17.5q-36 0 -67 13t-58 28t-50.5 28t-43.5 13q-29 0 -45.5 -17.5t-16.5 -59.5h-153q0 56 15.5 101.5t43.5 78t65.5 50.5t81.5 18q36 0 67.5 -13t58.5 -28t50 -28t43 -13zM1838 1329q0 -32 -13 -60.5t-34.5 -49.5t-51 -33.5
t-62.5 -12.5q-32 0 -60 12.5t-49 33.5t-33.5 49.5t-12.5 60.5q0 33 12.5 61.5t33.5 50t49 34t60 12.5q33 0 62.5 -12.5t51 -34t34.5 -50t13 -61.5z" />
    <glyph glyph-name="_2498" unicode="tt&#x1e2f;" horiz-adv-x="1929" 
d="M33 0zM463 -16q-134 0 -205.5 75.5t-71.5 208.5v573h-105q-20 0 -34 13t-14 39v98l165 27l52 280q5 20 19 31t36 11h128v-323h427l53 281q5 20 18.5 31t36.5 11h127v-323h703v-1017h-247v841h-456v-556q0 -48 24 -75t65 -27q22 0 38 5.5t27.5 11.5t20.5 11.5t18 5.5
q11 0 18 -5.5t15 -16.5l74 -120q-54 -45 -124 -68t-145 -23q-134 0 -206 75.5t-72 208.5v573h-415v-556q0 -48 23.5 -75t64.5 -27q23 0 38.5 5.5t27 11.5t20.5 11.5t18 5.5q11 0 18 -5.5t15 -16.5l74 -120q-54 -45 -124 -68t-145 -23zM2066 1784l-247 -261
q-19 -20 -36.5 -27.5t-45.5 -7.5h-148l142 243q15 26 35 39.5t60 13.5h240zM1615 1292q0 -28 -11 -52.5t-30.5 -42.5t-45 -28.5t-54.5 -10.5q-27 0 -51.5 10.5t-43 28.5t-29.5 42.5t-11 52.5q0 29 11 54.5t29.5 44.5t43 30t51.5 11q29 0 54.5 -11t45 -30t30.5 -44.5
t11 -54.5zM2019 1292q0 -28 -11 -52.5t-29.5 -42.5t-44 -28.5t-54.5 -10.5q-28 0 -53 10.5t-43.5 28.5t-29.5 42.5t-11 52.5q0 29 11 54.5t29.5 44.5t43.5 30t53 11q29 0 54.5 -11t44 -30t29.5 -44.5t11 -54.5z" />
    <glyph glyph-name="_2499" unicode="tt&#x268;" horiz-adv-x="1980" 
d="M1552 573v268h-456v-556q0 -48 24 -75t65 -27q22 0 38 5.5t27.5 11.5t20.5 11.5t18 5.5q11 0 18 -5.5t15 -16.5l74 -120q-54 -45 -124 -68t-145 -23q-134 0 -206 75.5t-72 208.5v573h-415v-556q0 -48 23.5 -75t64.5 -27q23 0 38.5 5.5t27 11.5t20.5 11.5t18 5.5
q11 0 18 -5.5t15 -16.5l74 -120q-54 -45 -124 -68t-145 -23q-134 0 -205.5 75.5t-71.5 208.5v573h-105q-20 0 -34 13t-14 39v98l165 27l52 280q5 20 19 31t36 11h128v-323h427l53 281q5 20 18.5 31t36.5 11h127v-323h703v-444h148v-175h-148v-398h-247v398h-130v175h130z
M1838 1329q0 -32 -13 -60.5t-34.5 -49.5t-51 -33.5t-62.5 -12.5q-32 0 -60 12.5t-49 33.5t-33.5 49.5t-12.5 60.5q0 33 12.5 61.5t33.5 50t49 34t60 12.5q33 0 62.5 -12.5t51 -34t34.5 -50t13 -61.5z" />
    <glyph glyph-name="_2501" unicode="tt&#x20b;" horiz-adv-x="1930" 
d="M34 0zM464 -16q-134 0 -205.5 75.5t-71.5 208.5v573h-105q-20 0 -34 13t-14 39v98l165 27l52 280q5 20 19 31t36 11h128v-323h427l53 281q5 20 18.5 31t36.5 11h127v-323h703v-1017h-247v841h-456v-556q0 -48 24 -75t65 -27q22 0 38 5.5t27.5 11.5t20.5 11.5t18 5.5
q11 0 18 -5.5t15 -16.5l74 -120q-54 -45 -124 -68t-145 -23q-134 0 -206 75.5t-72 208.5v573h-415v-556q0 -48 23.5 -75t64.5 -27q23 0 38.5 5.5t27 11.5t20.5 11.5t18 5.5q11 0 18 -5.5t15 -16.5l74 -120q-54 -45 -124 -68t-145 -23zM1679 1461q85 0 143 -22.5t93.5 -61.5
t50.5 -91t15 -110h-173q0 30 -5.5 54t-20 41t-39.5 26t-64 9t-64 -9t-39.5 -26t-20 -41t-5.5 -54h-173q0 58 15 110t50.5 91t93 61.5t143.5 22.5z" />
    <glyph glyph-name="_2502" unicode="tt&#x209;" horiz-adv-x="1930" 
d="M34 0zM464 -16q-134 0 -205.5 75.5t-71.5 208.5v573h-105q-20 0 -34 13t-14 39v98l165 27l52 280q5 20 19 31t36 11h128v-323h427l53 281q5 20 18.5 31t36.5 11h127v-323h703v-1017h-247v841h-456v-556q0 -48 24 -75t65 -27q22 0 38 5.5t27.5 11.5t20.5 11.5t18 5.5
q11 0 18 -5.5t15 -16.5l74 -120q-54 -45 -124 -68t-145 -23q-134 0 -206 75.5t-72 208.5v573h-415v-556q0 -48 23.5 -75t64.5 -27q23 0 38.5 5.5t27 11.5t20.5 11.5t18 5.5q11 0 18 -5.5t15 -16.5l74 -120q-54 -45 -124 -68t-145 -23zM1708 1462q41 0 61 -13.5t34 -39.5
l127 -243h-101q-29 0 -47.5 7.5t-34.5 27.5l-199 261h160zM1377 1462q20 0 34 -3.5t24.5 -10.5t19 -16.5t17.5 -22.5l177 -243h-117q-28 0 -45.5 7.5t-35.5 27.5l-252 261h178z" />
    <glyph glyph-name=".notdef" horiz-adv-x="1094" 
d="M239 1147q57 46 129.5 77.5t171.5 31.5q70 0 126 -19t95 -53.5t59.5 -83t20.5 -107.5q0 -55 -14 -94.5t-35 -69t-46 -50.5t-48 -39.5t-40.5 -36.5t-22.5 -40l-22 -96h-169l-17 114q-6 37 5.5 63.5t32 48t46 40t48 39t38 46t15.5 60.5t-24 57t-70 22q-36 0 -60.5 -7
t-42.5 -15t-31.5 -15t-28.5 -7q-34 0 -50 29zM385 313q0 28 10.5 53t28.5 43.5t43 29t54 10.5q28 0 52.5 -10.5t43 -29t29 -43.5t10.5 -53q0 -29 -10.5 -53.5t-29 -42.5t-43 -28.5t-52.5 -10.5q-29 0 -54 10.5t-43 28.5t-28.5 42.5t-10.5 53.5zM42 1446h1010v-1446h-1010
v1446zM107 69h873v1309h-873v-1309z" />
    <glyph glyph-name="uni0000" horiz-adv-x="0" 
 />
    <glyph glyph-name="uni0000" horiz-adv-x="0" 
 />
    <glyph glyph-name="space" unicode=" " horiz-adv-x="486" 
 />
    <glyph glyph-name="space" unicode="&#xa0;" horiz-adv-x="486" 
 />
    <glyph glyph-name="A" unicode="A" horiz-adv-x="1389" 
d="M1400 0h-208q-35 0 -57 17.5t-33 43.5l-108 295h-599l-108 -295q-8 -23 -31 -42t-57 -19h-210l569 1446h274zM464 546h461l-176 481q-13 32 -27 75.5t-28 94.5q-14 -51 -27.5 -95t-26.5 -77z" />
    <glyph glyph-name="AE" unicode="&#xc6;" horiz-adv-x="1866" 
d="M1788 1232h-694l49 -401h509v-207h-484l50 -409h570v-215h-797l-44 356h-520l-142 -296q-13 -27 -39 -43.5t-62 -16.5h-204l735 1446h1073v-214zM519 546h405l-86 700q-16 -51 -33.5 -96t-34.5 -83z" />
    <glyph glyph-name="B" unicode="B" horiz-adv-x="1317" 
d="M161 0v1446h498q142 0 243 -27t165.5 -77t94.5 -121t30 -160q0 -51 -15 -97.5t-46.5 -87t-80 -73.5t-115.5 -56q298 -67 298 -322q0 -92 -35 -170t-102 -134.5t-165 -88.5t-224 -32h-546zM430 634v-424h272q75 0 126 18t81.5 48t44 70t13.5 85q0 47 -15 84.5t-47 64
t-82.5 40.5t-121.5 14h-271zM430 820h214q138 0 208.5 50t70.5 159q0 113 -64 161t-200 48h-229v-418z" />
    <glyph glyph-name="C" unicode="C" horiz-adv-x="1323" 
d="M1154 341q22 0 39 -17l106 -115q-88 -109 -216.5 -167t-308.5 -58q-161 0 -289.5 55t-219.5 153t-139.5 234t-48.5 297q0 163 52 298.5t146.5 233.5t225.5 152.5t290 54.5q158 0 280.5 -52t208.5 -136l-90 -125q-8 -12 -20.5 -21t-34.5 -9q-15 0 -31 8.5t-35 21t-44 27.5
t-58 27.5t-76.5 21t-100.5 8.5q-97 0 -177.5 -34.5t-138.5 -100t-90 -160t-32 -215.5q0 -122 34.5 -217t93.5 -160t139 -99.5t172 -34.5q55 0 99.5 6t82 19t71 33.5t66.5 50.5q10 9 21 14.5t23 5.5z" />
    <glyph glyph-name="Ccedilla" unicode="&#xc7;" horiz-adv-x="1323" 
d="M658 -234q14 0 30.5 -7.5t48.5 -7.5q33 0 49.5 12.5t16.5 30.5q0 29 -36 41.5t-111 23.5l44 129q-144 12 -259.5 71.5t-196.5 156.5t-124 226t-43 281q0 163 52 298.5t146.5 233.5t225.5 152.5t290 54.5q158 0 280.5 -52t208.5 -136l-90 -125q-8 -12 -20.5 -21t-34.5 -9
q-15 0 -31 8.5t-35 21t-44 27.5t-58 27.5t-76.5 21t-100.5 8.5q-97 0 -177.5 -34.5t-138.5 -100t-90 -160t-32 -215.5q0 -122 34.5 -217t93.5 -160t139 -99.5t172 -34.5q55 0 99.5 6t82 19t71 33.5t66.5 50.5q10 9 21 14.5t23 5.5q22 0 39 -17l106 -115q-79 -99 -192 -155.5
t-267 -66.5l-13 -48q94 -22 132 -59.5t38 -89.5q0 -34 -17.5 -61t-50 -46t-77.5 -29t-99 -10q-41 0 -76.5 5.5t-70.5 16.5l23 77q6 23 29 23z" />
    <glyph glyph-name="D" unicode="D" horiz-adv-x="1521" 
d="M1445 723q0 -159 -53 -292t-149 -229t-231 -149t-300 -53h-551v1446h551q165 0 300 -53.5t231 -149t149 -228.5t53 -292zM1169 723q0 119 -31.5 213.5t-91 160t-144 100.5t-190.5 35h-281v-1018h281q106 0 190.5 35t144 100.5t91 160t31.5 213.5z" />
    <glyph glyph-name="E" unicode="E" horiz-adv-x="1150" 
d="M1073 1446v-214h-642v-401h506v-207h-506v-409h642v-215h-912v1446h912z" />
    <glyph glyph-name="F" unicode="F" horiz-adv-x="1132" 
d="M1073 1446v-214h-642v-428h542v-215h-542v-589h-270v1446h912z" />
    <glyph glyph-name="G" unicode="G" horiz-adv-x="1452" 
d="M1353 140q-110 -81 -234.5 -118.5t-266.5 -37.5q-177 0 -320.5 55t-245 153t-156.5 234t-55 297q0 163 53 299t150.5 234t236.5 152t312 54q88 0 164.5 -14t142 -38.5t119.5 -59.5t99 -77l-77 -122q-18 -29 -47 -35.5t-63 14.5l-66 38t-73.5 33t-91 23t-116.5 9
q-107 0 -193.5 -36t-147.5 -103t-94 -161t-33 -210q0 -124 35.5 -221.5t100 -165t155.5 -103t203 -35.5q80 0 143 16.5t123 45.5v263h-182q-26 0 -40.5 14.5t-14.5 35.5v152h480v-585v0z" />
    <glyph glyph-name="H" unicode="H" horiz-adv-x="1541" 
d="M1380 0h-270v632h-679v-632h-270v1446h270v-622h679v622h270v-1446z" />
    <glyph glyph-name="I" unicode="I" horiz-adv-x="593" 
d="M431 0h-270v1446h270v-1446z" />
    <glyph glyph-name="J" unicode="J" horiz-adv-x="859" 
d="M712 514q0 -122 -30 -220t-89.5 -167t-148.5 -106t-207 -37q-54 0 -106 6.5t-109 20.5q3 40 7 80t7 80q3 22 17.5 35.5t41.5 13.5q17 0 44.5 -7t69.5 -7q57 0 101 16.5t73.5 52.5t44.5 93.5t15 139.5v938h269v-932z" />
    <glyph glyph-name="K" unicode="K" horiz-adv-x="1371" 
d="M430 840h63q38 0 63 10.5t43 33.5l399 505q25 32 52.5 44.5t69.5 12.5h232l-487 -601q-43 -55 -89 -78q33 -12 59.5 -33.5t50.5 -56.5l502 -677h-237q-48 0 -71.5 13.5t-39.5 39.5l-409 534q-19 27 -44 38t-72 11h-85v-636h-269v1446h269v-606z" />
    <glyph glyph-name="L" unicode="L" horiz-adv-x="1039" 
d="M430 222h578v-222h-847v1446h269v-1224z" />
    <glyph glyph-name="M" unicode="M" horiz-adv-x="1890" 
d="M887 600q17 -32 31.5 -66.5t28.5 -69.5q14 37 29 71.5t32 66.5l427 801q8 15 17 24t19.5 13t23.5 5t31 1h203v-1446h-237v934q0 26 1.5 57t4.5 63l-437 -820q-31 -59 -95 -59h-38q-64 0 -95 59l-442 823q3 -33 5 -64.5t2 -58.5v-934h-237v1446h203q18 0 31 -1t23.5 -5
t19 -13t16.5 -24l433 -803v0z" />
    <glyph glyph-name="N" unicode="N" horiz-adv-x="1541" 
d="M302 1446q17 0 29.5 -1.5t22 -6t18.5 -13t20 -22.5l758 -968q-3 35 -5 69t-2 63v879h237v-1446h-138q-32 0 -53.5 10.5t-41.5 35.5l-755 963q3 -32 4.5 -63.5t1.5 -57.5v-888h-237v1446h141v0z" />
    <glyph glyph-name="O" unicode="O" horiz-adv-x="1616" 
d="M1540 723q0 -159 -52.5 -294.5t-148.5 -234.5t-231 -154.5t-300 -55.5q-164 0 -299 55.5t-231.5 154.5t-149.5 234.5t-53 294.5t53 294.5t149.5 234.5t231.5 154.5t299 55.5q110 0 207 -25.5t178 -72t145.5 -113t109.5 -148.5t68.5 -178t23.5 -202zM1265 723
q0 119 -32 213.5t-91 160.5t-143.5 101t-190.5 35t-190.5 -35t-144 -101t-91.5 -160.5t-32 -213.5t32 -213.5t91.5 -160t144 -100.5t190.5 -35t190.5 35t143.5 100.5t91 160t32 213.5z" />
    <glyph glyph-name="Oslash" unicode="&#xd8;" horiz-adv-x="1616" 
d="M1540 723q0 -159 -52.5 -294.5t-148.5 -234.5t-231 -154.5t-300 -55.5q-101 0 -190 21t-167 61l-76 -105q-29 -40 -69 -56t-79 -16h-106l195 268q-115 100 -178 245t-63 321q0 159 53 294.5t149.5 234.5t231.5 154.5t299 55.5q110 0 207 -25.5t178 -72.5l60 82
q13 18 24 30.5t23 20.5t27.5 11.5t37.5 3.5h137l-179 -246q104 -100 160.5 -238.5t56.5 -304.5zM350 723q0 -115 29 -206t84 -157l589 810q-104 63 -244 63q-106 0 -190.5 -35t-144 -101t-91.5 -160.5t-32 -213.5zM1265 723q0 103 -24 187t-69 148l-580 -798q95 -46 216 -46
q106 0 190.5 35t143.5 100.5t91 160t32 213.5z" />
    <glyph glyph-name="OE" unicode="&#x152;" horiz-adv-x="2163" 
d="M2085 1446v-214h-641v-401h506v-207h-506v-409h642l-1 -215h-879v186q-87 -95 -205 -148t-264 -53q-148 0 -269.5 55.5t-208.5 154t-134.5 234t-47.5 294.5t47.5 294.5t134.5 234.5t208.5 154.5t269.5 55.5q146 0 264 -53.5t205 -148.5v186h879zM1174 723
q0 119 -28 214.5t-81 163t-129 103.5t-171 36q-96 0 -172.5 -36t-129.5 -103.5t-81.5 -163t-28.5 -214.5t28.5 -214.5t81.5 -162.5t129.5 -103t172.5 -36q95 0 171 36t129 103t81 162.5t28 214.5z" />
    <glyph glyph-name="P" unicode="P" horiz-adv-x="1238" 
d="M430 509v-509h-269v1446h470q145 0 251 -34t175 -95t102.5 -146t33.5 -186q0 -105 -35 -192.5t-105 -150.5t-175.5 -98t-246.5 -35h-201zM430 719h201q74 0 129 18.5t91.5 53t54.5 84t18 110.5q0 58 -18 105t-54 80t-91 50.5t-130 17.5h-201v-519z" />
    <glyph glyph-name="Q" unicode="Q" horiz-adv-x="1616" 
d="M1541 723q0 -97 -20 -185.5t-57.5 -166t-91.5 -142t-123 -113.5l367 -399h-222q-48 0 -86.5 13t-70.5 48l-212 234q-51 -14 -104.5 -21t-111.5 -7q-164 0 -299 55.5t-231.5 154.5t-149.5 234.5t-53 294.5t53 294.5t149.5 234.5t231.5 154.5t299 55.5q110 0 207 -25.5
t178 -72t145.5 -113t109.5 -148.5t68.5 -178t23.5 -202zM1266 723q0 119 -32 213.5t-91 160.5t-143.5 101t-190.5 35t-190.5 -35t-144 -101t-91.5 -160.5t-32 -213.5t32 -213.5t91.5 -160t144 -100.5t190.5 -35t190.5 35t143.5 100.5t91 160t32 213.5z" />
    <glyph glyph-name="R" unicode="R" horiz-adv-x="1286" 
d="M430 565v-565h-269v1446h441q147 0 252.5 -30.5t173 -85.5t99.5 -131.5t32 -168.5q0 -73 -21.5 -138t-62 -118t-100 -93t-135.5 -64q51 -29 88 -83l362 -534h-243q-69 0 -100 54l-304 463q-17 26 -37.5 37t-60.5 11h-115zM430 758h168q76 0 132.5 19t93 52.5t54.5 79.5
t18 101q0 110 -72.5 169t-221.5 59h-172v-480z" />
    <glyph glyph-name="S" unicode="S" horiz-adv-x="1097" 
d="M931 1183q-12 -21 -25.5 -30.5t-33.5 -9.5q-21 0 -45.5 15.5t-58.5 34.5t-79.5 34.5t-107.5 15.5q-56 0 -98 -13.5t-70.5 -37.5t-42.5 -57.5t-14 -73.5q0 -51 28.5 -85t75.5 -58t107 -43t123 -40.5t123 -50t107 -72t75.5 -106.5t28.5 -153q0 -98 -33.5 -183.5t-98 -149
t-157.5 -100t-213 -36.5q-69 0 -136 13.5t-128.5 38.5t-115.5 60t-96 78l79 129q10 14 26 23.5t34 9.5q25 0 54 -20.5t69 -45.5t93.5 -45.5t128.5 -20.5q115 0 178 54.5t63 156.5q0 57 -28.5 93t-75.5 60.5t-107 41.5t-122 37t-122 48t-107 73t-75.5 112.5t-28.5 166.5
q0 79 31.5 154t91.5 133t148 93t202 35q128 0 236 -40t184 -112z" />
    <glyph glyph-name="T" unicode="T" horiz-adv-x="1200" 
d="M1171 1446v-221h-436v-1225h-269v1225h-436v221h1141z" />
    <glyph glyph-name="U" unicode="U" horiz-adv-x="1485" 
d="M743 217q78 0 139.5 26t103.5 73t64.5 114t22.5 150v866h269v-866q0 -129 -41.5 -238.5t-119 -189t-188.5 -124t-250 -44.5q-140 0 -251 44.5t-188.5 124t-119 189t-41.5 238.5v866h269v-865q0 -83 22.5 -150t65 -114.5t104 -73.5t139.5 -26z" />
    <glyph glyph-name="V" unicode="V" horiz-adv-x="1389" 
d="M-11 1446h216q35 0 57 -17t33 -44l341 -882q17 -43 32.5 -94.5t29.5 -107.5q11 56 25.5 107.5t31.5 94.5l339 882q8 23 31.5 42t57.5 19h217l-584 -1446h-243z" />
    <glyph glyph-name="W" unicode="W" horiz-adv-x="2102" 
d="M17 1446h225q35 0 58.5 -16.5t31.5 -44.5l246 -865q8 -32 15.5 -69.5t15.5 -79.5q8 42 17.5 79.5t20.5 69.5l284 865q8 23 31.5 42t57.5 19h79q35 0 57 -17t33 -44l283 -865q21 -62 38 -143q13 79 29 143l246 865q6 25 30.5 43t58.5 18h211l-449 -1446h-243l-316 988
q-7 19 -13 41t-12 46q-5 -24 -11.5 -46t-12.5 -41l-319 -988h-244z" />
    <glyph glyph-name="X" unicode="X" horiz-adv-x="1341" 
d="M483 744l-461 702h268q28 0 40.5 -7.5t23.5 -24.5l328 -530q5 12 11 24.5t14 25.5l302 475q11 19 24 28t33 9h257l-465 -691l478 -755h-268q-28 0 -44.5 14t-26.5 32l-335 554q-7 -22 -19 -42l-321 -512q-12 -17 -27.5 -31.5t-40.5 -14.5h-251z" />
    <glyph glyph-name="Y" unicode="Y" horiz-adv-x="1296" 
d="M782 560v-560h-268v560l-527 886h237q35 0 55.5 -17t34.5 -43l264 -483q23 -44 40.5 -82t31.5 -75q13 38 30 76t39 81l263 483q11 22 33 41t56 19h238z" />
    <glyph glyph-name="Z" unicode="Z" horiz-adv-x="1211" 
d="M1157 1446v-99q0 -46 -26 -84l-742 -1048h751v-215h-1100v106q0 20 7 38.5t18 34.5l744 1053h-722v214h1070z" />
    <glyph glyph-name="a" unicode="a" horiz-adv-x="1015" 
d="M793 0q-35 0 -54 10.5t-30 42.5l-22 73q-39 -35 -76 -61.5t-77 -44.5t-85.5 -27t-100.5 -9q-65 0 -120 17.5t-95 52.5t-62 87t-22 121q0 58 30.5 114.5t101.5 102t189 75.5t294 34v60q0 103 -44 152.5t-127 49.5q-60 0 -99.5 -14t-69.5 -31.5t-54.5 -31.5t-54.5 -14
q-26 0 -44 13.5t-29 31.5l-44 79q177 162 426 162q90 0 161 -29.5t120 -82t74.5 -125.5t25.5 -160v-648h-112zM424 154q76 0 131.5 27.5t108.5 83.5v173q-108 -5 -180.5 -18.5t-116.5 -34.5t-63 -49t-19 -61q0 -65 38.5 -93t100.5 -28z" />
    <glyph glyph-name="ae" unicode="&#xe6;" horiz-adv-x="1619" 
d="M1144 1042q87 0 162 -33.5t130 -96.5t86.5 -153t31.5 -202q0 -28 -2.5 -46.5t-8.5 -29t-16.5 -15t-27.5 -4.5h-599q14 -147 83.5 -216.5t178.5 -69.5q68 0 111 13t71 29t46.5 29t39.5 13q36 0 50 -23l67 -84q-41 -48 -90.5 -80.5t-102.5 -52t-108 -27.5t-107 -8
q-109 0 -203.5 49t-155.5 153q-30 -54 -74.5 -92.5t-97.5 -63t-113 -36t-121 -11.5q-74 0 -134 19t-102 55.5t-64.5 91t-22.5 125.5q0 38 13 77.5t42.5 76t76.5 69t115.5 57t159.5 40t208 18.5v35q0 103 -44 156t-127 53q-60 0 -99.5 -15.5t-69.5 -33.5t-54.5 -33.5
t-54.5 -15.5q-26 0 -44 13.5t-29 31.5l-44 79q89 81 185.5 121.5t214.5 40.5q115 0 189 -44t113 -121q57 75 142 118.5t200 43.5zM666 462q-108 -5 -180.5 -20.5t-116.5 -38.5t-62.5 -53t-18.5 -63q0 -69 38.5 -101t107.5 -32q49 0 91.5 15t73.5 46.5t49 81.5t18 119v46z
M1134 865q-105 0 -162.5 -66.5t-70.5 -187.5h433q0 49 -12 95t-37 81.5t-62.5 56.5t-88.5 21z" />
    <glyph glyph-name="b" unicode="b" horiz-adv-x="1135" 
d="M122 0v1486h247v-587q62 66 137.5 104.5t172.5 38.5q89 0 160.5 -35t122 -100.5t77.5 -158.5t27 -209q0 -125 -31 -227t-88.5 -174.5t-138.5 -112.5t-180 -40q-48 0 -87.5 9.5t-72 26.5t-60 41.5t-52.5 54.5l-11 -69q-6 -26 -20.5 -37t-39.5 -11h-163zM594 850
q-71 0 -124 -32.5t-101 -91.5v-460q42 -52 91.5 -72.5t104.5 -20.5q57 0 102.5 20.5t77.5 64t49 111t17 161.5q0 169 -56 244.5t-161 75.5z" />
    <glyph glyph-name="c" unicode="c" horiz-adv-x="964" 
d="M857 809q-11 -14 -21.5 -22t-30.5 -8q-19 0 -37 11.5t-43 26t-59.5 26t-85.5 11.5q-65 0 -114 -23.5t-81.5 -67.5t-48.5 -106.5t-16 -141.5q0 -82 17.5 -146t50.5 -107.5t80 -66t106 -22.5t95.5 14.5t61.5 32t43.5 32t41.5 14.5q30 0 45 -23l71 -90q-41 -48 -89 -80.5
t-99.5 -52t-106 -27.5t-108.5 -8q-95 0 -179 35.5t-147 103.5t-99.5 166.5t-36.5 224.5q0 113 32.5 209.5t95.5 167t156 110.5t214 40q115 0 201.5 -37t155.5 -106z" />
    <glyph glyph-name="ccedilla" unicode="&#xe7;" horiz-adv-x="966" 
d="M419 -234q14 0 31 -7.5t49 -7.5q33 0 49.5 12.5t16.5 30.5q0 29 -36 41.5t-111 23.5l44 131q-84 12 -156 52.5t-125 107t-83.5 158.5t-30.5 207q0 113 32.5 209.5t95.5 167t156 110.5t214 40q115 0 201.5 -37t155.5 -106l-65 -90q-11 -14 -21.5 -22t-30.5 -8
q-19 0 -37 11.5t-43 26t-59.5 26t-85.5 11.5q-65 0 -114 -23.5t-81.5 -67.5t-48.5 -106.5t-16 -141.5q0 -82 17.5 -146t50.5 -107.5t80 -66t106 -22.5t95.5 14.5t61.5 32t43.5 32t41.5 14.5q30 0 45 -23l71 -90q-68 -80 -154 -117.5t-176 -46.5l-13 -50q94 -22 131.5 -59.5
t37.5 -89.5q0 -34 -17.5 -61t-50 -46t-77 -29t-98.5 -10q-41 0 -77 5.5t-70 16.5l22 77q6 23 29 23z" />
    <glyph glyph-name="d" unicode="d" horiz-adv-x="1135" 
d="M862 0q-49 0 -62 45l-21 99q-32 -36 -67 -65t-75.5 -50t-87 -32.5t-100.5 -11.5q-84 0 -154 35t-120.5 101.5t-78 164.5t-27.5 224q0 114 31 212t89 170t139 112.5t182 40.5q86 0 147 -27.5t109 -73.5v542h247v-1486h-151zM533 181q77 0 131 32t102 91v460
q-42 51 -91.5 72t-106.5 21q-56 0 -101 -21t-77 -63.5t-49 -108t-17 -154.5q0 -90 14.5 -152.5t41.5 -102t66 -57t87 -17.5z" />
    <glyph glyph-name="e" unicode="e" horiz-adv-x="1068" 
d="M559 1042q97 0 179 -31t141 -90.5t92.5 -146t33.5 -197.5q0 -56 -12 -75.5t-46 -19.5h-635q6 -79 28 -136.5t58 -95t85.5 -56t109.5 -18.5t103.5 14t76 31t57 31t47.5 14q31 0 46 -23l71 -90q-41 -48 -92 -80.5t-106.5 -52t-113 -27.5t-111.5 -8q-107 0 -199 35.5
t-160 105t-107 172t-39 237.5q0 105 34 197.5t97.5 161t155 108.5t206.5 40zM564 865q-108 0 -169 -61t-78 -173h466q0 48 -13.5 90.5t-40.5 74.5t-68.5 50.5t-96.5 18.5z" />
    <glyph glyph-name="f" unicode="f" horiz-adv-x="717" 
d="M194 0v840l-89 14q-29 6 -46.5 20.5t-17.5 41.5v101h153v76q0 88 26.5 158t76 119t120.5 75t160 26q71 0 132 -19l-5 -124q-1 -14 -8 -22.5t-18.5 -13t-26.5 -6t-32 -1.5q-44 0 -78.5 -9.5t-58.5 -33t-36.5 -62t-12.5 -95.5v-68h267v-176h-259v-841h-247z" />
    <glyph glyph-name="g" unicode="g" horiz-adv-x="1056" 
d="M497 1044q66 0 123.5 -13.5t106.5 -39.5h295v-92q0 -44 -53 -54l-92 -17q10 -26 15.5 -55t5.5 -61q0 -76 -30.5 -137.5t-84.5 -104.5t-127.5 -66.5t-158.5 -23.5q-58 0 -113 11q-48 -29 -48 -65q0 -31 28.5 -45.5t75.5 -20.5t107 -7.5t123 -6.5t123 -17.5t107 -39.5
t75.5 -73.5t28.5 -119.5q0 -68 -33.5 -132t-97 -114t-156 -80.5t-210.5 -30.5q-116 0 -202 22.5t-143 60t-85 86.5t-28 102q0 71 43.5 120t118.5 78q-40 21 -64 56t-24 92q0 23 8 47.5t24.5 48.5t42 45.5t59.5 38.5q-78 42 -122.5 112t-44.5 164q0 76 30.5 137.5t85 105
t129 66.5t162.5 23zM776 -46q0 30 -18 48.5t-49 29.5t-72.5 16t-88 7.5t-96 4.5t-96.5 8q-41 -23 -66.5 -54t-25.5 -72q0 -27 13.5 -50.5t43 -40.5t76.5 -26.5t115 -9.5q69 0 119 10.5t82.5 29t47.5 44t15 55.5zM497 538q46 0 80 12.5t56.5 34.5t34 53t11.5 68
q0 76 -45.5 120.5t-136.5 44.5t-136.5 -44.5t-45.5 -120.5q0 -36 11.5 -67t34 -53.5t57 -35t79.5 -12.5z" />
    <glyph glyph-name="h" unicode="h" horiz-adv-x="1128" 
d="M122 0v1486h247v-571q60 57 132 92t169 35q84 0 149 -28.5t108.5 -80t66 -123t22.5 -157.5v-653h-247v653q0 94 -43 145.5t-131 51.5q-64 0 -120 -29t-106 -79v-742h-247z" />
    <glyph glyph-name="i" unicode="i" horiz-adv-x="508" 
d="M378 1026v-1026h-248v1026h248zM412 1325q0 -32 -13 -60t-34.5 -49t-50.5 -33.5t-62 -12.5q-32 0 -60.5 12.5t-49.5 33.5t-33.5 49t-12.5 60q0 33 12.5 62t33.5 50t49.5 33.5t60.5 12.5q33 0 62 -12.5t50.5 -33.5t34.5 -50t13 -62z" />
    <glyph glyph-name="dotlessi" unicode="&#x131;" horiz-adv-x="510" 
d="M378 1026v-1026h-247v1026h247z" />
    <glyph glyph-name="j" unicode="j" horiz-adv-x="508" 
d="M378 1026v-1061q0 -67 -17.5 -126t-56 -103.5t-101 -70t-152.5 -25.5q-35 0 -65 4.5t-62 14.5l9 133q3 20 16 25.5t50 5.5t62.5 7.5t40.5 24t21.5 43.5t6.5 67v1061h248zM412 1325q0 -32 -13 -60t-34.5 -49t-51 -33.5t-62.5 -12.5q-32 0 -60 12.5t-49 33.5t-33.5 49
t-12.5 60q0 33 12.5 62t33.5 50t49 33.5t60 12.5q33 0 62.5 -12.5t51 -33.5t34.5 -50t13 -62z" />
    <glyph glyph-name="k" unicode="k" horiz-adv-x="1069" 
d="M369 1486v-851h46q25 0 39.5 6.5t29.5 26.5l255 315q16 21 35.5 32t50.5 11h226l-319 -381q-34 -45 -74 -69q21 -15 37.5 -35t31.5 -43l342 -498h-223q-29 0 -50 9.5t-35 34.5l-262 389q-14 23 -29 30t-45 7h-56v-470h-247v1486h247z" />
    <glyph glyph-name="m" unicode="m" horiz-adv-x="1675" 
d="M122 0v1026h151q48 0 63 -45l16 -76q27 30 56.5 55t63 43t72 28.5t84.5 10.5q97 0 159.5 -52.5t93.5 -139.5q24 51 60 87.5t79 59.5t91.5 34t97.5 11q85 0 151 -26t111 -76t68.5 -122t23.5 -165v-653h-247v653q0 98 -43 147.5t-126 49.5q-38 0 -70.5 -13t-57 -37.5
t-38.5 -61.5t-14 -85v-653h-248v653q0 103 -41.5 150t-121.5 47q-54 0 -100.5 -26.5t-86.5 -72.5v-751h-247z" />
    <glyph glyph-name="n" unicode="n" horiz-adv-x="1128" 
d="M122 0v1026h151q48 0 63 -45l17 -81q31 32 65.5 58t73 45t82.5 29t96 10q84 0 149 -28.5t108.5 -80t66 -123t22.5 -157.5v-653h-247v653q0 94 -43 145.5t-131 51.5q-64 0 -120 -29t-106 -79v-742h-247z" />
    <glyph glyph-name="o" unicode="o" horiz-adv-x="1149" 
d="M576 1042q114 0 207.5 -37t160 -105t102.5 -166t36 -219q0 -122 -36 -220t-102.5 -167t-160 -106t-207.5 -37q-115 0 -209 37t-160.5 106t-103 167t-36.5 220q0 121 36.5 219t103 166t160.5 105t209 37zM576 175q128 0 189.5 86t61.5 252t-61.5 253t-189.5 87
q-130 0 -192.5 -87.5t-62.5 -252.5t62.5 -251.5t192.5 -86.5z" />
    <glyph glyph-name="oslash" unicode="&#xf8;" horiz-adv-x="1148" 
d="M949 893q64 -69 98.5 -164t34.5 -214q0 -122 -36 -220t-102.5 -167t-160 -106t-207.5 -37q-72 0 -135.5 14.5t-118.5 42.5l-34 -47q-14 -20 -31.5 -34t-37 -22.5t-40.5 -12t-40 -3.5h-90l154 209q-66 69 -101 165.5t-35 217.5t36.5 219t103 166t160.5 105t209 37
q144 0 254 -58l56 75q12 18 22.5 31t23 20.5t28.5 11t38 3.5h122zM306 513q0 -119 32 -197l376 510q-56 34 -138 34q-131 0 -200.5 -90.5t-69.5 -256.5zM576 167q128 0 197 90t69 256q0 113 -31 192l-373 -506q55 -32 138 -32z" />
    <glyph glyph-name="oe" unicode="&#x153;" horiz-adv-x="1752" 
d="M1278 1042q87 0 161.5 -33.5t129.5 -96.5t86 -153t31 -202q0 -28 -2.5 -46.5t-8.5 -29t-16.5 -15t-27.5 -4.5h-598q14 -147 83.5 -216.5t179.5 -69.5q55 0 95.5 14t71 31t54.5 31t47 14q29 0 43 -23l73 -90q-41 -48 -90.5 -80.5t-102.5 -52t-108 -27.5t-107 -8
q-108 0 -202.5 48.5t-155.5 152.5q-60 -97 -156.5 -149t-225.5 -52q-101 0 -186.5 37t-147.5 106t-96.5 167t-34.5 220q0 121 35 219t97.5 166t150 105t192.5 37q124 0 217.5 -51.5t152.5 -146.5q55 90 147 144t219 54zM556 175q118 0 175 86t57 252t-57 253t-175 87
q-120 0 -177 -87.5t-57 -252.5q0 -166 56.5 -252t177.5 -86zM1267 865q-105 0 -162.5 -66.5t-70.5 -187.5h432q0 49 -12 95t-36.5 81.5t-62 56.5t-88.5 21z" />
    <glyph glyph-name="p" unicode="p" horiz-adv-x="1136" 
d="M122 -335v1361h151q48 0 63 -45l20 -95q62 71 142.5 115t188.5 44q84 0 153.5 -35t120 -101.5t78 -164t27.5 -223.5q0 -115 -31 -213t-88.5 -170t-139 -112.5t-182.5 -40.5q-87 0 -147.5 26.5t-108.5 73.5v-420h-247zM602 850q-77 0 -131.5 -32.5t-101.5 -91.5v-460
q42 -52 91.5 -72.5t107.5 -20.5q56 0 101 21t76.5 64t48.5 108.5t17 154.5q0 90 -14.5 152.5t-41.5 101.5t-65.5 57t-87.5 18z" />
    <glyph glyph-name="q" unicode="q" horiz-adv-x="1135" 
d="M1013 1026v-1361h-247v464q-31 -33 -65.5 -59.5t-73.5 -45t-83 -29t-95 -10.5q-84 0 -154 35t-120.5 101.5t-78 164.5t-27.5 224q0 114 31 212t89 170t139 112.5t182 40.5q48 0 87.5 -8.5t73 -24.5t61.5 -38.5t54 -50.5l14 58q13 45 62 45h151zM533 181q77 0 131 32
t102 91v460q-42 51 -91.5 72t-106.5 21q-56 0 -101 -21t-77 -63.5t-49 -108t-17 -154.5q0 -90 14.5 -152.5t41.5 -102t66 -57t87 -17.5z" />
    <glyph glyph-name="r" unicode="r" horiz-adv-x="746" 
d="M122 0v1026h145q38 0 53 -13.5t20 -48.5l14 -116q49 92 115 144.5t156 52.5q71 0 114 -31l-16 -185q-5 -18 -14.5 -25.5t-25.5 -7.5q-15 0 -44.5 5t-57.5 5q-41 0 -73 -12t-57.5 -34.5t-45 -54.5t-36.5 -73v-632h-247z" />
    <glyph glyph-name="s" unicode="s" horiz-adv-x="879" 
d="M748 826q-10 -16 -21 -22.5t-28 -6.5q-18 0 -38.5 10t-47.5 22.5t-61.5 22.5t-81.5 10q-73 0 -114.5 -31t-41.5 -81q0 -33 21.5 -55.5t57 -39.5t80.5 -30.5t91.5 -29.5t91.5 -36.5t80.5 -52t57 -75.5t21.5 -106q0 -74 -26.5 -136.5t-78.5 -108t-128.5 -71t-176.5 -25.5
q-53 0 -103.5 9.5t-97 26.5t-86 40t-69.5 50l57 94q11 17 26 26t38 9t43.5 -13t47.5 -28t63.5 -28t92.5 -13q44 0 75.5 10.5t52 27.5t30 39.5t9.5 46.5q0 36 -21.5 59t-57 40t-81 30.5t-93 29.5t-93 37.5t-81 54.5t-57 81t-21.5 116q0 63 25 120t73.5 99.5t121 68
t167.5 25.5q106 0 193 -35t145 -92z" />
    <glyph glyph-name="germandbls" unicode="&#xdf;" horiz-adv-x="1205" 
d="M646 1471q117 0 200 -34t135 -85t76 -110t24 -110q0 -58 -19.5 -99t-49 -72t-63.5 -54t-63.5 -44t-49 -43.5t-19.5 -51.5q0 -33 25 -57t62 -47t81 -49t81 -63.5t62 -90.5t25 -130q0 -85 -31.5 -149.5t-85.5 -108.5t-125.5 -66.5t-151.5 -22.5q-46 0 -91 9.5t-86.5 26.5
t-78.5 40t-67 50l58 94q10 17 25 26t38 9t44 -13t46 -28t57 -28t77 -13q63 0 101.5 37.5t38.5 97.5q0 47 -27 78t-67 55.5t-87.5 48t-87.5 55t-67 76.5t-27 114q0 57 21 98t52.5 73t68 57.5t68 52.5t52.5 58t21 73q0 33 -11.5 62.5t-36.5 51t-64 34.5t-94 13
q-131 0 -198.5 -80.5t-67.5 -235.5v-976h-247v984q0 106 36 195t104 154t165 101.5t219 36.5z" />
    <glyph glyph-name="t" unicode="t" horiz-adv-x="744" 
d="M464 -16q-134 0 -205.5 75.5t-71.5 208.5v573h-105q-20 0 -34 13t-14 39v98l165 27l52 280q5 20 19 31t36 11h128v-323h274v-176h-274v-556q0 -48 23.5 -75t64.5 -27q23 0 38.5 5.5t27 11.5t20.5 11.5t18 5.5q11 0 18 -5.5t15 -16.5l74 -120q-54 -45 -124 -68t-145 -23z
" />
    <glyph glyph-name="u" unicode="u" horiz-adv-x="1128" 
d="M359 1026v-652q0 -94 43.5 -145.5t130.5 -51.5q64 0 120 28.5t106 78.5v742h247v-1026h-151q-49 0 -62 45l-17 82q-32 -32 -66 -58.5t-73 -45.5t-83 -29t-96 -10q-84 0 -148.5 28.5t-108.5 80.5t-66.5 123.5t-22.5 157.5v652h247z" />
    <glyph glyph-name="v" unicode="v" horiz-adv-x="1056" 
d="M9 1026h204q28 0 46.5 -13t24.5 -33l198 -548q16 -48 27.5 -94t21.5 -92q10 46 22 92t29 94l202 548q7 20 25 33t43 13h195l-407 -1026h-224z" />
    <glyph glyph-name="w" unicode="w" horiz-adv-x="1605" 
d="M18 1026h197q27 0 46 -13t25 -33l147 -548q11 -45 19 -88t15 -85q11 42 23.5 85t26.5 88l170 550q6 20 23.5 33t42.5 13h109q26 0 44.5 -13t24.5 -33l165 -550q13 -46 24.5 -89t21.5 -86q8 43 17 86t21 89l151 548q7 20 25 33t43 13h188l-326 -1026h-198q-34 0 -47 44
l-184 593q-19 61 -29 118q-12 -60 -30 -120l-187 -591q-12 -44 -53 -44h-190z" />
    <glyph glyph-name="x" unicode="x" horiz-adv-x="1044" 
d="M357 529l-337 497h238q27 0 40 -7.5t23 -24.5l215 -343q5 17 12.5 34t18.5 34l173 270q22 37 57 37h227l-338 -486l352 -540h-238q-27 0 -43.5 14t-27.5 32l-218 357q-9 -36 -25 -60l-192 -297q-11 -17 -27 -31.5t-40 -14.5h-221z" />
    <glyph glyph-name="y" unicode="y" horiz-adv-x="1055" 
d="M495 -282q-11 -26 -28.5 -39.5t-53.5 -13.5h-184l192 411l-415 950h217q29 0 45.5 -14t24.5 -32l218 -532q20 -55 33 -109q8 28 17.5 55.5t20.5 54.5l206 531q8 20 26.5 33t41.5 13h198z" />
    <glyph glyph-name="z" unicode="z" horiz-adv-x="919" 
d="M859 924q0 -26 -9 -51t-24 -41l-488 -642h506v-190h-792v103q0 17 8 40.5t24 44.5l492 649h-495v189h778v-102z" />
    <glyph glyph-name="ordfeminine" unicode="&#xaa;" horiz-adv-x="734" 
d="M539 841q-24 0 -36.5 7t-23.5 29l-12 36q-24 -20 -46 -35t-45 -25t-49.5 -15t-59.5 -5q-42 0 -76 11t-58.5 32.5t-38 53t-13.5 72.5q0 33 17 67.5t59 62.5t113 46.5t179 21.5v25q0 54 -23.5 76.5t-68.5 22.5q-34 0 -56 -7t-39 -16t-32 -16t-36 -7q-19 0 -31.5 10.5
t-20.5 22.5l-31 57q56 51 123 74.5t145 23.5q57 0 102 -18t76.5 -50.5t48 -76.5t16.5 -96v-384h-83zM323 954q38 0 67 13.5t59 42.5v81q-59 -2 -97 -9t-60.5 -17.5t-31.5 -24t-9 -29.5q0 -32 18.5 -44.5t53.5 -12.5z" />
    <glyph glyph-name="ordmasculine" unicode="&#xba;" horiz-adv-x="801" 
d="M402 1464q73 0 133 -22t103 -62.5t66.5 -99t23.5 -131.5q0 -74 -23.5 -133.5t-66.5 -101t-103 -63.5t-133 -22t-133.5 22t-104 63.5t-67.5 101t-24 133.5q0 73 24 131.5t67.5 99t104 62.5t133.5 22zM402 973q67 0 99.5 42.5t32.5 131.5t-32.5 131t-99.5 42
q-70 0 -102.5 -42t-32.5 -131t32.5 -131.5t102.5 -42.5z" />
    <glyph glyph-name="grave" unicode="`" 
d="M311 1462q41 0 61 -13.5t34 -39.5l143 -243h-141q-28 0 -45.5 7.5t-35.5 27.5l-247 261h231z" />
    <glyph glyph-name="acute" unicode="&#xb4;" 
d="M746 1462l-247 -261q-19 -20 -36.5 -27.5t-45.5 -7.5h-148l142 243q15 26 35 39.5t60 13.5h240z" />
    <glyph glyph-name="circumflex" unicode="&#x2c6;" 
d="M745 1168h-165q-14 0 -28.5 5.5t-28.5 19.5l-98 104q-11 10 -21 24q-11 -14 -21 -24l-100 -104q-12 -13 -27 -19t-30 -6h-171l229 278h232z" />
    <glyph glyph-name="caron" unicode="&#x2c7;" 
d="M55 1446h171q15 0 28.5 -5t21.5 -12l106 -111q5 -5 10.5 -11.5t10.5 -13.5q10 13 22 25l105 111q8 6 22 11.5t28 5.5h165l-229 -278h-232z" />
    <glyph glyph-name="tilde" unicode="&#x2dc;" 
d="M507 1359q30 0 47 16.5t17 59.5h150q0 -56 -15.5 -101.5t-42.5 -78t-64.5 -50t-82.5 -17.5q-36 0 -67 13t-58 28t-50.5 28t-43.5 13q-29 0 -45.5 -17.5t-16.5 -59.5h-153q0 56 15.5 101.5t43.5 78t65.5 50.5t81.5 18q36 0 67.5 -13t58.5 -28t50 -28t43 -13z" />
    <glyph glyph-name="dieresis" unicode="&#xa8;" 
d="M336 1292q0 -28 -11 -52.5t-30.5 -42.5t-45 -28.5t-54.5 -10.5q-27 0 -51.5 10.5t-43 28.5t-29.5 42.5t-11 52.5q0 29 11 54.5t29.5 44.5t43 30t51.5 11q29 0 54.5 -11t45 -30t30.5 -44.5t11 -54.5zM740 1292q0 -28 -11 -52.5t-29.5 -42.5t-44 -28.5t-54.5 -10.5
q-28 0 -53 10.5t-43.5 28.5t-29.5 42.5t-11 52.5q0 29 11 54.5t29.5 44.5t43.5 30t53 11q29 0 54.5 -11t44 -30t29.5 -44.5t11 -54.5z" />
    <glyph glyph-name="macron" unicode="&#xaf;" 
d="M101 1372h598v-158h-598v158z" />
    <glyph glyph-name="macron" unicode="&#x2c9;" 
d="M101 1372h598v-158h-598v158z" />
    <glyph glyph-name="breve" unicode="&#x2d8;" 
d="M400 1161q-86 0 -143.5 22.5t-93 61.5t-50.5 91t-15 110h173q0 -30 5.5 -54t20 -40.5t39.5 -25.5t64 -9t64 9t39.5 25.5t20 40.5t5.5 54h173q0 -58 -15 -110t-50.5 -91t-93.5 -61.5t-143 -22.5z" />
    <glyph glyph-name="ring" unicode="&#x2da;" 
d="M177 1325q0 46 18 84t48.5 65t70.5 42t84 15q45 0 86 -15t72 -42t49.5 -65t18.5 -84q0 -45 -18.5 -82t-49.5 -63.5t-72 -41t-86 -14.5q-44 0 -84 14.5t-70.5 41t-48.5 63.5t-18 82zM311 1325q0 -38 23.5 -63.5t67.5 -25.5q40 0 64 25.5t24 63.5q0 42 -24 66.5t-64 24.5
q-44 0 -67.5 -24.5t-23.5 -66.5z" />
    <glyph glyph-name="hungarumlaut" unicode="&#x2dd;" 
d="M532 1462l-199 -261q-16 -20 -35 -27.5t-47 -7.5h-101l126 243q14 26 34.5 39.5t60.5 13.5h161zM881 1462l-252 -261q-18 -20 -35.5 -27.5t-46.5 -7.5h-116l177 243q9 13 17.5 22.5t19 16.5t24.5 10.5t34 3.5h178z" />
    <glyph glyph-name="dotaccent" unicode="&#x2d9;" 
d="M559 1329q0 -32 -13 -60.5t-34.5 -49.5t-51 -33.5t-62.5 -12.5q-32 0 -60 12.5t-49 33.5t-33.5 49.5t-12.5 60.5q0 33 12.5 61.5t33.5 50t49 34t60 12.5q33 0 62.5 -12.5t51 -34t34.5 -50t13 -61.5z" />
    <glyph glyph-name="cedilla" unicode="&#xb8;" 
d="M281 -234q14 0 30.5 -7.5t48.5 -7.5q33 0 49.5 12.5t16.5 30.5q0 29 -36 41.5t-111 23.5l60 176h138l-27 -96q94 -22 132 -59.5t38 -89.5q0 -34 -17.5 -61t-50 -46t-77.5 -29t-99 -10q-41 0 -76.5 5.5t-70.5 16.5l23 77q6 23 29 23z" />
    <glyph glyph-name="ogonek" unicode="&#x2db;" 
d="M542 -187q18 0 23 -16l38 -91q-33 -22 -82.5 -36.5t-104.5 -14.5q-98 0 -151 41t-53 106q0 59 42 113.5t120 96.5l128 -12q-20 -11 -39 -25t-34 -31.5t-24 -37.5t-9 -42q0 -30 19 -47.5t53 -17.5q19 0 31 2t19.5 5t13 5t10.5 2z" />
    <glyph glyph-name="pi" unicode="&#x3c0;" horiz-adv-x="1263" 
d="M1207 1022v-116q0 -32 -19.5 -54t-57.5 -22h-127v-63q0 -135 3.5 -232t10.5 -163t18 -105.5t25.5 -60.5t32.5 -27.5t40 -6.5h45v-98q0 -20 -12 -35t-33 -25.5t-48.5 -16t-58.5 -5.5q-133 0 -196 89t-63 261q0 45 4.5 94t10.5 107.5t12.5 128.5t10.5 158h-316
q-4 -172 -15.5 -301.5t-30.5 -222.5t-45 -154t-59 -97t-73 -50t-87 -14q-15 0 -32.5 2.5t-32.5 8.5t-25 15t-10 21v165h21q32 0 61 33.5t52.5 108t39.5 194t22 291.5h-207v104q0 14 6 29.5t18 28.5t29.5 21.5t39.5 8.5h1046z" />
    <glyph glyph-name="exclam" unicode="!" horiz-adv-x="562" 
d="M398 1446v-572q0 -91 -9 -178.5t-23 -185.5h-168q-14 98 -23 185.5t-9 178.5v572h232zM127 136q0 31 11.5 59t32 48t48.5 32t60 12q31 0 59 -12t48.5 -32t32.5 -48t12 -59q0 -32 -12 -59.5t-32.5 -47.5t-48.5 -31.5t-59 -11.5q-32 0 -60 11.5t-48.5 31.5t-32 47.5
t-11.5 59.5z" />
    <glyph glyph-name="question" unicode="?" horiz-adv-x="920" 
d="M71 1315q34 30 74.5 57t87.5 47t102 31.5t119 11.5q87 0 158.5 -24t122.5 -68.5t79 -107.5t28 -141q0 -76 -22 -131.5t-55 -96.5t-72.5 -71t-74.5 -56.5t-60.5 -52t-30.5 -57.5l-23 -146h-169l-17 163q-6 47 13.5 82.5t52 65t72.5 57t75 60t58.5 73t23.5 96.5
q0 36 -13.5 64.5t-37.5 49t-57.5 31.5t-72.5 11q-57 0 -96.5 -12.5t-67 -28t-46.5 -28t-34 -12.5q-36 0 -52 30zM260 136q0 31 11.5 59t31.5 48t48 32t60 12t59.5 -12t48 -32t32.5 -48t12 -59q0 -32 -12 -59.5t-32.5 -47.5t-48 -31.5t-59.5 -11.5t-60 11.5t-48 31.5
t-31.5 47.5t-11.5 59.5z" />
    <glyph glyph-name="comma" unicode="," horiz-adv-x="468" 
d="M86 152q0 28 10.5 52.5t29.5 43t46 29t59 10.5q38 0 66.5 -13.5t47 -37t28 -54t9.5 -64.5q0 -48 -14.5 -101t-42.5 -106t-69.5 -103t-94.5 -92l-43 39q-18 15 -18 37q0 8 5.5 18t13.5 18q11 12 27 29.5t32 40t29.5 49t19.5 56.5q-31 0 -57 11.5t-44.5 31.5t-29 47
t-10.5 59z" />
    <glyph glyph-name="semicolon" unicode=";" horiz-adv-x="541" 
d="M117 0zM124 152q0 28 10.5 52.5t29.5 43t46 29t59 10.5q38 0 66.5 -13.5t47 -37t28 -54t9.5 -64.5q0 -48 -14.5 -101t-42.5 -106t-69.5 -103t-94.5 -92l-43 39q-18 15 -18 37q0 8 5.5 18t13.5 18q11 12 27 29.5t32 40t29.5 49t19.5 56.5q-31 0 -57 11.5t-44.5 31.5
t-29 47t-10.5 59zM117 849q0 31 11.5 59t31.5 48t48 32t60 12t59.5 -12t48 -32t32.5 -48t12 -59q0 -32 -12 -59.5t-32.5 -47.5t-48 -31.5t-59.5 -11.5t-60 11.5t-48 31.5t-31.5 47.5t-11.5 59.5z" />
    <glyph glyph-name="colon" unicode=":" horiz-adv-x="515" 
d="M106 0zM106 136q0 31 11.5 59t31.5 48t48 32t60 12t59.5 -12t48 -32t32.5 -48t12 -59q0 -32 -12 -59.5t-32.5 -47.5t-48 -31.5t-59.5 -11.5t-60 11.5t-48 31.5t-31.5 47.5t-11.5 59.5zM106 849q0 31 11.5 59t31.5 48t48 32t60 12t59.5 -12t48 -32t32.5 -48t12 -59
q0 -32 -12 -59.5t-32.5 -47.5t-48 -31.5t-59.5 -11.5t-60 11.5t-48 31.5t-31.5 47.5t-11.5 59.5z" />
    <glyph glyph-name="period" unicode="." horiz-adv-x="475" 
d="M86 136q0 31 11.5 59t31.5 48t48 32t60 12t59.5 -12t48 -32t32.5 -48t12 -59q0 -32 -12 -59.5t-32.5 -47.5t-48 -31.5t-59.5 -11.5t-60 11.5t-48 31.5t-31.5 47.5t-11.5 59.5z" />
    <glyph glyph-name="ellipsis" unicode="&#x2026;" horiz-adv-x="1543" 
d="M86 0zM86 136q0 31 11.5 59t31.5 48t48 32t60 12t59.5 -12t48 -32t32.5 -48t12 -59q0 -32 -12 -59.5t-32.5 -47.5t-48 -31.5t-59.5 -11.5t-60 11.5t-48 31.5t-31.5 47.5t-11.5 59.5zM1154 136q0 31 11.5 59t31.5 48t48 32t60 12t59.5 -12t48 -32t32.5 -48t12 -59
q0 -32 -12 -59.5t-32.5 -47.5t-48 -31.5t-59.5 -11.5t-60 11.5t-48 31.5t-31.5 47.5t-11.5 59.5zM620 136q0 31 11.5 59t31.5 48t48 32t60 12t59.5 -12t48 -32t32.5 -48t12 -59q0 -32 -12 -59.5t-32.5 -47.5t-48 -31.5t-59.5 -11.5t-60 11.5t-48 31.5t-31.5 47.5t-11.5 59.5
z" />
    <glyph glyph-name="quoteleft" unicode="&#x2018;" horiz-adv-x="441" 
d="M158 929q-48 79 -65 165t-3 169t58.5 159.5t119.5 137.5l77 -47q20 -13 18 -32t-13 -30q-21 -25 -40 -66t-26.5 -92t1.5 -109t45 -116q18 -29 10 -50.5t-33 -30.5z" />
    <glyph glyph-name="quoteright" unicode="&#x2019;" horiz-adv-x="441" 
d="M290 1543q48 -79 65 -164.5t3 -169t-58.5 -160t-119.5 -137.5l-78 47q-10 6 -14 14.5t-3.5 17t4 16.5t9.5 14q21 25 40 66t26.5 92t-2 109t-45.5 116q-17 29 -9.5 50.5t32.5 30.5z" />
    <glyph glyph-name="quotedblleft" unicode="&#x201c;" horiz-adv-x="773" 
d="M76 929zM158 929q-48 79 -65 165t-3 169t58.5 159.5t119.5 137.5l77 -47q20 -13 18 -32t-13 -30q-21 -25 -40 -66t-26.5 -92t1.5 -109t45 -116q18 -29 10 -50.5t-33 -30.5zM490 929q-48 79 -65 165t-3 169t58.5 159.5t119.5 137.5l77 -47q20 -13 18 -32t-13 -30
q-21 -25 -40 -66t-26.5 -92t1.5 -109t45 -116q18 -29 10 -50.5t-33 -30.5z" />
    <glyph glyph-name="quotedblright" unicode="&#x201d;" horiz-adv-x="773" 
d="M84 912zM290 1543q48 -79 65 -164.5t3 -169t-58.5 -160t-119.5 -137.5l-78 47q-10 6 -14 14.5t-3.5 17t4 16.5t9.5 14q21 25 40 66t26.5 92t-2 109t-45.5 116q-17 29 -9.5 50.5t32.5 30.5zM622 1543q48 -79 65 -164.5t3 -169t-58.5 -160t-119.5 -137.5l-78 47
q-10 6 -14 14.5t-3.5 17t4 16.5t9.5 14q21 25 40 66t26.5 92t-2 109t-45.5 116q-17 29 -9.5 50.5t32.5 30.5z" />
    <glyph glyph-name="quotesinglbase" unicode="&#x201a;" horiz-adv-x="436" 
d="M271 302q48 -79 65 -164.5t3 -169t-58.5 -160t-119.5 -137.5l-78 47q-10 6 -14 14.5t-3.5 17t4 16.5t9.5 14q21 25 40 66t26.5 92t-2 109t-45.5 116q-17 29 -9.5 50.5t32.5 30.5z" />
    <glyph glyph-name="quotedblbase" unicode="&#x201e;" horiz-adv-x="768" 
d="M65 0zM271 302q48 -79 65 -164.5t3 -169t-58.5 -160t-119.5 -137.5l-78 47q-10 6 -14 14.5t-3.5 17t4 16.5t9.5 14q21 25 40 66t26.5 92t-2 109t-45.5 116q-17 29 -9.5 50.5t32.5 30.5zM603 302q48 -79 65 -164.5t3 -169t-58.5 -160t-119.5 -137.5l-78 47q-10 6 -14 14.5
t-3.5 17t4 16.5t9.5 14q21 25 40 66t26.5 92t-2 109t-45.5 116q-17 29 -9.5 50.5t32.5 30.5z" />
    <glyph glyph-name="guilsinglleft" unicode="&#x2039;" horiz-adv-x="581" 
d="M90 522v32l256 396l81 -38q32 -14 37 -40.5t-12 -56.5l-138 -235q-14 -26 -32 -42q16 -14 32 -42l138 -236q17 -30 12 -56t-37 -40l-81 -38z" />
    <glyph glyph-name="guilsinglright" unicode="&#x203a;" horiz-adv-x="582" 
d="M492 554v-32l-256 -396l-81 38q-32 14 -37.5 40t11.5 56l139 236q8 13 15.5 23.5t16.5 18.5q-9 8 -16.5 18t-15.5 24l-139 235q-17 30 -11.5 56.5t37.5 40.5l81 38z" />
    <glyph glyph-name="guillemotleft" unicode="&#xab;" horiz-adv-x="911" 
d="M90 126zM90 522v32l256 396l81 -38q32 -14 37 -40.5t-12 -56.5l-138 -235q-14 -26 -32 -42q16 -14 32 -42l138 -236q17 -30 12 -56t-37 -40l-81 -38zM419 522v32l256 396l81 -38q32 -14 37 -40.5t-12 -56.5l-138 -235q-14 -26 -32 -42q16 -14 32 -42l138 -236
q17 -30 12 -56t-37 -40l-81 -38z" />
    <glyph glyph-name="guillemotright" unicode="&#xbb;" horiz-adv-x="911" 
d="M112 126zM492 554v-32l-256 -396l-81 38q-32 14 -37.5 40t11.5 56l139 236q8 13 15.5 23.5t16.5 18.5q-9 8 -16.5 18t-15.5 24l-139 235q-17 30 -11.5 56.5t37.5 40.5l81 38zM821 554v-32l-256 -396l-81 38q-32 14 -37.5 40t11.5 56l139 236q8 13 15.5 23.5t16.5 18.5
q-9 8 -16.5 18t-15.5 24l-139 235q-17 30 -11.5 56.5t37.5 40.5l81 38z" />
    <glyph glyph-name="slash" unicode="/" horiz-adv-x="932" 
d="M294 -3q-17 -46 -54.5 -69t-76.5 -23h-105l584 1494q16 42 49 64.5t77 22.5h106z" />
    <glyph glyph-name="bar" unicode="|" horiz-adv-x="522" 
d="M165 1547h192v-1891h-192v1891z" />
    <glyph glyph-name="backslash" unicode="\" horiz-adv-x="932" 
d="M58 1486h106q44 0 77 -22.5t49 -64.5l584 -1494h-105q-39 0 -76.5 23t-54.5 69z" />
    <glyph glyph-name="hyphen" unicode="-" horiz-adv-x="746" 
d="M114 707h518v-206h-518v206z" />
    <glyph glyph-name="hyphen" unicode="&#x2010;" horiz-adv-x="746" 
d="M114 707h518v-206h-518v206z" />
    <glyph glyph-name="hyphen" unicode="&#xad;" horiz-adv-x="746" 
d="M114 707h518v-206h-518v206z" />
    <glyph glyph-name="endash" unicode="&#x2013;" horiz-adv-x="1160" 
d="M175 687h810v-175h-810v175z" />
    <glyph glyph-name="emdash" unicode="&#x2014;" horiz-adv-x="1596" 
d="M119 687h1357v-175h-1357v175z" />
    <glyph glyph-name="underscore" unicode="_" horiz-adv-x="933" 
d="M860 -134v-160h-788v160h788z" />
    <glyph glyph-name="bullet" unicode="&#x2022;" horiz-adv-x="1160" 
d="M144 593q0 90 34.5 169t93.5 138.5t138 93.5t169 34t170 -34t139 -93.5t93.5 -138.5t34.5 -169q0 -89 -34.5 -167.5t-93.5 -137.5t-139 -93t-170 -34t-169 34t-138 93t-93.5 137.5t-34.5 167.5z" />
    <glyph glyph-name="periodcentered" unicode="&#xb7;" horiz-adv-x="549" 
d="M86 595q0 39 14.5 73.5t40 60t59.5 40t73 14.5q40 0 74.5 -14.5t60 -40t40.5 -60t15 -73.5t-15 -72.5t-40.5 -59t-60 -40t-74.5 -14.5q-39 0 -73 14.5t-59.5 40t-40 59t-14.5 72.5z" />
    <glyph glyph-name="periodcentered" unicode="&#x2219;" horiz-adv-x="549" 
d="M86 595q0 39 14.5 73.5t40 60t59.5 40t73 14.5q40 0 74.5 -14.5t60 -40t40.5 -60t15 -73.5t-15 -72.5t-40.5 -59t-60 -40t-74.5 -14.5q-39 0 -73 14.5t-59.5 40t-40 59t-14.5 72.5z" />
    <glyph glyph-name="parenleft" unicode="(" horiz-adv-x="549" 
d="M287 627q0 -206 50 -405t143 -374q10 -20 11.5 -35.5t-2.5 -27t-12.5 -20t-18.5 -14.5l-110 -67q-74 114 -126 229t-85 232t-48.5 237t-15.5 245t15.5 245.5t48.5 237.5t85 231.5t126 228.5l110 -66q10 -6 18.5 -14.5t12.5 -20t2.5 -27t-11.5 -36.5q-93 -174 -143 -373.5
t-50 -405.5z" />
    <glyph glyph-name="parenright" unicode=")" horiz-adv-x="549" 
d="M261 627q0 206 -49.5 405.5t-142.5 373.5q-11 21 -12.5 36.5t2.5 27t12.5 20t19.5 14.5l110 66q74 -114 126 -228.5t85 -231.5t48 -237.5t15 -245.5t-15 -245t-48 -237t-85 -232t-126 -229l-110 67q-11 6 -19.5 14.5t-12.5 20t-2.5 27t12.5 35.5q93 175 142.5 374
t49.5 405z" />
    <glyph glyph-name="bracketleft" unicode="[" horiz-adv-x="627" 
d="M165 -308v1855h410v-97q0 -26 -18 -44.5t-47 -18.5h-139v-1535h139q29 0 47 -18.5t18 -44.5v-97h-410z" />
    <glyph glyph-name="bracketright" unicode="]" horiz-adv-x="627" 
d="M52 -308v97q0 26 18 44.5t47 18.5h139v1535h-139q-29 0 -47 18.5t-18 44.5v97h410v-1855h-410z" />
    <glyph glyph-name="braceleft" unicode="{" horiz-adv-x="612" 
d="M177 410q0 61 -28.5 99.5t-91.5 38.5v143q63 0 91.5 38.5t28.5 99.5q0 47 -6.5 93.5t-15 93.5t-15 94.5t-6.5 96.5q0 76 22 138.5t67.5 107.5t115 69.5t163.5 24.5h53v-110q0 -13 -5.5 -22.5t-14 -15.5t-17.5 -9t-16 -3h-9q-70 0 -107 -44t-37 -121q0 -55 6 -105.5
t12.5 -98t12.5 -93.5t6 -93q0 -38 -10.5 -72t-31 -61.5t-49 -48.5t-64.5 -31q36 -11 64.5 -31.5t49 -48.5t31 -62t10.5 -71q0 -47 -6 -93t-12.5 -93.5t-12.5 -98t-6 -105.5q0 -76 37 -120t107 -44h9q7 0 16 -3t17.5 -9t14 -16t5.5 -23v-109h-53q-94 0 -163.5 24.5t-115 69
t-67.5 107t-22 138.5q0 49 6.5 96.5t15 94.5t15 94t6.5 94z" />
    <glyph glyph-name="braceright" unicode="}" horiz-adv-x="612" 
d="M435 410q0 -47 6.5 -94t15 -94t15 -94.5t6.5 -96.5q0 -76 -22 -138.5t-67.5 -107t-115 -69t-163.5 -24.5h-53v109q0 13 5.5 23t14 16t17.5 9t16 3h9q70 0 106.5 44t36.5 120q0 55 -5.5 105.5t-12.5 98t-12.5 93.5t-5.5 93q0 37 10.5 71t30.5 62t49 48.5t65 31.5
q-36 10 -65 31t-49 48.5t-30.5 61.5t-10.5 72q0 47 5.5 93t12.5 93.5t12.5 98t5.5 105.5q0 77 -36.5 121t-106.5 44h-9q-7 0 -16 3t-17.5 9t-14 15.5t-5.5 22.5v110h53q94 0 163.5 -24.5t115 -69.5t67.5 -107.5t22 -138.5q0 -49 -6.5 -96.5t-15 -94.5t-15 -93.5t-6.5 -93.5
q0 -61 28.5 -99.5t91.5 -38.5v-143q-63 0 -91.5 -38.5t-28.5 -99.5z" />
    <glyph glyph-name="asterisk" unicode="*" horiz-adv-x="850" 
d="M366 837v183q0 20 2.5 39t8.5 36q-11 -14 -26 -25t-32 -22l-158 -92l-59 100l159 92q18 11 35.5 18t36.5 10q-37 4 -72 29l-159 93l58 100l159 -94q17 -11 32.5 -22.5t26.5 -25.5q-7 17 -9.5 36t-2.5 39v185h118v-183q0 -21 -2.5 -40.5t-9.5 -36.5q11 14 26 25.5t33 22.5
l158 92l59 -100l-159 -91q-18 -11 -35.5 -18.5t-36.5 -10.5q34 -6 72 -28l159 -93l-58 -100l-159 93q-18 11 -33 22t-27 25q13 -32 13 -74v-184h-118z" />
    <glyph glyph-name="dagger" unicode="&#x2020;" horiz-adv-x="1160" 
d="M81 913q0 21 7 40t21 34t36 24t52 9q63 -1 137 -17t149 -27l-31 489q26 16 59 24t69 8t69 -8t59 -24l-32 -489q37 5 74.5 12.5t74.5 14.5t71.5 12t66.5 5q30 0 52 -9t36 -24t21 -34t7 -40v-82h-403v-354l32 -800q-26 -16 -59 -24t-69 -8t-69 8t-59 24l32 800v354h-403v82
z" />
    <glyph glyph-name="daggerdbl" unicode="&#x2021;" horiz-adv-x="1160" 
d="M81 913q0 21 7 40t21 34t36 24t52 9q63 -1 137 -17t149 -27l-31 489q26 16 59 24t69 8t69 -8t59 -24l-32 -489q37 5 74.5 12.5t74.5 14.5t71.5 12t66.5 5q30 0 52 -9t36 -24t21 -34t7 -40v-82h-403v-520h403v-82q0 -21 -7 -40t-21 -34t-36 -24t-52 -9q-32 0 -66.5 5
t-71.5 11.5t-74.5 14t-74.5 12.5l32 -488q-26 -16 -59 -24t-69 -8t-69 8t-59 24l31 488q-75 -11 -149 -26.5t-137 -16.5q-30 0 -52 9t-36 24t-21 34t-7 40v82h403v520h-403v82z" />
    <glyph glyph-name="section" unicode="&#xa7;" horiz-adv-x="1007" 
d="M820 1245q-17 -30 -49 -30q-18 0 -38.5 10t-47.5 22.5t-61.5 22.5t-81.5 10q-42 0 -74 -9.5t-53.5 -26t-33 -38.5t-11.5 -47q0 -32 23.5 -56t62.5 -45.5t88.5 -41.5t101.5 -42.5t101.5 -49.5t88.5 -62t62.5 -81t23.5 -106q0 -81 -37.5 -146.5t-120.5 -105.5
q45 -37 73.5 -86t28.5 -117q0 -74 -26.5 -136.5t-78.5 -108t-128.5 -71t-176.5 -25.5q-53 0 -103.5 9.5t-97 26.5t-86 40t-69.5 50l58 94q10 17 25 26t38 9t43.5 -13t48.5 -28t67 -28t98 -13q82 0 127.5 34t45.5 94q0 40 -24 69t-64 51.5t-90.5 41t-103 39.5t-103 46.5
t-90.5 60.5t-64 83t-24 114q0 79 41.5 141.5t126.5 99.5q-46 39 -75 92.5t-29 129.5q0 63 24.5 119.5t73.5 99.5t121 68.5t167 25.5q106 0 193.5 -35t144.5 -92zM307 725q0 -42 29 -72.5t75.5 -55t104.5 -47t115 -48.5q40 20 58 50.5t18 66.5q0 44 -28 74.5t-73 55.5
t-101.5 47t-112.5 48q-45 -24 -65 -52.5t-20 -66.5z" />
    <glyph glyph-name="paragraph" unicode="&#xb6;" horiz-adv-x="1474" 
d="M1402 1446v-207h-214v-1448h-216v1448h-235v-1448h-216v839q-104 0 -188 32.5t-143.5 88t-92 129.5t-32.5 157q0 91 32.5 166t92 129t143.5 84t188 30h881z" />
    <glyph glyph-name="asciicircum" unicode="^" horiz-adv-x="1160" 
d="M1061 681h-181q-23 0 -38 12t-24 30l-190 384q-16 32 -28 60.5t-21 57.5q-9 -29 -20 -57.5t-25 -60.5l-180 -384q-8 -18 -24 -30t-41 -12h-190l397 765h160z" />
    <glyph glyph-name="asciitilde" unicode="~" horiz-adv-x="1160" 
d="M748 648q56 0 87 36t31 101h199q0 -77 -20.5 -139.5t-59 -107t-94.5 -68.5t-128 -24q-53 0 -101.5 14t-92 30.5t-81.5 30.5t-70 14q-56 0 -87 -36t-31 -101h-199q0 77 20.5 139.5t59 107t94.5 68.5t128 24q53 0 101.5 -14t92 -30.5t81.5 -30.5t70 -14z" />
    <glyph glyph-name="quotesingle" unicode="'" horiz-adv-x="423" 
d="M319 1446v-288l-22 -156q-8 -44 -26 -67.5t-60 -23.5q-37 0 -57 23.5t-28 67.5l-22 156v288h215z" />
    <glyph glyph-name="quotedbl" unicode="&#x22;" horiz-adv-x="791" 
d="M104 911zM319 1446v-288l-22 -156q-8 -44 -26 -67.5t-60 -23.5q-37 0 -57 23.5t-28 67.5l-22 156v288h215zM687 1446v-288l-22 -156q-8 -44 -26 -67.5t-60 -23.5q-37 0 -57 23.5t-28 67.5l-22 156v288h215z" />
    <glyph glyph-name="ampersand" unicode="&#x26;" horiz-adv-x="1447" 
d="M672 1462q88 0 157.5 -27t119 -72t78 -103t33.5 -120l-157 -33q-44 -9 -64 38q-9 26 -23.5 49.5t-34.5 41t-47 28t-62 10.5q-42 0 -75 -14.5t-55.5 -39t-34.5 -57t-12 -68.5q0 -30 6 -58t20 -56t36.5 -57.5t55.5 -63.5l384 -399q33 63 53 133t26 142q3 23 16 37t36 14
h154q-1 -132 -38 -252t-106 -221l303 -314h-242q-38 0 -61.5 9t-49.5 38l-100 103q-95 -78 -213 -122t-255 -44q-83 0 -163.5 28.5t-143.5 82.5t-101.5 130.5t-38.5 172.5q0 68 22 128.5t61 112t93 93.5t118 72q-54 75 -78 146.5t-24 142.5q0 75 27.5 142.5t79.5 117.5
t128 79.5t172 29.5zM564 181q88 0 161 27.5t132 76.5l-379 391q-80 -52 -116.5 -117.5t-36.5 -140.5q0 -55 19 -99t51.5 -74.5t76 -47t92.5 -16.5z" />
    <glyph glyph-name="at" unicode="@" horiz-adv-x="1687" 
d="M1190 184q-69 0 -122 32t-74 103q-59 -72 -125 -103t-142 -31q-63 0 -109.5 22t-78 60.5t-47 91t-15.5 114.5q0 57 14.5 115.5t43.5 113t72.5 102t102 83t132 56t161.5 20.5q78 0 133 -12t106 -34l-96 -371q-16 -64 -15.5 -104.5t12.5 -64t34 -32.5t50 -9q42 0 79.5 26.5
t65.5 74.5t44.5 114t16.5 144q0 130 -40.5 229t-113.5 165.5t-173.5 100t-220.5 33.5q-132 0 -244 -49.5t-194.5 -135.5t-129 -203t-46.5 -252q0 -164 51 -288.5t140 -208t209.5 -125.5t260.5 -42q77 0 144 8.5t123 23t102 33t82 39.5q26 15 46 9t29 -30l34 -89
q-104 -68 -243 -111t-317 -43q-181 0 -335 57t-266.5 163.5t-176 259.5t-63.5 344q0 107 27.5 208t78.5 189.5t123 162.5t160 127t190.5 82.5t214.5 29.5q142 0 272.5 -47.5t231 -136t160.5 -216t60 -287.5q0 -107 -31.5 -200.5t-88 -162.5t-133 -108.5t-166.5 -39.5z
M776 344q26 0 52.5 8t50.5 28.5t44 54.5t33 85l73 282q-32 6 -66 6q-62 0 -116 -27t-93.5 -73t-62.5 -105.5t-23 -123.5t27.5 -99.5t80.5 -35.5z" />
    <glyph glyph-name="copyright" unicode="&#xa9;" horiz-adv-x="1648" 
d="M1050 512q20 0 35 -17l82 -87q-56 -71 -141.5 -108.5t-200.5 -37.5q-100 0 -181 35.5t-138 98t-88 147t-31 183.5q0 102 35 187t97 146.5t145.5 95.5t181.5 34q111 0 191 -37.5t134 -95.5l-65 -89q-6 -8 -16.5 -16t-26.5 -8q-17 0 -32 10t-36.5 22t-53.5 22t-83 10
q-60 0 -106.5 -19.5t-79 -56t-49.5 -88.5t-17 -117q0 -68 17.5 -120t48 -87.5t73 -54t93.5 -18.5q49 0 80.5 8t53 19t39 22t39.5 17zM86 723q0 102 26.5 196.5t74.5 176.5t115.5 149.5t149 115.5t175.5 74.5t196 26.5t196.5 -26.5t176.5 -74.5t149.5 -115.5t115.5 -149.5
t74.5 -176.5t26.5 -196.5q0 -101 -26.5 -195.5t-74.5 -176t-115.5 -149t-149.5 -115.5t-176.5 -74.5t-196.5 -26.5t-196 26.5t-175.5 74.5t-149 115.5t-115.5 149t-74.5 175.5t-26.5 196zM221 723q0 -130 46.5 -243t127.5 -196.5t191 -131.5t237 -48q85 0 163 22t145.5 62
t123 96t94.5 125t60.5 148t21.5 166t-21.5 167t-60.5 149.5t-94.5 126t-123 97t-145.5 62.5t-163 22t-162 -22t-144 -62.5t-121.5 -97t-93.5 -126t-60 -149.5t-21 -167z" />
    <glyph glyph-name="registered" unicode="&#xae;" horiz-adv-x="1648" 
d="M86 723q0 102 26.5 196.5t74.5 176.5t115.5 149.5t149 115.5t175.5 74.5t196 26.5t196.5 -26.5t176.5 -74.5t149.5 -115.5t115.5 -149.5t74.5 -176.5t26.5 -196.5q0 -101 -26.5 -195.5t-74.5 -176t-115.5 -149t-149.5 -115.5t-176.5 -74.5t-196.5 -26.5t-196 26.5
t-175.5 74.5t-149 115.5t-115.5 149t-74.5 175.5t-26.5 196zM221 723q0 -130 46.5 -243t127.5 -196.5t191 -131.5t237 -48q85 0 163 22t145.5 62t123 96t94.5 125t60.5 148t21.5 166t-21.5 167t-60.5 149.5t-94.5 126t-123 97t-145.5 62.5t-163 22t-162 -22t-144 -62.5
t-121.5 -97t-93.5 -126t-60 -149.5t-21 -167zM712 602v-325h-215v897h322q187 0 274 -67t87 -192q0 -89 -46 -155.5t-143 -97.5q22 -13 37.5 -32.5t29.5 -45.5l181 -307h-205q-45 0 -63 33l-144 263q-10 14 -22.5 21.5t-37.5 7.5h-55zM712 755h88q52 0 84.5 8.5t51 25.5
t25.5 42t7 57q0 31 -6 54.5t-22.5 39t-45.5 23t-75 7.5h-107v-257z" />
    <glyph glyph-name="trademark" unicode="&#x2122;" horiz-adv-x="1513" 
d="M985 1165q8 -18 14.5 -35.5t12.5 -35.5q5 18 12 36t16 35l133 255q14 17 24 21.5t31 4.5h147v-603h-150v302l11 96l-152 -299q-19 -37 -59 -37h-24q-41 0 -58 37l-152 300l11 -97v-302h-150v603h147q22 0 32 -4.5t24 -21.5zM580 1446v-140h-164v-463h-171v463h-163v140
h498z" />
    <glyph glyph-name="degree" unicode="&#xb0;" horiz-adv-x="831" 
d="M69 1123q0 71 26.5 133.5t73 108.5t110 72.5t136.5 26.5t136.5 -26.5t110 -72.5t73.5 -108.5t27 -133.5q0 -69 -27 -131t-73.5 -108.5t-110 -73.5t-136.5 -27t-136.5 27t-110 73.5t-73 108.5t-26.5 131zM241 1121q0 -37 13 -69t36.5 -55.5t55 -37t69.5 -13.5
q37 0 68.5 13.5t55 37t36.5 55.5t13 69q0 38 -13 70.5t-36.5 56.5t-55 38t-68.5 14q-38 0 -69.5 -14t-55 -38t-36.5 -56.5t-13 -70.5z" />
    <glyph glyph-name="Euro" unicode="&#x20ac;" horiz-adv-x="1160" 
d="M26 928h133q23 122 73 220.5t122 167.5t163 106.5t198 37.5q139 0 238 -53.5t166 -144.5l-87 -94q-10 -11 -21 -19.5t-31 -8.5q-14 0 -25.5 8t-25.5 20t-31 26t-40.5 26t-55.5 20t-76 8q-118 0 -199 -81t-113 -239h502v-76q0 -23 -18.5 -42.5t-50.5 -19.5h-450
q-1 -17 -1 -33.5v-33.5v-24t1 -23h424v-75q0 -23 -19 -42.5t-50 -19.5h-343q28 -172 107.5 -256.5t197.5 -84.5q72 0 115.5 19.5t71 43.5t46 43.5t40.5 19.5q11 0 19 -3.5t17 -13.5l107 -98q-70 -108 -178 -165.5t-251 -57.5q-118 0 -211.5 39.5t-162.5 111.5t-112.5 174
t-61.5 228h-127v137h116q-1 11 -1 23v24v33.5t1 33.5h-116v138z" />
    <glyph glyph-name="dollar" unicode="$" horiz-adv-x="1160" 
d="M462 -9q-117 16 -220 64t-175 119l76 113q10 15 26.5 24.5t35.5 9.5q22 0 47 -15.5t57 -36.5t73 -42t97 -31l37 447q-71 21 -140.5 47.5t-125 71t-89.5 112.5t-34 171q0 76 30 148.5t88.5 129.5t143.5 94t195 42l11 126q2 24 20 43t47 19h91l-17 -196q107 -17 184 -60.5
t133 -97.5l-60 -91q-13 -20 -27 -30t-34 -10q-15 0 -36 9.5t-47 23t-58.5 27.5t-71.5 23l-35 -414q72 -22 143 -48.5t127.5 -68.5t91.5 -104.5t35 -156.5q0 -93 -31 -174.5t-91 -144t-147 -102t-199 -46.5l-12 -147q-1 -23 -19.5 -42.5t-46.5 -19.5h-91zM846 415
q0 38 -13.5 66.5t-38 50.5t-57.5 38t-72 29l-34 -406q106 14 160.5 71.5t54.5 150.5zM360 1069q0 -38 13 -67t36.5 -51.5t56 -40t70.5 -31.5l31 370q-56 -7 -95 -23.5t-64 -40.5t-36.5 -53.5t-11.5 -62.5z" />
    <glyph glyph-name="cent" unicode="&#xa2;" horiz-adv-x="1160" 
d="M535 -8q-89 13 -165.5 54t-132.5 107t-87.5 156.5t-31.5 203.5q0 109 33.5 203.5t98 164.5t158.5 112t216 47l14 157q3 23 20.5 42.5t46.5 19.5h91l-20 -229q79 -14 143 -47.5t118 -83.5l-63 -87q-10 -14 -20.5 -21t-29.5 -7q-14 0 -29.5 6.5t-34.5 16.5t-43.5 20
t-56.5 18l-58 -673q53 5 88.5 19.5t61 29.5t44.5 27t40 12q29 0 45 -21l68 -88q-71 -81 -165.5 -118.5t-197.5 -44.5l-12 -147q-2 -24 -20 -43.5t-46 -19.5h-91zM362 513q0 -134 49 -216.5t140 -111.5l57 667q-125 -16 -185.5 -104t-60.5 -235z" />
    <glyph glyph-name="sterling" unicode="&#xa3;" horiz-adv-x="1160" 
d="M37 679q0 34 20.5 58.5t62.5 24.5h107v236q0 94 28.5 178.5t85.5 148t143 100.5t202 37q79 0 142.5 -20.5t113 -55.5t86 -82.5t63.5 -102.5l-99 -63q-35 -18 -66.5 -16t-57.5 32q-19 22 -37.5 40.5t-39.5 32t-46.5 20.5t-58.5 7q-103 0 -154 -67.5t-51 -187.5v-237h409
v-98q0 -24 -20 -44t-50 -20h-339v-194q0 -66 -24.5 -117.5t-66.5 -95.5q36 8 72 12.5t74 4.5h586v-104q0 -18 -7.5 -37t-21.5 -34.5t-34 -25t-44 -9.5h-958v155q33 8 64 22.5t54.5 37t37.5 53t14 71.5v261h-190v79z" />
    <glyph glyph-name="yen" unicode="&#xa5;" horiz-adv-x="1160" 
d="M137 633h275l-398 813h206q35 0 57.5 -16t33.5 -44l218 -488q18 -45 31 -83t22 -75q8 38 20 75.5t30 82.5l217 488q11 23 33 41.5t56 18.5h208l-399 -813h276v-138h-319v-95h319v-137h-319v-263h-248v263h-319v137h319v95h-319v138z" />
    <glyph glyph-name="numbersign" unicode="#" horiz-adv-x="1160" 
d="M827 408l-76 -408h-114q-17 0 -32 8t-25 22t-14.5 32.5t0.5 39.5l58 306h-205l-58 -318q-8 -48 -40 -69t-71 -21h-110l76 408h-115q-38 0 -54 22.5t-8 76.5l13 79h189l52 276h-214l19 103q8 38 32 56.5t77 18.5h111l62 322q8 40 37 62t68 22h113l-77 -406h205l77 406h110
q38 0 61 -24.5t17 -61.5l-62 -320h202l-18 -103q-8 -38 -32 -56.5t-77 -18.5h-100l-52 -276h142q38 0 54.5 -22.5t8.5 -77.5l-13 -78h-217zM444 586h205l52 276h-205z" />
    <glyph glyph-name="zero" unicode="0" horiz-adv-x="1160" 
d="M1110 723q0 -189 -40.5 -328.5t-112 -230.5t-169 -135.5t-210.5 -44.5t-209.5 44.5t-167.5 135.5t-111 230.5t-40 328.5q0 190 40 329t111 230t167.5 135.5t209.5 44.5t210.5 -44.5t169 -135.5t112 -230t40.5 -329zM855 723q0 157 -23 260t-61.5 164t-88.5 85.5
t-104 24.5q-53 0 -102.5 -24.5t-87.5 -85.5t-60.5 -164t-22.5 -260t22.5 -260t60.5 -164t87.5 -85.5t102.5 -24.5q54 0 104 24.5t88.5 85.5t61.5 164t23 260z" />
    <glyph glyph-name="one" unicode="1" horiz-adv-x="1160" 
d="M235 185h293v843q0 49 3 103l-208 -174q-18 -14 -35.5 -17.5t-33 -0.5t-27.5 10.5t-18 16.5l-78 107l441 375h203v-1263h260v-185h-800v185z" />
    <glyph glyph-name="two" unicode="2" horiz-adv-x="1160" 
d="M594 1462q100 0 183 -29.5t142 -83.5t92 -130t33 -169q0 -80 -23.5 -148t-63 -130t-92.5 -120t-111 -118l-327 -333q48 14 94.5 21.5t88.5 7.5h371q40 0 63.5 -22.5t23.5 -59.5v-148h-992v82q0 25 10.5 52.5t33.5 49.5l439 440q55 56 98.5 107t72.5 101t44.5 101.5
t15.5 108.5q0 52 -15 91.5t-42.5 66.5t-66 40.5t-86.5 13.5q-44 0 -81.5 -12.5t-66.5 -35t-49 -52.5t-30 -66q-17 -46 -44 -61t-78 -7l-130 23q15 104 58 182.5t107.5 131t148 79t179.5 26.5z" />
    <glyph glyph-name="three" unicode="3" horiz-adv-x="1160" 
d="M601 1462q100 0 180.5 -28.5t137.5 -79t87.5 -118.5t30.5 -147q0 -69 -15.5 -121.5t-45 -91.5t-72 -66t-96.5 -45q130 -41 194 -125t64 -211q0 -108 -40 -191t-108 -139.5t-157.5 -85.5t-189.5 -29q-109 0 -190 25t-141 74t-102 120t-72 164l109 45q43 18 80.5 9.5
t54.5 -40.5q18 -35 39.5 -69t51.5 -60.5t70.5 -43t96.5 -16.5q63 0 110 20.5t78.5 53.5t47 73.5t15.5 81.5q0 52 -11 94.5t-46 72.5t-100.5 47t-175.5 17v176q91 1 151 17t95.5 44.5t49.5 68.5t14 88q0 102 -57 155t-152 53q-44 0 -81 -12.5t-66.5 -35t-49.5 -52.5t-30 -66
q-17 -46 -44.5 -61t-77.5 -7l-130 23q15 104 58 182.5t107.5 131t148 79t179.5 26.5z" />
    <glyph glyph-name="four" unicode="4" horiz-adv-x="1160" 
d="M927 545h182v-143q0 -20 -13 -34.5t-37 -14.5h-132v-353h-215v353h-610q-25 0 -44 15.5t-24 38.5l-26 125l685 915h234v-902zM712 1018q0 67 9 147l-449 -620h440v473z" />
    <glyph glyph-name="five" unicode="5" horiz-adv-x="1160" 
d="M999 1341q0 -53 -33 -86t-112 -33h-397l-52 -302q98 20 178 20q114 0 201 -34t146 -94t89 -140.5t30 -173.5q0 -115 -40.5 -210t-112.5 -162.5t-170.5 -104.5t-214.5 -37q-68 0 -129 14t-114.5 37.5t-99 54t-81.5 64.5l76 105q24 34 63 34q25 0 51 -16t59.5 -35t79 -35
t109.5 -16q68 0 120 22t86.5 61.5t52 94t17.5 118.5q0 118 -68.5 184.5t-202.5 66.5q-103 0 -211 -38l-154 44l120 702h714v-105z" />
    <glyph glyph-name="seven" unicode="7" horiz-adv-x="1160" 
d="M1092 1446v-107q0 -48 -10 -77.5t-20 -49.5l-548 -1128q-17 -35 -48 -59.5t-83 -24.5h-179l559 1105q18 34 36.5 62.5t41.5 54.5h-691q-23 0 -40 17t-17 40v167h999z" />
    <glyph glyph-name="nine" unicode="9" horiz-adv-x="1160" 
d="M658 561q17 21 32 41t29 40q-50 -32 -110 -48.5t-126 -16.5q-75 0 -147 26t-128 78.5t-90.5 130t-34.5 181.5q0 97 36 182t101 149t156 101t201 37q111 0 199.5 -35t151 -98t96 -151t33.5 -193q0 -67 -11.5 -127t-32.5 -115.5t-51 -108.5t-67 -105l-331 -472
q-17 -24 -51 -40.5t-77 -16.5h-227zM821 1010q0 59 -18 105.5t-51 78.5t-78.5 49t-99.5 17q-56 0 -101 -18.5t-77 -51.5t-49 -78.5t-17 -99.5q0 -121 62.5 -184.5t177.5 -63.5q60 0 107 19t79 52t48.5 78t16.5 97z" />
    <glyph glyph-name="fraction" unicode="&#x2044;" horiz-adv-x="280" 
d="M-166 71q-26 -41 -55.5 -56t-68.5 -15h-105l834 1365q24 38 54.5 59.5t74.5 21.5h106z" />
    <glyph glyph-name="plus" unicode="+" horiz-adv-x="1160" 
d="M680 1173v-410h388v-183h-388v-412h-201v412h-386v183h386v410h201z" />
    <glyph glyph-name="divide" unicode="&#xf7;" horiz-adv-x="1160" 
d="M92 763h975v-183h-975v183zM427 1027q0 31 11.5 59t32 48t48.5 32t60 12q31 0 59 -12t48.5 -32t32.5 -48t12 -59q0 -32 -12 -59.5t-32.5 -47.5t-48.5 -31.5t-59 -11.5q-32 0 -60 11.5t-48.5 31.5t-32 47.5t-11.5 59.5zM427 315q0 31 11.5 59t32 48t48.5 32t60 12
q31 0 59 -12t48.5 -32t32.5 -48t12 -59q0 -32 -12 -59.5t-32.5 -47.5t-48.5 -31.5t-59 -11.5q-32 0 -60 11.5t-48.5 31.5t-32 47.5t-11.5 59.5z" />
    <glyph glyph-name="equal" unicode="=" horiz-adv-x="1160" 
d="M137 588h886v-184h-886v184zM137 940h886v-183h-886v183z" />
    <glyph glyph-name="notequal" unicode="&#x2260;" horiz-adv-x="1160" 
d="M137 940h502l111 221h176l-111 -221h208v-183h-299l-85 -169h384v-184h-476l-117 -235h-176l117 235h-234v184h326l85 169h-411v183z" />
    <glyph glyph-name="approxequal" unicode="&#x2248;" horiz-adv-x="1160" 
d="M790 896q31 0 61 7t54 17.5t41.5 22t25.5 20.5l29 -157q-19 -25 -44.5 -43.5t-55 -30.5t-62 -17.5t-64.5 -5.5q-53 0 -105.5 15.5t-103.5 34.5t-99 34.5t-91 15.5q-32 0 -62 -7.5t-55 -18t-42.5 -23t-24.5 -21.5l-36 150q19 28 45 48t57 33t65 19t69 6q53 0 106 -15.5
t103.5 -34t98 -34t90.5 -15.5zM790 540q31 0 61 7t54 17.5t41.5 22t25.5 20.5l29 -157q-19 -25 -44.5 -43.5t-55 -30.5t-62 -17.5t-64.5 -5.5q-53 0 -105.5 15.5t-103.5 34.5t-99 34.5t-91 15.5q-32 0 -62 -7.5t-55 -18t-42.5 -23t-24.5 -21.5l-36 150q19 28 45 48t57 33
t65 19t69 6q53 0 106 -15.5t103.5 -34t98 -34t90.5 -15.5z" />
    <glyph glyph-name="less" unicode="&#x3c;" horiz-adv-x="1160" 
d="M151 724l793 413v-176q0 -20 -10 -36.5t-33 -28.5l-363 -186q-23 -12 -48.5 -20.5t-54.5 -15.5q56 -13 103 -36l363 -187q23 -11 33 -28t10 -37v-176l-793 414v100z" />
    <glyph glyph-name="greater" unicode="&#x3e;" horiz-adv-x="1160" 
d="M1009 624l-793 -414v176q0 20 10 37t33 28l363 187q44 22 103 36q-29 7 -54.5 15.5t-48.5 20.5l-363 186q-23 12 -33 28.5t-10 36.5v176l793 -413v-100z" />
    <glyph glyph-name="plusminus" unicode="&#xb1;" horiz-adv-x="1160" 
d="M679 1241v-354h389v-184h-389v-341h-200v341h-387v184h387v354h200zM92 263h976v-183h-976v183z" />
    <glyph glyph-name="lessequal" unicode="&#x2264;" horiz-adv-x="1160" 
d="M173 839l793 379v-168q0 -20 -11 -38t-43 -31l-353 -158q-50 -19 -113 -33q31 -7 59 -15t54 -19l352 -161q32 -13 43.5 -31t11.5 -38v-168l-793 382v99zM173 263h793v-183h-793v183z" />
    <glyph glyph-name="greaterequal" unicode="&#x2265;" horiz-adv-x="1160" 
d="M987 839v-99l-793 -382v168q0 20 11.5 38t43.5 31l352 161q25 11 53 19t60 15q-63 14 -113 33l-353 158q-32 13 -43 31t-11 38v168zM987 80h-793v183h793v-183z" />
    <glyph glyph-name="logicalnot" unicode="&#xac;" horiz-adv-x="1160" 
d="M132 763h887v-466h-210v283h-677v183z" />
    <glyph glyph-name="infinity" unicode="&#x221e;" horiz-adv-x="1464" 
d="M1044 232q-55 0 -100.5 15t-83.5 40.5t-69.5 59.5t-58.5 72q-27 -38 -59 -72t-70 -59.5t-83 -40.5t-100 -15q-66 0 -126 26.5t-105.5 74t-72 113.5t-26.5 146q0 79 26.5 145t72 113.5t105.5 74t126 26.5q55 0 100 -15t83 -40.5t70 -59.5t59 -72q27 38 58.5 72t69.5 59.5
t83.5 40.5t100.5 15q66 0 126 -26.5t105 -74t71.5 -113.5t26.5 -145q0 -80 -26.5 -146t-71.5 -113.5t-105 -74t-126 -26.5zM430 431q30 0 56.5 12.5t49.5 34t44.5 51t42.5 62.5q-21 34 -42.5 63t-44.5 51t-49.5 34.5t-56.5 12.5q-29 0 -55.5 -9t-46.5 -28.5t-32 -50
t-12 -72.5q0 -43 12 -73.5t32 -50t46.5 -28.5t55.5 -9zM1035 431q29 0 55 9t46 28.5t31.5 50t11.5 73.5q0 42 -12 72.5t-31.5 50t-46 28.5t-54.5 9q-31 0 -57 -12.5t-49.5 -34.5t-45 -51t-42.5 -63q21 -33 42.5 -62.5t45 -51t49.5 -34t57 -12.5z" />
    <glyph glyph-name="partialdiff" unicode="&#x2202;" horiz-adv-x="1167" 
d="M307 1335q40 30 80.5 53.5t84 39t92.5 24t108 8.5q93 0 171.5 -38t134.5 -109.5t87.5 -174t31.5 -232.5q0 -207 -37.5 -377t-113.5 -291t-190.5 -187t-268.5 -66q-91 0 -167.5 30t-132.5 85.5t-87.5 134.5t-31.5 177q0 117 40 217.5t109.5 174.5t165 116t206.5 42
q98 0 167.5 -35t116.5 -99q1 20 1 39.5v37.5q0 90 -17 157.5t-47.5 112.5t-74 67.5t-97.5 22.5q-38 0 -71.5 -10t-62 -22t-51 -22t-38.5 -10q-14 0 -27 8t-27 32zM516 177q54 0 103.5 22t91.5 70t74.5 124t51.5 184q-10 38 -27 73t-43.5 62t-63.5 43t-88 16
q-74 0 -128.5 -26.5t-91 -74t-54.5 -112.5t-18 -143q0 -114 51.5 -176t141.5 -62z" />
    <glyph glyph-name="integral" unicode="&#x222b;" horiz-adv-x="1002" 
d="M448 1236q13 103 47.5 178.5t86 124t119.5 72t148 23.5q36 0 77.5 -7.5t76.5 -25.5l-13 -104q-2 -13 -6 -22.5t-13 -15.5t-24 -8.5t-40 -2.5q-58 0 -97.5 -11.5t-65.5 -36.5t-40 -63.5t-20 -93.5l-129 -1186q-13 -104 -47 -179.5t-86 -124t-119.5 -72t-148.5 -23.5
q-36 0 -77.5 7.5t-76.5 26.5l13 103q2 13 6 22.5t13 15.5t24.5 9t40.5 3q58 0 97.5 11.5t65.5 36t40 63t20 93.5z" />
    <glyph glyph-name="radical" unicode="&#x221a;" horiz-adv-x="1242" 
d="M246 642h-121q-38 0 -65.5 22.5t-27.5 76.5v79h352q28 0 46.5 -13t24.5 -33l102 -311q14 -42 22.5 -84t13.5 -85q6 33 13 67.5t18 70.5l386 1228q7 20 25 33t43 13h163l-550 -1706h-208z" />
    <glyph glyph-name="product" unicode="&#x220f;" horiz-adv-x="1410" 
d="M1340 1446v-207h-167v-1574h-255v1574h-426v-1574h-254v1574h-168v207h1270z" />
    <glyph glyph-name="summation" unicode="&#x2211;" horiz-adv-x="1366" 
d="M71 1446h1208v-207h-826l514 -648v-71l-514 -648h826v-207h-1208v86q0 18 6 37.5t20 36.5l595 733l-595 728q-14 17 -20 36.5t-6 37.5v86z" />
    <glyph glyph-name="lozenge" unicode="&#x25ca;" horiz-adv-x="1160" 
d="M82 720l412 811h172l412 -811l-412 -811h-172zM323 720l201 -425q20 -43 33.5 -85t22.5 -84q10 42 24 83.5t34 83.5l203 427l-209 436q-35 72 -52 153q-8 -39 -20.5 -77t-29.5 -74z" />
    <glyph glyph-name="florin" unicode="&#x192;" horiz-adv-x="701" 
d="M176 840l-89 14q-29 6 -46.5 20.5t-17.5 41.5v101h153v76q0 88 26.5 158t76 119t120.5 75t160 26q71 0 132 -19l-6 -124q-2 -29 -26.5 -36t-57.5 -7q-44 0 -78.5 -9.5t-58.5 -33t-36.5 -62t-12.5 -95.5v-68h266v-176h-258v-840q0 -87 -21.5 -159.5t-67 -125t-116.5 -82
t-169 -29.5q-53 0 -95.5 9.5t-91.5 30.5l27 107q8 29 22.5 38t31.5 9q15 0 32.5 -6t50.5 -6q75 0 112.5 45.5t37.5 140.5v867z" />
    <glyph glyph-name="l" unicode="l" horiz-adv-x="497" 
d="M372 1486v-1486h-247v1486h247z" />
    <glyph glyph-name="six" unicode="6" horiz-adv-x="1160" 
d="M522 921q-14 -17 -26.5 -32t-24.5 -31q42 21 90.5 33t105.5 12q82 0 159.5 -27t136.5 -81.5t95 -135.5t36 -189q0 -101 -37 -189.5t-104 -154.5t-161.5 -104t-208.5 -38q-116 0 -208 37t-157 103.5t-99.5 160t-34.5 207.5q0 102 41.5 209.5t128.5 223.5l345 463
q18 24 52.5 41t79.5 17h220zM321 454q0 -60 16.5 -109.5t49 -84.5t80.5 -54.5t111 -19.5q59 0 108.5 20t85 56t55.5 84.5t20 105.5q0 62 -19 111.5t-54 84t-84 52.5t-108 18t-107 -20t-82 -55.5t-53 -84t-19 -104.5z" />
    <glyph glyph-name="eight" unicode="8" horiz-adv-x="1160" 
d="M580 -16q-112 0 -204.5 30t-158.5 85t-102.5 133t-36.5 174q0 128 63 216.5t196 131.5q-106 44 -158.5 125t-52.5 195q0 82 33.5 153t93.5 123.5t143.5 82t183.5 29.5t183.5 -29.5t143.5 -82t93.5 -123.5t33.5 -153q0 -114 -53 -195t-158 -125q133 -43 196 -131.5
t63 -216.5q0 -96 -36.5 -174t-102.5 -133t-158.5 -85t-204.5 -30zM580 177q61 0 107 17.5t77.5 48.5t47.5 74t16 93q0 119 -66 180t-182 61t-182 -61t-66 -180q0 -50 16 -93t47.5 -74t77.5 -48.5t107 -17.5zM580 845q60 0 101 19t66 50.5t35.5 72t10.5 83.5q0 41 -13 78
t-39 65.5t-66 45.5t-95 17t-95 -17t-66.5 -45.5t-39 -65.5t-12.5 -78q0 -43 10.5 -83.5t35.5 -72t66 -50.5t101 -19z" />
    <glyph glyph-name="percent" unicode="%" horiz-adv-x="1639" 
d="M745 1096q0 -82 -27.5 -148t-73.5 -112.5t-107 -71.5t-127 -25q-72 0 -133 25t-105.5 71.5t-69.5 112.5t-25 148q0 84 25 152t69.5 115t105.5 72.5t133 25.5t133.5 -25.5t106.5 -72.5t70 -115t25 -152zM555 1096q0 58 -11.5 97t-31 63t-46 34.5t-56.5 10.5t-56 -10.5
t-44.5 -34.5t-29.5 -63t-11 -97q0 -56 11 -93.5t29.5 -60.5t44.5 -33t56 -10t56.5 10t46 33t31 60.5t11.5 93.5zM1226 1407q13 15 30.5 27t49.5 12h180l-1074 -1409q-13 -16 -31 -26.5t-44 -10.5h-184zM1562 340q0 -82 -27.5 -148t-73.5 -112.5t-107 -72t-127 -25.5
q-72 0 -133 25.5t-105.5 72t-69.5 112.5t-25 148q0 84 25 152t69.5 115t105.5 72.5t133 25.5t133.5 -25.5t106 -72.5t70 -115t25.5 -152zM1371 340q0 58 -11 97t-30.5 63t-46 34.5t-56.5 10.5t-56 -10.5t-45 -34.5t-29.5 -63t-10.5 -97q0 -56 10.5 -94t29.5 -61t45 -33
t56 -10t56.5 10t46 33t30.5 61t11 94z" />
    <glyph glyph-name="exclamdown" unicode="&#xa1;" horiz-adv-x="540" 
d="M155 -335v533q0 91 9 178.5t24 185.5h167q15 -98 23.5 -185.5t8.5 -178.5v-533h-232zM117 892q0 32 11.5 59.5t31.5 47.5t48 31.5t60 11.5q31 0 59 -11.5t48.5 -31.5t32.5 -47.5t12 -59.5t-12 -59.5t-32.5 -47.5t-48.5 -32t-59 -12q-32 0 -60 12t-48 32t-31.5 47.5
t-11.5 59.5z" />
    <glyph glyph-name="questiondown" unicode="&#xbf;" horiz-adv-x="910" 
d="M847 -203q-35 -30 -75 -56.5t-87.5 -47t-102 -32t-118.5 -11.5q-87 0 -158.5 23t-122.5 66t-79 104.5t-28 139.5q0 76 22 129t55 90.5t72.5 63.5t74.5 49t60 46.5t31 55.5l23 145h169l18 -163q6 -51 -13.5 -85t-52.5 -59.5t-73 -47.5t-74.5 -49t-58 -63t-23.5 -90
q0 -36 13.5 -64.5t37.5 -49t57 -31.5t72 -11q57 0 96 13t67 28t47 28t34 13q36 0 52 -31zM352 892q0 31 11.5 59t31.5 48t48 32t60 12t59.5 -12t48 -32t32.5 -48t12 -59q0 -32 -12 -59.5t-32.5 -47.5t-48 -31.5t-59.5 -11.5t-60 11.5t-48 31.5t-31.5 47.5t-11.5 59.5z" />
    <glyph glyph-name="perthousand" unicode="&#x2030;" horiz-adv-x="2372" 
d="M745 1096q0 -82 -27.5 -148t-73.5 -112.5t-107 -71.5t-127 -25q-72 0 -133 25t-105.5 71.5t-69.5 112.5t-25 148q0 84 25 152t69.5 115t105.5 72.5t133 25.5t133.5 -25.5t106.5 -72.5t70 -115t25 -152zM555 1096q0 58 -11.5 97t-31 63t-46 34.5t-56.5 10.5t-56 -10.5
t-44.5 -34.5t-29.5 -63t-11 -97q0 -56 11 -93.5t29.5 -60.5t44.5 -33t56 -10t56.5 10t46 33t31 60.5t11.5 93.5zM1226 1407q13 15 30.5 27t49.5 12h180l-1074 -1409q-13 -16 -31 -26.5t-44 -10.5h-184zM1562 340q0 -82 -27.5 -148t-73.5 -112.5t-107 -72t-127 -25.5
q-72 0 -133 25.5t-105.5 72t-69.5 112.5t-25 148q0 84 25 152t69.5 115t105.5 72.5t133 25.5t133.5 -25.5t106 -72.5t70 -115t25.5 -152zM1371 340q0 58 -11 97t-30.5 63t-46 34.5t-56.5 10.5t-56 -10.5t-45 -34.5t-29.5 -63t-10.5 -97q0 -56 10.5 -94t29.5 -61t45 -33
t56 -10t56.5 10t46 33t30.5 61t11 94zM2302 340q0 -82 -27.5 -148t-73.5 -112.5t-106.5 -72t-126.5 -25.5q-72 0 -133 25.5t-105.5 72t-69.5 112.5t-25 148q0 84 25 152t69.5 115t105.5 72.5t133 25.5t133 -25.5t106 -72.5t70 -115t25 -152zM2112 340q0 58 -11 97t-30.5 63
t-46 34.5t-56.5 10.5t-56 -10.5t-45 -34.5t-29.5 -63t-10.5 -97q0 -56 10.5 -94t29.5 -61t45 -33t56 -10t56.5 10t46 33t30.5 61t11 94z" />
    <glyph glyph-name="uniF8FF" unicode="&#xf8ff;" horiz-adv-x="1578" 
d="M636 1484q-85 -57 -150.5 -148.5t-113.5 -201.5t-80.5 -232t-51.5 -241.5t-27.5 -229.5t-8.5 -195t11 -144.5t30.5 -104.5t45.5 -79t57 -68l-12 -12q-59 55 -106 113t-80.5 127.5t-51.5 155.5t-18 198q0 154 35 308.5t104 296t172.5 262.5t240.5 207zM1080 780h-174v-342
q0 -38 25.5 -60t78.5 -22q9 0 25 0.5t33 3.5l20 -214q-50 -20 -107 -31t-119 -11q-96 0 -160 23t-103 68t-55 111t-16 152v300l-100 46v218l120 12l100 244h258v-252h174v-246zM942 -160q85 58 150.5 148.5t113.5 200t80 231.5t52 241t28 228t8 195t-11 146.5t-30.5 105.5
t-45.5 79.5t-57 68.5l12 12q59 -56 106.5 -114t80.5 -128t51 -156t18 -196q0 -154 -35 -308.5t-104 -296t-172.5 -262.5t-240.5 -207z" />
    <glyph glyph-name="uni000D" unicode="&#xd;" horiz-adv-x="0" 
 />
    <glyph glyph-name="Agrave" unicode="&#xc0;" horiz-adv-x="1389" 
d="M0 0zM1400 0h-208q-35 0 -57 17.5t-33 43.5l-108 295h-599l-108 -295q-8 -23 -31 -42t-57 -19h-210l569 1446h274zM464 546h461l-176 481q-13 32 -27 75.5t-28 94.5q-14 -51 -27.5 -95t-26.5 -77zM530 1861q20 0 34.5 -1t26 -5.5t21.5 -12.5t21 -22l218 -271h-179
q-29 0 -45.5 3.5t-36.5 20.5l-319 288h259z" />
    <glyph glyph-name="Aacute" unicode="&#xc1;" horiz-adv-x="1389" 
d="M0 0zM1400 0h-208q-35 0 -57 17.5t-33 43.5l-108 295h-599l-108 -295q-8 -23 -31 -42t-57 -19h-210l569 1446h274zM464 546h461l-176 481q-13 32 -27 75.5t-28 94.5q-14 -51 -27.5 -95t-26.5 -77zM1114 1861l-324 -286q-20 -18 -38 -22t-46 -4h-179l209 271
q10 14 20 22.5t22 12.5t26.5 5t34.5 1h275z" />
    <glyph glyph-name="Acircumflex" unicode="&#xc2;" horiz-adv-x="1389" 
d="M0 0zM1400 0h-208q-35 0 -57 17.5t-33 43.5l-108 295h-599l-108 -295q-8 -23 -31 -42t-57 -19h-210l569 1446h274zM464 546h461l-176 481q-13 32 -27 75.5t-28 94.5q-14 -51 -27.5 -95t-26.5 -77zM1051 1549h-179q-15 0 -36.5 5.5t-44.5 32.5l-82 106q-5 5 -8.5 11
t-6.5 11l-15 -22l-82 -106q-23 -27 -44.5 -32.5t-36.5 -5.5h-171l241 275h224z" />
    <glyph glyph-name="Atilde" unicode="&#xc3;" horiz-adv-x="1389" 
d="M0 0zM1400 0h-208q-35 0 -57 17.5t-33 43.5l-108 295h-599l-108 -295q-8 -23 -31 -42t-57 -19h-210l569 1446h274zM464 546h461l-176 481q-13 32 -27 75.5t-28 94.5q-14 -51 -27.5 -95t-26.5 -77zM819 1699q22 0 38.5 9t27 22.5t15.5 30t5 32.5h151q0 -50 -13.5 -95.5
t-40 -81t-65 -56.5t-88.5 -21q-51 0 -88.5 16t-68.5 34.5t-56.5 34.5t-52.5 16q-23 0 -39 -9t-26 -23t-15 -31t-5 -33h-153q0 49 14 95.5t40.5 82t65 57t88.5 21.5q51 0 89 -16t68 -34.5t56 -34.5t53 -16z" />
    <glyph glyph-name="Adieresis" unicode="&#xc4;" horiz-adv-x="1389" 
d="M0 0zM1400 0h-208q-35 0 -57 17.5t-33 43.5l-108 295h-599l-108 -295q-8 -23 -31 -42t-57 -19h-210l569 1446h274zM464 546h461l-176 481q-13 32 -27 75.5t-28 94.5q-14 -51 -27.5 -95t-26.5 -77zM608 1667q0 -27 -11 -51t-29.5 -42t-43.5 -28t-53 -10q-26 0 -49.5 10
t-41.5 28t-29 42t-11 51t11 51.5t29 43t41.5 29.5t49.5 11q28 0 53 -11t43.5 -29.5t29.5 -43t11 -51.5zM1048 1667q0 -27 -10.5 -51t-29 -42t-43 -28t-51.5 -10q-28 0 -52.5 10t-42.5 28t-28.5 42t-10.5 51t10.5 51.5t28.5 43t42.5 29.5t52.5 11q27 0 51.5 -11t43 -29.5
t29 -43t10.5 -51.5z" />
    <glyph glyph-name="Aring" unicode="&#xc5;" horiz-adv-x="1389" 
d="M0 0zM1400 0h-208q-35 0 -57 17.5t-33 43.5l-108 295h-599l-108 -295q-8 -23 -31 -42t-57 -19h-210l569 1446h274zM464 546h461l-176 481q-13 32 -27 75.5t-28 94.5q-14 -51 -27.5 -95t-26.5 -77zM487 1706q0 43 17 78.5t45.5 60.5t65.5 39t78 14q42 0 80.5 -14t67 -39
t45.5 -60.5t17 -78.5q0 -42 -17 -76t-45.5 -59t-67 -38.5t-80.5 -13.5q-41 0 -78 13.5t-65.5 38.5t-45.5 59t-17 76zM606 1706q0 -39 23 -64t67 -25q40 0 64 25t24 64q0 42 -24 66.5t-64 24.5q-44 0 -67 -24.5t-23 -66.5z" />
    <glyph glyph-name="Egrave" unicode="&#xc8;" horiz-adv-x="1150" 
d="M161 0zM1073 1446v-214h-642v-401h506v-207h-506v-409h642v-215h-912v1446h912zM468 1861q20 0 34.5 -1t26 -5.5t21.5 -12.5t21 -22l218 -271h-179q-29 0 -45.5 3.5t-36.5 20.5l-319 288h259z" />
    <glyph glyph-name="Eacute" unicode="&#xc9;" horiz-adv-x="1150" 
d="M161 0zM1073 1446v-214h-642v-401h506v-207h-506v-409h642v-215h-912v1446h912zM1052 1861l-324 -286q-20 -18 -38 -22t-46 -4h-179l209 271q10 14 20 22.5t22 12.5t26.5 5t34.5 1h275z" />
    <glyph glyph-name="Ecircumflex" unicode="&#xca;" horiz-adv-x="1150" 
d="M161 0zM1073 1446v-214h-642v-401h506v-207h-506v-409h642v-215h-912v1446h912zM989 1549h-179q-15 0 -36.5 5.5t-44.5 32.5l-82 106q-5 5 -8.5 11t-6.5 11l-15 -22l-82 -106q-23 -27 -44.5 -32.5t-36.5 -5.5h-171l241 275h224z" />
    <glyph glyph-name="Edieresis" unicode="&#xcb;" horiz-adv-x="1150" 
d="M161 0zM1073 1446v-214h-642v-401h506v-207h-506v-409h642v-215h-912v1446h912zM546 1667q0 -27 -11 -51t-29.5 -42t-43.5 -28t-53 -10q-26 0 -49.5 10t-41.5 28t-29 42t-11 51t11 51.5t29 43t41.5 29.5t49.5 11q28 0 53 -11t43.5 -29.5t29.5 -43t11 -51.5zM986 1667
q0 -27 -10.5 -51t-29 -42t-43 -28t-51.5 -10q-28 0 -52.5 10t-42.5 28t-28.5 42t-10.5 51t10.5 51.5t28.5 43t42.5 29.5t52.5 11q27 0 51.5 -11t43 -29.5t29 -43t10.5 -51.5z" />
    <glyph glyph-name="Igrave" unicode="&#xcc;" horiz-adv-x="593" 
d="M0 0zM431 0h-270v1446h270v-1446zM136 1861q20 0 34.5 -1t26 -5.5t21.5 -12.5t21 -22l218 -271h-179q-29 0 -45.5 3.5t-36.5 20.5l-319 288h259z" />
    <glyph glyph-name="Iacute" unicode="&#xcd;" horiz-adv-x="593" 
d="M133 0zM431 0h-270v1446h270v-1446zM720 1861l-324 -286q-20 -18 -38 -22t-46 -4h-179l209 271q10 14 20 22.5t22 12.5t26.5 5t34.5 1h275z" />
    <glyph glyph-name="Icircumflex" unicode="&#xce;" horiz-adv-x="593" 
d="M0 0zM431 0h-270v1446h270v-1446zM657 1549h-179q-15 0 -36.5 5.5t-44.5 32.5l-82 106q-5 5 -8.5 11t-6.5 11l-15 -22l-82 -106q-23 -27 -44.5 -32.5t-36.5 -5.5h-171l241 275h224z" />
    <glyph glyph-name="Idieresis" unicode="&#xcf;" horiz-adv-x="593" 
d="M0 0zM431 0h-270v1446h270v-1446zM214 1667q0 -27 -11 -51t-29.5 -42t-43.5 -28t-53 -10q-26 0 -49.5 10t-41.5 28t-29 42t-11 51t11 51.5t29 43t41.5 29.5t49.5 11q28 0 53 -11t43.5 -29.5t29.5 -43t11 -51.5zM654 1667q0 -27 -10.5 -51t-29 -42t-43 -28t-51.5 -10
q-28 0 -52.5 10t-42.5 28t-28.5 42t-10.5 51t10.5 51.5t28.5 43t42.5 29.5t52.5 11q27 0 51.5 -11t43 -29.5t29 -43t10.5 -51.5z" />
    <glyph glyph-name="Ntilde" unicode="&#xd1;" horiz-adv-x="1541" 
d="M302 1446q17 0 29.5 -1.5t22 -6t18.5 -13t20 -22.5l758 -968q-3 35 -5 69t-2 63v879h237v-1446h-138q-32 0 -53.5 10.5t-41.5 35.5l-755 963q3 -32 4.5 -63.5t1.5 -57.5v-888h-237v1446h141zM904 1699q22 0 38.5 9t27 22.5t15.5 30t5 32.5h151q0 -50 -13.5 -95.5t-40 -81
t-65 -56.5t-88.5 -21q-51 0 -88.5 16t-68.5 34.5t-56.5 34.5t-52.5 16q-23 0 -39 -9t-26 -23t-15 -31t-5 -33h-153q0 49 14 95.5t40.5 82t65 57t88.5 21.5q51 0 89 -16t68 -34.5t56 -34.5t53 -16z" />
    <glyph glyph-name="Ograve" unicode="&#xd2;" horiz-adv-x="1616" 
d="M75 0zM1540 723q0 -159 -52.5 -294.5t-148.5 -234.5t-231 -154.5t-300 -55.5q-164 0 -299 55.5t-231.5 154.5t-149.5 234.5t-53 294.5t53 294.5t149.5 234.5t231.5 154.5t299 55.5q110 0 207 -25.5t178 -72t145.5 -113t109.5 -148.5t68.5 -178t23.5 -202zM1265 723
q0 119 -32 213.5t-91 160.5t-143.5 101t-190.5 35t-190.5 -35t-144 -101t-91.5 -160.5t-32 -213.5t32 -213.5t91.5 -160t144 -100.5t190.5 -35t190.5 35t143.5 100.5t91 160t32 213.5zM646 1861q20 0 34.5 -1t26 -5.5t21.5 -12.5t21 -22l218 -271h-179q-29 0 -45.5 3.5
t-36.5 20.5l-319 288h259z" />
    <glyph glyph-name="Oacute" unicode="&#xd3;" horiz-adv-x="1616" 
d="M75 0zM1540 723q0 -159 -52.5 -294.5t-148.5 -234.5t-231 -154.5t-300 -55.5q-164 0 -299 55.5t-231.5 154.5t-149.5 234.5t-53 294.5t53 294.5t149.5 234.5t231.5 154.5t299 55.5q110 0 207 -25.5t178 -72t145.5 -113t109.5 -148.5t68.5 -178t23.5 -202zM1265 723
q0 119 -32 213.5t-91 160.5t-143.5 101t-190.5 35t-190.5 -35t-144 -101t-91.5 -160.5t-32 -213.5t32 -213.5t91.5 -160t144 -100.5t190.5 -35t190.5 35t143.5 100.5t91 160t32 213.5zM1230 1861l-324 -286q-20 -18 -38 -22t-46 -4h-179l209 271q10 14 20 22.5t22 12.5
t26.5 5t34.5 1h275z" />
    <glyph glyph-name="Ocircumflex" unicode="&#xd4;" horiz-adv-x="1616" 
d="M75 0zM1540 723q0 -159 -52.5 -294.5t-148.5 -234.5t-231 -154.5t-300 -55.5q-164 0 -299 55.5t-231.5 154.5t-149.5 234.5t-53 294.5t53 294.5t149.5 234.5t231.5 154.5t299 55.5q110 0 207 -25.5t178 -72t145.5 -113t109.5 -148.5t68.5 -178t23.5 -202zM1265 723
q0 119 -32 213.5t-91 160.5t-143.5 101t-190.5 35t-190.5 -35t-144 -101t-91.5 -160.5t-32 -213.5t32 -213.5t91.5 -160t144 -100.5t190.5 -35t190.5 35t143.5 100.5t91 160t32 213.5zM1167 1549h-179q-15 0 -36.5 5.5t-44.5 32.5l-82 106q-5 5 -8.5 11t-6.5 11l-15 -22
l-82 -106q-23 -27 -44.5 -32.5t-36.5 -5.5h-171l241 275h224z" />
    <glyph glyph-name="Otilde" unicode="&#xd5;" horiz-adv-x="1616" 
d="M75 0zM1540 723q0 -159 -52.5 -294.5t-148.5 -234.5t-231 -154.5t-300 -55.5q-164 0 -299 55.5t-231.5 154.5t-149.5 234.5t-53 294.5t53 294.5t149.5 234.5t231.5 154.5t299 55.5q110 0 207 -25.5t178 -72t145.5 -113t109.5 -148.5t68.5 -178t23.5 -202zM1265 723
q0 119 -32 213.5t-91 160.5t-143.5 101t-190.5 35t-190.5 -35t-144 -101t-91.5 -160.5t-32 -213.5t32 -213.5t91.5 -160t144 -100.5t190.5 -35t190.5 35t143.5 100.5t91 160t32 213.5zM935 1699q22 0 38.5 9t27 22.5t15.5 30t5 32.5h151q0 -50 -13.5 -95.5t-40 -81
t-65 -56.5t-88.5 -21q-51 0 -88.5 16t-68.5 34.5t-56.5 34.5t-52.5 16q-23 0 -39 -9t-26 -23t-15 -31t-5 -33h-153q0 49 14 95.5t40.5 82t65 57t88.5 21.5q51 0 89 -16t68 -34.5t56 -34.5t53 -16z" />
    <glyph glyph-name="Odieresis" unicode="&#xd6;" horiz-adv-x="1616" 
d="M75 0zM1540 723q0 -159 -52.5 -294.5t-148.5 -234.5t-231 -154.5t-300 -55.5q-164 0 -299 55.5t-231.5 154.5t-149.5 234.5t-53 294.5t53 294.5t149.5 234.5t231.5 154.5t299 55.5q110 0 207 -25.5t178 -72t145.5 -113t109.5 -148.5t68.5 -178t23.5 -202zM1265 723
q0 119 -32 213.5t-91 160.5t-143.5 101t-190.5 35t-190.5 -35t-144 -101t-91.5 -160.5t-32 -213.5t32 -213.5t91.5 -160t144 -100.5t190.5 -35t190.5 35t143.5 100.5t91 160t32 213.5zM724 1667q0 -27 -11 -51t-29.5 -42t-43.5 -28t-53 -10q-26 0 -49.5 10t-41.5 28t-29 42
t-11 51t11 51.5t29 43t41.5 29.5t49.5 11q28 0 53 -11t43.5 -29.5t29.5 -43t11 -51.5zM1164 1667q0 -27 -10.5 -51t-29 -42t-43 -28t-51.5 -10q-28 0 -52.5 10t-42.5 28t-28.5 42t-10.5 51t10.5 51.5t28.5 43t42.5 29.5t52.5 11q27 0 51.5 -11t43 -29.5t29 -43t10.5 -51.5z
" />
    <glyph glyph-name="Ugrave" unicode="&#xd9;" horiz-adv-x="1485" 
d="M143 0zM743 217q78 0 139.5 26t103.5 73t64.5 114t22.5 150v866h269v-866q0 -129 -41.5 -238.5t-119 -189t-188.5 -124t-250 -44.5q-140 0 -251 44.5t-188.5 124t-119 189t-41.5 238.5v866h269v-865q0 -83 22.5 -150t65 -114.5t104 -73.5t139.5 -26zM579 1861
q20 0 34.5 -1t26 -5.5t21.5 -12.5t21 -22l218 -271h-179q-29 0 -45.5 3.5t-36.5 20.5l-319 288h259z" />
    <glyph glyph-name="Uacute" unicode="&#xda;" horiz-adv-x="1485" 
d="M143 0zM743 217q78 0 139.5 26t103.5 73t64.5 114t22.5 150v866h269v-866q0 -129 -41.5 -238.5t-119 -189t-188.5 -124t-250 -44.5q-140 0 -251 44.5t-188.5 124t-119 189t-41.5 238.5v866h269v-865q0 -83 22.5 -150t65 -114.5t104 -73.5t139.5 -26zM1163 1861l-324 -286
q-20 -18 -38 -22t-46 -4h-179l209 271q10 14 20 22.5t22 12.5t26.5 5t34.5 1h275z" />
    <glyph glyph-name="Ucircumflex" unicode="&#xdb;" horiz-adv-x="1485" 
d="M143 0zM743 217q78 0 139.5 26t103.5 73t64.5 114t22.5 150v866h269v-866q0 -129 -41.5 -238.5t-119 -189t-188.5 -124t-250 -44.5q-140 0 -251 44.5t-188.5 124t-119 189t-41.5 238.5v866h269v-865q0 -83 22.5 -150t65 -114.5t104 -73.5t139.5 -26zM1100 1549h-179
q-15 0 -36.5 5.5t-44.5 32.5l-82 106q-5 5 -8.5 11t-6.5 11l-15 -22l-82 -106q-23 -27 -44.5 -32.5t-36.5 -5.5h-171l241 275h224z" />
    <glyph glyph-name="Udieresis" unicode="&#xdc;" horiz-adv-x="1485" 
d="M143 0zM743 217q78 0 139.5 26t103.5 73t64.5 114t22.5 150v866h269v-866q0 -129 -41.5 -238.5t-119 -189t-188.5 -124t-250 -44.5q-140 0 -251 44.5t-188.5 124t-119 189t-41.5 238.5v866h269v-865q0 -83 22.5 -150t65 -114.5t104 -73.5t139.5 -26zM657 1667
q0 -27 -11 -51t-29.5 -42t-43.5 -28t-53 -10q-26 0 -49.5 10t-41.5 28t-29 42t-11 51t11 51.5t29 43t41.5 29.5t49.5 11q28 0 53 -11t43.5 -29.5t29.5 -43t11 -51.5zM1097 1667q0 -27 -10.5 -51t-29 -42t-43 -28t-51.5 -10q-28 0 -52.5 10t-42.5 28t-28.5 42t-10.5 51
t10.5 51.5t28.5 43t42.5 29.5t52.5 11q27 0 51.5 -11t43 -29.5t29 -43t10.5 -51.5z" />
    <glyph glyph-name="Ydieresis" unicode="&#x178;" horiz-adv-x="1296" 
d="M0 0zM782 560v-560h-268v560l-527 886h237q35 0 55.5 -17t34.5 -43l264 -483q23 -44 40.5 -82t31.5 -75q13 38 30 76t39 81l263 483q11 22 33 41t56 19h238zM564 1667q0 -27 -11 -51t-29.5 -42t-43.5 -28t-53 -10q-26 0 -49.5 10t-41.5 28t-29 42t-11 51t11 51.5t29 43
t41.5 29.5t49.5 11q28 0 53 -11t43.5 -29.5t29.5 -43t11 -51.5zM1004 1667q0 -27 -10.5 -51t-29 -42t-43 -28t-51.5 -10q-28 0 -52.5 10t-42.5 28t-28.5 42t-10.5 51t10.5 51.5t28.5 43t42.5 29.5t52.5 11q27 0 51.5 -11t43 -29.5t29 -43t10.5 -51.5z" />
    <glyph glyph-name="agrave" unicode="&#xe0;" horiz-adv-x="1015" 
d="M49 0zM793 0q-35 0 -54 10.5t-30 42.5l-22 73q-39 -35 -76 -61.5t-77 -44.5t-85.5 -27t-100.5 -9q-65 0 -120 17.5t-95 52.5t-62 87t-22 121q0 58 30.5 114.5t101.5 102t189 75.5t294 34v60q0 103 -44 152.5t-127 49.5q-60 0 -99.5 -14t-69.5 -31.5t-54.5 -31.5
t-54.5 -14q-26 0 -44 13.5t-29 31.5l-44 79q177 162 426 162q90 0 161 -29.5t120 -82t74.5 -125.5t25.5 -160v-648h-112zM424 154q76 0 131.5 27.5t108.5 83.5v173q-108 -5 -180.5 -18.5t-116.5 -34.5t-63 -49t-19 -61q0 -65 38.5 -93t100.5 -28zM412 1462q41 0 61 -13.5
t34 -39.5l143 -243h-141q-28 0 -45.5 7.5t-35.5 27.5l-247 261h231z" />
    <glyph glyph-name="aacute" unicode="&#xe1;" horiz-adv-x="1015" 
d="M49 0zM793 0q-35 0 -54 10.5t-30 42.5l-22 73q-39 -35 -76 -61.5t-77 -44.5t-85.5 -27t-100.5 -9q-65 0 -120 17.5t-95 52.5t-62 87t-22 121q0 58 30.5 114.5t101.5 102t189 75.5t294 34v60q0 103 -44 152.5t-127 49.5q-60 0 -99.5 -14t-69.5 -31.5t-54.5 -31.5
t-54.5 -14q-26 0 -44 13.5t-29 31.5l-44 79q177 162 426 162q90 0 161 -29.5t120 -82t74.5 -125.5t25.5 -160v-648h-112zM424 154q76 0 131.5 27.5t108.5 83.5v173q-108 -5 -180.5 -18.5t-116.5 -34.5t-63 -49t-19 -61q0 -65 38.5 -93t100.5 -28zM847 1462l-247 -261
q-19 -20 -36.5 -27.5t-45.5 -7.5h-148l142 243q15 26 35 39.5t60 13.5h240z" />
    <glyph glyph-name="acircumflex" unicode="&#xe2;" horiz-adv-x="1015" 
d="M49 0zM793 0q-35 0 -54 10.5t-30 42.5l-22 73q-39 -35 -76 -61.5t-77 -44.5t-85.5 -27t-100.5 -9q-65 0 -120 17.5t-95 52.5t-62 87t-22 121q0 58 30.5 114.5t101.5 102t189 75.5t294 34v60q0 103 -44 152.5t-127 49.5q-60 0 -99.5 -14t-69.5 -31.5t-54.5 -31.5
t-54.5 -14q-26 0 -44 13.5t-29 31.5l-44 79q177 162 426 162q90 0 161 -29.5t120 -82t74.5 -125.5t25.5 -160v-648h-112zM424 154q76 0 131.5 27.5t108.5 83.5v173q-108 -5 -180.5 -18.5t-116.5 -34.5t-63 -49t-19 -61q0 -65 38.5 -93t100.5 -28zM846 1168h-165
q-14 0 -28.5 5.5t-28.5 19.5l-98 104q-11 10 -21 24q-11 -14 -21 -24l-100 -104q-12 -13 -27 -19t-30 -6h-171l229 278h232z" />
    <glyph glyph-name="atilde" unicode="&#xe3;" horiz-adv-x="1015" 
d="M49 0zM793 0q-35 0 -54 10.5t-30 42.5l-22 73q-39 -35 -76 -61.5t-77 -44.5t-85.5 -27t-100.5 -9q-65 0 -120 17.5t-95 52.5t-62 87t-22 121q0 58 30.5 114.5t101.5 102t189 75.5t294 34v60q0 103 -44 152.5t-127 49.5q-60 0 -99.5 -14t-69.5 -31.5t-54.5 -31.5
t-54.5 -14q-26 0 -44 13.5t-29 31.5l-44 79q177 162 426 162q90 0 161 -29.5t120 -82t74.5 -125.5t25.5 -160v-648h-112zM424 154q76 0 131.5 27.5t108.5 83.5v173q-108 -5 -180.5 -18.5t-116.5 -34.5t-63 -49t-19 -61q0 -65 38.5 -93t100.5 -28zM608 1359q30 0 47 16.5
t17 59.5h150q0 -56 -15.5 -101.5t-42.5 -78t-64.5 -50t-82.5 -17.5q-36 0 -67 13t-58 28t-50.5 28t-43.5 13q-29 0 -45.5 -17.5t-16.5 -59.5h-153q0 56 15.5 101.5t43.5 78t65.5 50.5t81.5 18q36 0 67.5 -13t58.5 -28t50 -28t43 -13z" />
    <glyph glyph-name="adieresis" unicode="&#xe4;" horiz-adv-x="1015" 
d="M49 0zM793 0q-35 0 -54 10.5t-30 42.5l-22 73q-39 -35 -76 -61.5t-77 -44.5t-85.5 -27t-100.5 -9q-65 0 -120 17.5t-95 52.5t-62 87t-22 121q0 58 30.5 114.5t101.5 102t189 75.5t294 34v60q0 103 -44 152.5t-127 49.5q-60 0 -99.5 -14t-69.5 -31.5t-54.5 -31.5
t-54.5 -14q-26 0 -44 13.5t-29 31.5l-44 79q177 162 426 162q90 0 161 -29.5t120 -82t74.5 -125.5t25.5 -160v-648h-112zM424 154q76 0 131.5 27.5t108.5 83.5v173q-108 -5 -180.5 -18.5t-116.5 -34.5t-63 -49t-19 -61q0 -65 38.5 -93t100.5 -28zM437 1292q0 -28 -11 -52.5
t-30.5 -42.5t-45 -28.5t-54.5 -10.5q-27 0 -51.5 10.5t-43 28.5t-29.5 42.5t-11 52.5q0 29 11 54.5t29.5 44.5t43 30t51.5 11q29 0 54.5 -11t45 -30t30.5 -44.5t11 -54.5zM841 1292q0 -28 -11 -52.5t-29.5 -42.5t-44 -28.5t-54.5 -10.5q-28 0 -53 10.5t-43.5 28.5
t-29.5 42.5t-11 52.5q0 29 11 54.5t29.5 44.5t43.5 30t53 11q29 0 54.5 -11t44 -30t29.5 -44.5t11 -54.5z" />
    <glyph glyph-name="aring" unicode="&#xe5;" horiz-adv-x="1015" 
d="M49 0zM793 0q-35 0 -54 10.5t-30 42.5l-22 73q-39 -35 -76 -61.5t-77 -44.5t-85.5 -27t-100.5 -9q-65 0 -120 17.5t-95 52.5t-62 87t-22 121q0 58 30.5 114.5t101.5 102t189 75.5t294 34v60q0 103 -44 152.5t-127 49.5q-60 0 -99.5 -14t-69.5 -31.5t-54.5 -31.5
t-54.5 -14q-26 0 -44 13.5t-29 31.5l-44 79q177 162 426 162q90 0 161 -29.5t120 -82t74.5 -125.5t25.5 -160v-648h-112zM424 154q76 0 131.5 27.5t108.5 83.5v173q-108 -5 -180.5 -18.5t-116.5 -34.5t-63 -49t-19 -61q0 -65 38.5 -93t100.5 -28zM279 1325q0 46 18 84
t48.5 65t70.5 42t84 15q45 0 86 -15t72 -42t49.5 -65t18.5 -84q0 -45 -18.5 -82t-49.5 -63.5t-72 -41t-86 -14.5q-44 0 -84 14.5t-70.5 41t-48.5 63.5t-18 82zM413 1325q0 -38 23.5 -63.5t67.5 -25.5q40 0 64 25.5t24 63.5q0 42 -24 66.5t-64 24.5q-44 0 -67.5 -24.5
t-23.5 -66.5z" />
    <glyph glyph-name="egrave" unicode="&#xe8;" horiz-adv-x="1068" 
d="M66 0zM559 1042q97 0 179 -31t141 -90.5t92.5 -146t33.5 -197.5q0 -56 -12 -75.5t-46 -19.5h-635q6 -79 28 -136.5t58 -95t85.5 -56t109.5 -18.5t103.5 14t76 31t57 31t47.5 14q31 0 46 -23l71 -90q-41 -48 -92 -80.5t-106.5 -52t-113 -27.5t-111.5 -8q-107 0 -199 35.5
t-160 105t-107 172t-39 237.5q0 105 34 197.5t97.5 161t155 108.5t206.5 40zM564 865q-108 0 -169 -61t-78 -173h466q0 48 -13.5 90.5t-40.5 74.5t-68.5 50.5t-96.5 18.5zM476 1462q41 0 61 -13.5t34 -39.5l143 -243h-141q-28 0 -45.5 7.5t-35.5 27.5l-247 261h231z" />
    <glyph glyph-name="eacute" unicode="&#xe9;" horiz-adv-x="1068" 
d="M66 0zM559 1042q97 0 179 -31t141 -90.5t92.5 -146t33.5 -197.5q0 -56 -12 -75.5t-46 -19.5h-635q6 -79 28 -136.5t58 -95t85.5 -56t109.5 -18.5t103.5 14t76 31t57 31t47.5 14q31 0 46 -23l71 -90q-41 -48 -92 -80.5t-106.5 -52t-113 -27.5t-111.5 -8q-107 0 -199 35.5
t-160 105t-107 172t-39 237.5q0 105 34 197.5t97.5 161t155 108.5t206.5 40zM564 865q-108 0 -169 -61t-78 -173h466q0 48 -13.5 90.5t-40.5 74.5t-68.5 50.5t-96.5 18.5zM911 1462l-247 -261q-19 -20 -36.5 -27.5t-45.5 -7.5h-148l142 243q15 26 35 39.5t60 13.5h240z" />
    <glyph glyph-name="ecircumflex" unicode="&#xea;" horiz-adv-x="1068" 
d="M66 0zM559 1042q97 0 179 -31t141 -90.5t92.5 -146t33.5 -197.5q0 -56 -12 -75.5t-46 -19.5h-635q6 -79 28 -136.5t58 -95t85.5 -56t109.5 -18.5t103.5 14t76 31t57 31t47.5 14q31 0 46 -23l71 -90q-41 -48 -92 -80.5t-106.5 -52t-113 -27.5t-111.5 -8q-107 0 -199 35.5
t-160 105t-107 172t-39 237.5q0 105 34 197.5t97.5 161t155 108.5t206.5 40zM564 865q-108 0 -169 -61t-78 -173h466q0 48 -13.5 90.5t-40.5 74.5t-68.5 50.5t-96.5 18.5zM910 1168h-165q-14 0 -28.5 5.5t-28.5 19.5l-98 104q-11 10 -21 24q-11 -14 -21 -24l-100 -104
q-12 -13 -27 -19t-30 -6h-171l229 278h232z" />
    <glyph glyph-name="edieresis" unicode="&#xeb;" horiz-adv-x="1068" 
d="M66 0zM559 1042q97 0 179 -31t141 -90.5t92.5 -146t33.5 -197.5q0 -56 -12 -75.5t-46 -19.5h-635q6 -79 28 -136.5t58 -95t85.5 -56t109.5 -18.5t103.5 14t76 31t57 31t47.5 14q31 0 46 -23l71 -90q-41 -48 -92 -80.5t-106.5 -52t-113 -27.5t-111.5 -8q-107 0 -199 35.5
t-160 105t-107 172t-39 237.5q0 105 34 197.5t97.5 161t155 108.5t206.5 40zM564 865q-108 0 -169 -61t-78 -173h466q0 48 -13.5 90.5t-40.5 74.5t-68.5 50.5t-96.5 18.5zM501 1292q0 -28 -11 -52.5t-30.5 -42.5t-45 -28.5t-54.5 -10.5q-27 0 -51.5 10.5t-43 28.5
t-29.5 42.5t-11 52.5q0 29 11 54.5t29.5 44.5t43 30t51.5 11q29 0 54.5 -11t45 -30t30.5 -44.5t11 -54.5zM905 1292q0 -28 -11 -52.5t-29.5 -42.5t-44 -28.5t-54.5 -10.5q-28 0 -53 10.5t-43.5 28.5t-29.5 42.5t-11 52.5q0 29 11 54.5t29.5 44.5t43.5 30t53 11
q29 0 54.5 -11t44 -30t29.5 -44.5t11 -54.5z" />
    <glyph glyph-name="igrave" unicode="&#xec;" horiz-adv-x="508" 
d="M0 0zM377 1026v-1026h-247v1026h247zM172 1462q41 0 61 -13.5t34 -39.5l143 -243h-141q-28 0 -45.5 7.5t-35.5 27.5l-247 261h231z" />
    <glyph glyph-name="iacute" unicode="&#xed;" horiz-adv-x="509" 
d="M131 0zM378 1026v-1026h-247v1026h247zM608 1462l-247 -261q-19 -20 -36.5 -27.5t-45.5 -7.5h-148l142 243q15 26 35 39.5t60 13.5h240z" />
    <glyph glyph-name="icircumflex" unicode="&#xee;" horiz-adv-x="508" 
d="M0 0zM377 1026v-1026h-247v1026h247zM606 1168h-165q-14 0 -28.5 5.5t-28.5 19.5l-98 104q-11 10 -21 24q-11 -14 -21 -24l-100 -104q-12 -13 -27 -19t-30 -6h-171l229 278h232z" />
    <glyph glyph-name="idieresis" unicode="&#xef;" horiz-adv-x="508" 
d="M0 0zM377 1026v-1026h-247v1026h247zM229 1292q0 -28 -11 -52.5t-30.5 -42.5t-45 -28.5t-53.5 -10.5q-27 0 -51.5 10.5t-43.5 28.5t-30 42.5t-11 52.5q0 29 11 54.5t30 44.5t43.5 30t51.5 11q28 0 53.5 -11t45 -30t30.5 -44.5t11 -54.5zM569 1292q0 -28 -11 -52.5
t-29.5 -42.5t-44 -28.5t-54.5 -10.5q-28 0 -53 10.5t-43.5 28.5t-29.5 42.5t-11 52.5q0 29 11 54.5t29.5 44.5t43.5 30t53 11q29 0 54.5 -11t44 -30t29.5 -44.5t11 -54.5z" />
    <glyph glyph-name="ntilde" unicode="&#xf1;" horiz-adv-x="1128" 
d="M122 0zM122 0v1026h151q48 0 63 -45l17 -81q31 32 65.5 58t73 45t82.5 29t96 10q84 0 149 -28.5t108.5 -80t66 -123t22.5 -157.5v-653h-247v653q0 94 -43 145.5t-131 51.5q-64 0 -120 -29t-106 -79v-742h-247zM681 1359q30 0 47 16.5t17 59.5h150q0 -56 -15.5 -101.5
t-42.5 -78t-64.5 -50t-82.5 -17.5q-36 0 -67 13t-58 28t-50.5 28t-43.5 13q-29 0 -45.5 -17.5t-16.5 -59.5h-153q0 56 15.5 101.5t43.5 78t65.5 50.5t81.5 18q36 0 67.5 -13t58.5 -28t50 -28t43 -13z" />
    <glyph glyph-name="ograve" unicode="&#xf2;" horiz-adv-x="1149" 
d="M67 0zM576 1042q114 0 207.5 -37t160 -105t102.5 -166t36 -219q0 -122 -36 -220t-102.5 -167t-160 -106t-207.5 -37q-115 0 -209 37t-160.5 106t-103 167t-36.5 220q0 121 36.5 219t103 166t160.5 105t209 37zM576 175q128 0 189.5 86t61.5 252t-61.5 253t-189.5 87
q-130 0 -192.5 -87.5t-62.5 -252.5t62.5 -251.5t192.5 -86.5zM487 1462q41 0 61 -13.5t34 -39.5l143 -243h-141q-28 0 -45.5 7.5t-35.5 27.5l-247 261h231z" />
    <glyph glyph-name="oacute" unicode="&#xf3;" horiz-adv-x="1149" 
d="M67 0zM576 1042q114 0 207.5 -37t160 -105t102.5 -166t36 -219q0 -122 -36 -220t-102.5 -167t-160 -106t-207.5 -37q-115 0 -209 37t-160.5 106t-103 167t-36.5 220q0 121 36.5 219t103 166t160.5 105t209 37zM576 175q128 0 189.5 86t61.5 252t-61.5 253t-189.5 87
q-130 0 -192.5 -87.5t-62.5 -252.5t62.5 -251.5t192.5 -86.5zM922 1462l-247 -261q-19 -20 -36.5 -27.5t-45.5 -7.5h-148l142 243q15 26 35 39.5t60 13.5h240z" />
    <glyph glyph-name="ocircumflex" unicode="&#xf4;" horiz-adv-x="1149" 
d="M67 0zM576 1042q114 0 207.5 -37t160 -105t102.5 -166t36 -219q0 -122 -36 -220t-102.5 -167t-160 -106t-207.5 -37q-115 0 -209 37t-160.5 106t-103 167t-36.5 220q0 121 36.5 219t103 166t160.5 105t209 37zM576 175q128 0 189.5 86t61.5 252t-61.5 253t-189.5 87
q-130 0 -192.5 -87.5t-62.5 -252.5t62.5 -251.5t192.5 -86.5zM921 1168h-165q-14 0 -28.5 5.5t-28.5 19.5l-98 104q-11 10 -21 24q-11 -14 -21 -24l-100 -104q-12 -13 -27 -19t-30 -6h-171l229 278h232z" />
    <glyph glyph-name="otilde" unicode="&#xf5;" horiz-adv-x="1149" 
d="M67 0zM576 1042q114 0 207.5 -37t160 -105t102.5 -166t36 -219q0 -122 -36 -220t-102.5 -167t-160 -106t-207.5 -37q-115 0 -209 37t-160.5 106t-103 167t-36.5 220q0 121 36.5 219t103 166t160.5 105t209 37zM576 175q128 0 189.5 86t61.5 252t-61.5 253t-189.5 87
q-130 0 -192.5 -87.5t-62.5 -252.5t62.5 -251.5t192.5 -86.5zM683 1359q30 0 47 16.5t17 59.5h150q0 -56 -15.5 -101.5t-42.5 -78t-64.5 -50t-82.5 -17.5q-36 0 -67 13t-58 28t-50.5 28t-43.5 13q-29 0 -45.5 -17.5t-16.5 -59.5h-153q0 56 15.5 101.5t43.5 78t65.5 50.5
t81.5 18q36 0 67.5 -13t58.5 -28t50 -28t43 -13z" />
    <glyph glyph-name="odieresis" unicode="&#xf6;" horiz-adv-x="1149" 
d="M67 0zM576 1042q114 0 207.5 -37t160 -105t102.5 -166t36 -219q0 -122 -36 -220t-102.5 -167t-160 -106t-207.5 -37q-115 0 -209 37t-160.5 106t-103 167t-36.5 220q0 121 36.5 219t103 166t160.5 105t209 37zM576 175q128 0 189.5 86t61.5 252t-61.5 253t-189.5 87
q-130 0 -192.5 -87.5t-62.5 -252.5t62.5 -251.5t192.5 -86.5zM512 1292q0 -28 -11 -52.5t-30.5 -42.5t-45 -28.5t-54.5 -10.5q-27 0 -51.5 10.5t-43 28.5t-29.5 42.5t-11 52.5q0 29 11 54.5t29.5 44.5t43 30t51.5 11q29 0 54.5 -11t45 -30t30.5 -44.5t11 -54.5zM916 1292
q0 -28 -11 -52.5t-29.5 -42.5t-44 -28.5t-54.5 -10.5q-28 0 -53 10.5t-43.5 28.5t-29.5 42.5t-11 52.5q0 29 11 54.5t29.5 44.5t43.5 30t53 11q29 0 54.5 -11t44 -30t29.5 -44.5t11 -54.5z" />
    <glyph glyph-name="ugrave" unicode="&#xf9;" horiz-adv-x="1128" 
d="M112 0zM359 1026v-652q0 -94 43.5 -145.5t130.5 -51.5q64 0 120 28.5t106 78.5v742h247v-1026h-151q-49 0 -62 45l-17 82q-32 -32 -66 -58.5t-73 -45.5t-83 -29t-96 -10q-84 0 -148.5 28.5t-108.5 80.5t-66.5 123.5t-22.5 157.5v652h247zM475 1462q41 0 61 -13.5
t34 -39.5l143 -243h-141q-28 0 -45.5 7.5t-35.5 27.5l-247 261h231z" />
    <glyph glyph-name="uacute" unicode="&#xfa;" horiz-adv-x="1128" 
d="M112 0zM359 1026v-652q0 -94 43.5 -145.5t130.5 -51.5q64 0 120 28.5t106 78.5v742h247v-1026h-151q-49 0 -62 45l-17 82q-32 -32 -66 -58.5t-73 -45.5t-83 -29t-96 -10q-84 0 -148.5 28.5t-108.5 80.5t-66.5 123.5t-22.5 157.5v652h247zM910 1462l-247 -261
q-19 -20 -36.5 -27.5t-45.5 -7.5h-148l142 243q15 26 35 39.5t60 13.5h240z" />
    <glyph glyph-name="ucircumflex" unicode="&#xfb;" horiz-adv-x="1128" 
d="M112 0zM359 1026v-652q0 -94 43.5 -145.5t130.5 -51.5q64 0 120 28.5t106 78.5v742h247v-1026h-151q-49 0 -62 45l-17 82q-32 -32 -66 -58.5t-73 -45.5t-83 -29t-96 -10q-84 0 -148.5 28.5t-108.5 80.5t-66.5 123.5t-22.5 157.5v652h247zM909 1168h-165q-14 0 -28.5 5.5
t-28.5 19.5l-98 104q-11 10 -21 24q-11 -14 -21 -24l-100 -104q-12 -13 -27 -19t-30 -6h-171l229 278h232z" />
    <glyph glyph-name="udieresis" unicode="&#xfc;" horiz-adv-x="1128" 
d="M112 0zM359 1026v-652q0 -94 43.5 -145.5t130.5 -51.5q64 0 120 28.5t106 78.5v742h247v-1026h-151q-49 0 -62 45l-17 82q-32 -32 -66 -58.5t-73 -45.5t-83 -29t-96 -10q-84 0 -148.5 28.5t-108.5 80.5t-66.5 123.5t-22.5 157.5v652h247zM500 1292q0 -28 -11 -52.5
t-30.5 -42.5t-45 -28.5t-54.5 -10.5q-27 0 -51.5 10.5t-43 28.5t-29.5 42.5t-11 52.5q0 29 11 54.5t29.5 44.5t43 30t51.5 11q29 0 54.5 -11t45 -30t30.5 -44.5t11 -54.5zM904 1292q0 -28 -11 -52.5t-29.5 -42.5t-44 -28.5t-54.5 -10.5q-28 0 -53 10.5t-43.5 28.5
t-29.5 42.5t-11 52.5q0 29 11 54.5t29.5 44.5t43.5 30t53 11q29 0 54.5 -11t44 -30t29.5 -44.5t11 -54.5z" />
    <glyph glyph-name="ydieresis" unicode="&#xff;" horiz-adv-x="1055" 
d="M6 0zM495 -282q-11 -26 -28.5 -39.5t-53.5 -13.5h-184l192 411l-415 950h217q29 0 45.5 -14t24.5 -32l218 -532q20 -55 33 -109q8 28 17.5 55.5t20.5 54.5l206 531q8 20 26.5 33t41.5 13h198zM489 1292q0 -28 -11 -52.5t-30.5 -42.5t-45 -28.5t-54.5 -10.5
q-27 0 -51.5 10.5t-43 28.5t-29.5 42.5t-11 52.5q0 29 11 54.5t29.5 44.5t43 30t51.5 11q29 0 54.5 -11t45 -30t30.5 -44.5t11 -54.5zM893 1292q0 -28 -11 -52.5t-29.5 -42.5t-44 -28.5t-54.5 -10.5q-28 0 -53 10.5t-43.5 28.5t-29.5 42.5t-11 52.5q0 29 11 54.5t29.5 44.5
t43.5 30t53 11q29 0 54.5 -11t44 -30t29.5 -44.5t11 -54.5z" />
    <glyph glyph-name="Delta" unicode="&#x2206;" horiz-adv-x="1482" 
d="M62 76q0 73 32 155l513 1215h274l507 -1211q32 -79 32 -158v-77h-1358v76zM339 213h778l-325 814q-14 35 -29.5 83.5t-29.5 105.5q-14 -58 -29.5 -106t-29.5 -85z" />
    <glyph glyph-name="Omega" unicode="&#x2126;" horiz-adv-x="1648" 
d="M934 304q69 12 129.5 54.5t106 107.5t71.5 149t26 179q0 111 -35.5 193.5t-96 136.5t-141 81t-170.5 27t-170.5 -27t-140.5 -81t-95.5 -136.5t-35.5 -193.5q0 -95 26 -179t71 -149t105.5 -107.5t129.5 -54.5v-304h-530q-42 0 -66 23.5t-24 60.5v137h229q48 0 97.5 -5
t97.5 -12q-89 32 -163.5 89t-128 134t-83 171t-29.5 199q0 144 55 265.5t150.5 210.5t225.5 139t280 50t279.5 -50t225 -139t150 -210.5t54.5 -265.5q0 -105 -29.5 -199t-83 -171t-128 -134t-164.5 -89q48 7 98 12t98 5h230v-137q0 -37 -24.5 -60.5t-65.5 -23.5h-531v304z
" />
    <glyph glyph-name="mu" unicode="&#xb5;" horiz-adv-x="1320" 
d="M412 1026v-606q0 -93 43.5 -149t129.5 -56q80 0 136 43.5t91 122.5v645h247v-723q0 -68 32.5 -100t87.5 -32h73v-98q0 -16 -10.5 -31t-30.5 -26.5t-49 -18.5t-65 -7q-42 0 -81.5 12t-72 36.5t-57 62.5t-37.5 89q-54 -84 -122.5 -129.5t-156.5 -45.5q-119 0 -191 63
q10 -43 13.5 -88.5t3.5 -84.5v-240h-123q-52 0 -80 26.5t-28 76.5v1258h247z" />
    <glyph glyph-name="Aogonek" unicode="&#x104;" horiz-adv-x="1387" 
d="M1386 -187q18 0 23 -16l38 -91q-33 -22 -82.5 -36.5t-104.5 -14.5q-98 0 -151 41t-53 106q0 55 36.5 106t104.5 92h-7q-35 0 -57 17.5t-33 43.5l-108 295h-599l-108 -295q-8 -23 -31 -42t-57 -19h-210l569 1446h274l568 -1446h-52q-20 -11 -39 -25t-34 -31.5t-24 -37.5
t-9 -42q0 -30 19 -47.5t53 -17.5q19 0 31 2t19.5 5t13 5t10.5 2zM462 546h461l-176 481q-13 32 -27 75.5t-28 94.5q-14 -51 -27.5 -95t-26.5 -77z" />
    <glyph glyph-name="Eth" unicode="&#xd0;" horiz-adv-x="1540" 
d="M-1 804h181v642h551q165 0 300 -53.5t231 -149t149 -228.5t53 -292t-53 -292t-149 -229t-231 -149t-300 -53h-551v651h-181v153zM1188 723q0 119 -32 213.5t-91 160t-143.5 100.5t-190.5 35h-281v-428h266v-153h-266v-437h281q106 0 190.5 35t143.5 100.5t91 160
t32 213.5z" />
    <glyph glyph-name="Eogonek" unicode="&#x118;" horiz-adv-x="1150" 
d="M1021 -187q18 0 23 -16l38 -91q-33 -22 -82.5 -36.5t-104.5 -14.5q-98 0 -151 41t-53 106q0 55 36.5 106t104.5 92h-671v1446h912v-214h-642v-401h506v-207h-506v-409h642v-215h-92q-20 -11 -39 -25t-34 -31.5t-24 -37.5t-9 -42q0 -30 19 -47.5t53 -17.5q19 0 31 2
t19.5 5t13 5t10.5 2z" />
    <glyph glyph-name="Hbar" unicode="&#x126;" horiz-adv-x="1561" 
d="M1390 1193h151v-157h-151v-1036h-270v632h-679v-632h-270v1036h-151v157h151v253h270v-253h679v253h270v-253zM1120 824v212h-679v-212h679z" />
    <glyph glyph-name="Iogonek" unicode="&#x12e;" horiz-adv-x="593" 
d="M432 -187q18 0 23 -16l38 -91q-33 -22 -82.5 -36.5t-104.5 -14.5q-98 0 -151 41t-53 106q0 55 36.5 106t104.5 92h-82v1446h270v-1446h-39q-20 -11 -39 -25t-34 -31.5t-24 -37.5t-9 -42q0 -30 19 -47.5t53 -17.5q19 0 31 2t19.5 5t13 5t10.5 2z" />
    <glyph glyph-name="Lslash" unicode="&#x141;" horiz-adv-x="1071" 
d="M462 870l358 179v-181q0 -41 -34 -54l-324 -168v-424h578v-222h-847v527l-180 -90v186q0 34 30 48l150 78v697h269v-576z" />
    <glyph glyph-name="Lcaron" unicode="&#x13d;" horiz-adv-x="1039" 
d="M161 0zM430 222h578v-222h-847v1446h269v-1224zM808 1488q28 0 34.5 -12.5t6.5 -24.5q0 -9 -3.5 -24.5t-14 -45t-29.5 -76t-49 -118.5q-13 -29 -33 -37t-52 -8h-88l62 346h166z" />
    <glyph glyph-name="Eng" unicode="&#x14a;" horiz-adv-x="1541" 
d="M302 1446q17 0 29.5 -1.5t22 -6t18.5 -13t20 -22.5l758 -968q-3 35 -5 69t-2 63v879h237v-1407q0 -87 -20 -159.5t-63.5 -125t-113 -82t-167.5 -29.5q-53 0 -95.5 9.5t-91.5 30.5l27 107q8 29 22.5 38.5t31.5 9.5q15 0 32.5 -6t50.5 -6q75 0 112.5 45t37.5 140v40
l-751 958q3 -32 4.5 -63.5t1.5 -57.5v-888h-237v1446h141v0z" />
    <glyph glyph-name="Thorn" unicode="&#xde;" horiz-adv-x="1231" 
d="M430 261v-261h-269v1446h269v-248h201q145 0 251 -34t175 -95t102.5 -146t33.5 -186q0 -105 -35 -192.5t-105 -150.5t-175.5 -98t-246.5 -35h-201zM430 471h201q74 0 129 18.5t91.5 53t54.5 84t18 110.5q0 58 -18 105t-54 80t-91 50.5t-130 17.5h-201v-519z" />
    <glyph glyph-name="Scedilla" unicode="&#x15e;" horiz-adv-x="1097" 
d="M440 -234q14 0 30.5 -7.5t48.5 -7.5q33 0 49.5 12.5t16.5 30.5q0 29 -36 41.5t-111 23.5l43 126q-63 4 -124.5 19t-117.5 39.5t-105 57.5t-88 73l79 129q10 14 26 23.5t34 9.5q25 0 54 -20.5t69 -45.5t93.5 -45.5t128.5 -20.5q115 0 178 54.5t63 156.5q0 57 -28.5 93
t-75.5 60.5t-107 41.5t-122 37t-122 48t-107 73t-75.5 112.5t-28.5 166.5q0 79 31.5 154t91.5 133t148 93t202 35q128 0 236 -40t184 -112l-67 -127q-12 -21 -25.5 -30.5t-33.5 -9.5q-21 0 -45.5 15.5t-58.5 34.5t-79.5 34.5t-107.5 15.5q-56 0 -98 -13.5t-70.5 -37.5
t-42.5 -57.5t-14 -73.5q0 -51 28.5 -85t75.5 -58t107 -43t123 -40.5t123 -50t107 -72t75.5 -106.5t28.5 -153q0 -87 -26.5 -164.5t-77.5 -138.5t-125.5 -102t-170.5 -56l-15 -53q94 -22 132 -59.5t38 -89.5q0 -34 -17.5 -61t-50 -46t-77.5 -29t-99 -10q-41 0 -76.5 5.5
t-70.5 16.5l23 77q6 23 29 23z" />
    <glyph glyph-name="Tbar" unicode="&#x166;" horiz-adv-x="1225" 
d="M1183 1446v-221h-436v-372h313v-153h-313v-700h-269v700h-313v153h313v372h-436v221h1141z" />
    <glyph glyph-name="Uogonek" unicode="&#x172;" horiz-adv-x="1485" 
d="M907 -189q18 0 23 -16l38 -91q-33 -22 -82.5 -36.5t-104.5 -14.5q-98 0 -151 41t-53 106q0 51 31 98.5t90 87.5q-129 7 -232 54t-175 126t-110 184.5t-38 229.5v866h269v-865q0 -83 22.5 -150t65 -114.5t104 -73.5t139.5 -26t139.5 26t103.5 73t64.5 114t22.5 150v866
h269v-866q0 -116 -33 -215.5t-95.5 -176.5t-152.5 -127.5t-204 -67.5q-19 -11 -36 -25t-30.5 -30.5t-21.5 -35.5t-8 -40q0 -30 19 -47.5t53 -17.5q19 0 31 2t19.5 5t13 5t10.5 2z" />
    <glyph glyph-name="aogonek" unicode="&#x105;" horiz-adv-x="1015" 
d="M945 -187q18 0 23 -16l38 -91q-33 -22 -82.5 -36.5t-104.5 -14.5q-98 0 -151 41t-53 106q0 56 37.5 107.5t107.5 93.5q-19 4 -31 15.5t-20 34.5l-22 73q-39 -35 -76 -61.5t-77 -44.5t-85.5 -27t-100.5 -9q-65 0 -120 17.5t-95 52.5t-62 87t-22 121q0 58 30.5 114.5
t101.5 102t189 75.5t294 34v60q0 103 -44 152.5t-127 49.5q-60 0 -99.5 -14t-69.5 -31.5t-54.5 -31.5t-54.5 -14q-26 0 -44 13.5t-29 31.5l-44 79q177 162 426 162q90 0 161 -29.5t120 -82t74.5 -125.5t25.5 -160v-648q-20 -11 -39 -25t-34 -31.5t-24 -37.5t-9 -42
q0 -30 19 -47.5t53 -17.5q19 0 31 2t19.5 5t13 5t10.5 2zM424 154q76 0 131.5 27.5t108.5 83.5v173q-108 -5 -180.5 -18.5t-116.5 -34.5t-63 -49t-19 -61q0 -65 38.5 -93t100.5 -28z" />
    <glyph glyph-name="_238" horiz-adv-x="2107" 
d="M857 809q-11 -14 -21.5 -22t-30.5 -8q-19 0 -37 11.5t-43 26t-59.5 26t-85.5 11.5q-65 0 -114 -23.5t-81.5 -67.5t-48.5 -106.5t-16 -141.5q0 -82 17.5 -146t50.5 -107.5t80 -66t106 -22.5t95.5 14.5t61.5 32t43.5 32t41.5 14.5q30 0 45 -23l71 -90q-41 -48 -89 -80.5
t-99.5 -52t-106 -27.5t-108.5 -8q-95 0 -179 35.5t-147 103.5t-99.5 166.5t-36.5 224.5q0 113 32.5 209.5t95.5 167t156 110.5t214 40q19 0 37 -1t36 -3q-20 44 -31 90t-11 94q0 73 26.5 136t77.5 109.5t125 72.5t169 26q68 0 120 -12.5t93.5 -27.5t75 -27.5t65.5 -12.5
l-1 -1v-570q60 57 132 92t169 35q84 0 149 -28.5t108.5 -80t66 -123t22.5 -157.5v-653h-247v653q0 94 -43 145.5t-131 51.5q-64 0 -120 -29t-106 -79v-742h-247v1368q-6 18 -22.5 32t-39 23.5t-50 14t-55.5 4.5q-54 0 -95.5 -16.5t-69 -45.5t-41.5 -68.5t-14 -85.5
q0 -66 27 -128t74 -116q30 -17 56.5 -37.5t51.5 -45.5z" />
    <glyph glyph-name="_239" horiz-adv-x="2047" 
d="M857 809q-11 -14 -21.5 -22t-30.5 -8q-19 0 -37 11.5t-43 26t-59.5 26t-85.5 11.5q-65 0 -114 -23.5t-81.5 -67.5t-48.5 -106.5t-16 -141.5q0 -82 17.5 -146t50.5 -107.5t80 -66t106 -22.5t95.5 14.5t61.5 32t43.5 32t41.5 14.5q30 0 45 -23l71 -90q-41 -48 -89 -80.5
t-99.5 -52t-106 -27.5t-108.5 -8q-95 0 -179 35.5t-147 103.5t-99.5 166.5t-36.5 224.5q0 113 32.5 209.5t95.5 167t156 110.5t214 40q19 0 37 -1t36 -3q-20 44 -31 90t-11 94q0 73 26.5 136t77.5 109.5t125 72.5t169 26q68 0 120 -12.5t93.5 -27.5t75 -27.5t65.5 -12.5
l-1 -1v-850h46q25 0 39.5 6.5t29.5 26.5l255 315q16 21 35.5 32t50.5 11h226l-319 -381q-34 -45 -74 -69q21 -15 37.5 -35t31.5 -43l342 -498h-223q-29 0 -50 9.5t-35 34.5l-262 389q-14 23 -29 30t-45 7h-56v-470h-247v1368q-6 18 -22.5 32t-39 23.5t-50 14t-55.5 4.5
q-54 0 -95.5 -16.5t-69 -45.5t-41.5 -68.5t-14 -85.5q0 -66 27 -128t74 -116q30 -17 56.5 -37.5t51.5 -45.5z" />
    <glyph glyph-name="_240" horiz-adv-x="1700" 
d="M1391 1017h274v-176h-274v-556q0 -48 23.5 -75t64.5 -27q22 0 38 5.5t27.5 11.5t20.5 11.5t18 5.5q11 0 18 -5.5t15 -16.5l74 -120q-54 -45 -124 -68t-145 -23q-134 0 -205.5 75.5t-71.5 208.5v573h-105q-20 0 -34 13t-14 39v98l178 29q10 28 19.5 60t17 65t12.5 64.5
t5 60.5q0 40 -10 75.5t-34 62.5t-64 42.5t-100 15.5q-70 0 -123.5 -22t-90 -58.5t-55 -84.5t-18.5 -100q0 -56 21.5 -112.5t65.5 -107.5q29 -17 55.5 -37.5t51.5 -44.5l-65 -90q-11 -14 -21.5 -22t-30.5 -8q-19 0 -37 11.5t-43 26t-59.5 26t-85.5 11.5q-65 0 -114 -23.5
t-81.5 -67.5t-48.5 -106.5t-16 -141.5q0 -82 17.5 -146t50.5 -107.5t80 -66t106 -22.5t95.5 14.5t61.5 32t43.5 32t41.5 14.5q30 0 45 -23l71 -90q-41 -48 -89 -80.5t-99.5 -52t-106 -27.5t-108.5 -8q-95 0 -179 35.5t-147 103.5t-99.5 166.5t-36.5 224.5q0 113 32.5 209.5
t95.5 167t156 110.5t214 40q20 0 39.5 -1.5t38.5 -3.5q-17 39 -24.5 80t-7.5 82q0 71 25 137t75.5 117t126 82t177.5 31q100 0 171.5 -29t117 -76t66.5 -108t21 -124v-212z" />
    <glyph glyph-name="_241" horiz-adv-x="1702" 
d="M1391 1017h274v-176h-274v-556q0 -48 23.5 -75t64.5 -27q22 0 38 5.5t27.5 11.5t20.5 11.5t18 5.5q11 0 18 -5.5t15 -16.5l74 -120q-54 -45 -124 -68t-145 -23q-134 0 -205.5 75.5t-71.5 208.5v573h-105q-20 0 -34 13t-14 39v98l178 29q10 28 19.5 60t17 65t12.5 64.5
t5 60.5q0 40 -10 75.5t-34 62.5t-64 42.5t-100 15.5q-70 0 -123.5 -22t-90 -58.5t-55 -84.5t-18.5 -100q0 -56 21.5 -112.5t65.5 -107.5q29 -17 55.5 -37.5t51.5 -44.5l-65 -90q-11 -14 -21.5 -22t-30.5 -8q-19 0 -37 11.5t-43 26t-59.5 26t-85.5 11.5q-65 0 -114 -23.5
t-81.5 -67.5t-48.5 -106.5t-16 -141.5q0 -82 17.5 -146t50.5 -107.5t80 -66t106 -22.5t95.5 14.5t61.5 32t43.5 32t41.5 14.5q30 0 45 -23l71 -90q-68 -80 -153.5 -117.5t-175.5 -46.5l-14 -50q94 -22 132 -59.5t38 -89.5q0 -34 -17.5 -61t-50 -46t-77.5 -29t-99 -10
q-41 0 -76.5 5.5t-70.5 16.5l23 77q6 23 29 23q14 0 30.5 -7.5t48.5 -7.5q33 0 49.5 12.5t16.5 30.5q0 29 -36 41.5t-111 23.5l44 131q-84 12 -156 52.5t-125 107t-83.5 158.5t-30.5 207q0 113 32.5 209.5t95.5 167t156 110.5t214 40q20 0 39.5 -1.5t38.5 -3.5
q-17 39 -24.5 80t-7.5 82q0 71 25 137t75.5 117t126 82t177.5 31q100 0 171.5 -29t117 -76t66.5 -108t21 -124v-212z" />
    <glyph glyph-name="dcaron" unicode="&#x10f;" horiz-adv-x="1135" 
d="M69 0zM862 0q-49 0 -62 45l-21 99q-32 -36 -67 -65t-75.5 -50t-87 -32.5t-100.5 -11.5q-84 0 -154 35t-120.5 101.5t-78 164.5t-27.5 224q0 114 31 212t89 170t139 112.5t182 40.5q86 0 147 -27.5t109 -73.5v542h247v-1486h-151zM533 181q77 0 131 32t102 91v460
q-42 51 -91.5 72t-106.5 21q-56 0 -101 -21t-77 -63.5t-49 -108t-17 -154.5q0 -90 14.5 -152.5t41.5 -102t66 -57t87 -17.5zM1318 1488q28 0 34.5 -12.5t6.5 -24.5q0 -9 -3.5 -24.5t-14 -45t-29.5 -76t-49 -118.5q-13 -29 -33 -37t-52 -8h-88l62 346h166z" />
    <glyph glyph-name="dcroat" unicode="&#x111;" horiz-adv-x="1136" 
d="M541 1284h226v202h248v-202h143v-153h-143v-1131h-152q-49 0 -62 45l-21 98q-62 -71 -142.5 -114.5t-187.5 -43.5q-84 0 -153.5 32.5t-120 96.5t-78 159t-27.5 221q0 115 31 210.5t88.5 164.5t139 107.5t182.5 38.5q86 0 146.5 -27t108.5 -73v216h-226v153zM534 181
q77 0 131 31.5t102 90.5v432q-42 51 -91.5 71t-106.5 20q-56 0 -101 -18.5t-76.5 -58.5t-48.5 -103t-17 -152q0 -90 14.5 -150t41.5 -96t65.5 -51.5t86.5 -15.5z" />
    <glyph glyph-name="eth" unicode="&#xf0;" horiz-adv-x="1141" 
d="M384 1062q-15 23 -9 45t31 36l75 43q-32 13 -67.5 24t-74.5 22q-16 4 -29 13.5t-20.5 24t-8 34t8.5 43.5l28 85q101 -17 194.5 -48t176.5 -79l176 113l49 -80q14 -22 8 -42.5t-27 -34.5l-81 -46q57 -51 103 -113.5t79 -137.5t50.5 -164t17.5 -192q0 -147 -33.5 -262.5
t-98.5 -196t-161 -122.5t-220 -42q-104 0 -193 33.5t-154 96.5t-102.5 153.5t-37.5 205.5q0 92 32.5 175t92 145.5t144 99.5t188.5 37q190 0 313 -134q-21 106 -71 182t-135 133l-197 -128zM557 173q58 0 107 21t85 67.5t57.5 120.5t24.5 181q-16 37 -39 70t-55 57.5
t-73.5 38.5t-92.5 14q-64 0 -113 -21t-82 -58t-50 -86t-17 -106q0 -73 19.5 -128.5t53 -93.5t79 -57.5t96.5 -19.5z" />
    <glyph glyph-name="eogonek" unicode="&#x119;" horiz-adv-x="1068" 
d="M742 -187q18 0 23 -16l38 -91q-33 -22 -82.5 -36.5t-104.5 -14.5q-98 0 -151 41t-53 106q0 51 31 98t89 87q-100 6 -185 44t-147.5 107t-98 168.5t-35.5 228.5q0 105 34 197.5t97.5 161t155 108.5t206.5 40q97 0 179 -31t141 -90.5t92.5 -146t33.5 -197.5
q0 -56 -12 -75.5t-46 -19.5h-635q6 -79 28 -136.5t58 -95t85.5 -56t109.5 -18.5t103.5 14t76 31t57 31t47.5 14q31 0 46 -23l71 -90q-60 -70 -139.5 -107t-162.5 -51q-18 -11 -35.5 -24.5t-31 -30.5t-21.5 -36t-8 -40q0 -30 19 -47.5t53 -17.5q19 0 31 2t19.5 5t13 5t10.5 2
zM564 865q-108 0 -169 -61t-78 -173h466q0 48 -13.5 90.5t-40.5 74.5t-68.5 50.5t-96.5 18.5z" />
    <glyph glyph-name="_275" horiz-adv-x="1135" 
d="M1013 1026v-950q0 -94 -35 -173.5t-100.5 -137t-160 -90t-213.5 -32.5q-67 0 -124 10t-104 28t-85.5 41.5t-68.5 50.5l57 94q11 17 26 26t38 9t43.5 -13t48 -28t66 -28t96.5 -13q67 0 117.5 19.5t84 52.5t50.5 77.5t17 94.5v78q-32 -33 -63 -57.5t-65 -40.5t-73.5 -23.5
t-87.5 -7.5q-95 0 -170.5 35.5t-128 101.5t-81 161.5t-28.5 215.5q0 109 31 203.5t89 164.5t139 110t182 40q48 0 87.5 -8.5t73 -24.5t62 -38t54.5 -50l13 57q13 45 62 45h151zM543 208q72 0 123.5 31.5t99.5 91.5v434q-42 51 -91.5 71.5t-106.5 20.5q-112 0 -178 -82
t-66 -248q0 -167 57.5 -243t161.5 -76z" />
    <glyph glyph-name="hcircumflex" unicode="&#x125;" horiz-adv-x="1128" 
d="M0 0zM122 0v1486h247v-571q60 57 132 92t169 35q84 0 149 -28.5t108.5 -80t66 -123t22.5 -157.5v-653h-247v653q0 94 -43 145.5t-131 51.5q-64 0 -120 -29t-106 -79v-742h-247zM597 1549h-179q-15 0 -36.5 5.5t-44.5 32.5l-82 106q-5 5 -8.5 11t-6.5 11l-15 -22l-82 -106
q-23 -27 -44.5 -32.5t-36.5 -5.5h-171l241 275h224z" />
    <glyph glyph-name="hbar" unicode="&#x127;" horiz-adv-x="1128" 
d="M-22 1291h144v195h247v-195h281v-153h-281v-254q60 57 132 92t169 35q84 0 148.5 -28.5t108 -80t66 -123t22.5 -157.5v-622h-247v622q0 94 -43 145.5t-130 51.5q-64 0 -120.5 -29t-105.5 -79v-711h-247v1138h-144v153z" />
    <glyph glyph-name="iogonek" unicode="&#x12f;" horiz-adv-x="508" 
d="M66 0zM378 1026v-1026h-248v1026h248zM412 1325q0 -32 -13 -60t-34.5 -49t-50.5 -33.5t-62 -12.5q-32 0 -60.5 12.5t-49.5 33.5t-33.5 49t-12.5 60q0 33 12.5 62t33.5 50t49.5 33.5t60.5 12.5q33 0 62 -12.5t50.5 -33.5t34.5 -50t13 -62zM396 -187q18 0 23 -16l38 -91
q-33 -22 -82.5 -36.5t-104.5 -14.5q-98 0 -151 41t-53 106q0 59 42 113.5t120 96.5l128 -12q-20 -11 -39 -25t-34 -31.5t-24 -37.5t-9 -42q0 -30 19 -47.5t53 -17.5q19 0 31 2t19.5 5t13 5t10.5 2z" />
    <glyph glyph-name="_279" horiz-adv-x="1069" 
d="M359 1026v-652q0 -94 45 -145.5t132 -51.5q30 0 53.5 4.5t42 14.5t35 26.5t33.5 41.5v762h247v-1001q0 -83 -22.5 -153.5t-70.5 -121.5t-124 -79.5t-183 -28.5q-35 0 -71 4.5t-67 14.5l16 132q4 20 17.5 26t52.5 6q102 0 153.5 44.5t51.5 155.5v62q-49 -50 -104.5 -75.5
t-136.5 -25.5q-86 0 -151 28.5t-108.5 79.5t-65.5 122.5t-22 157.5v652h247zM402 1325q0 -32 -13 -60t-35 -49t-51 -33.5t-62 -12.5q-32 0 -60 12.5t-49.5 33.5t-34 49t-12.5 60q0 33 12.5 62t34 50t49.5 33.5t60 12.5q33 0 62 -12.5t51 -33.5t35 -50t13 -62zM987 1325
q0 -32 -13 -60t-34.5 -49t-50.5 -33.5t-62 -12.5q-32 0 -60.5 12.5t-49.5 33.5t-33.5 49t-12.5 60q0 33 12.5 62t33.5 50t49.5 33.5t60.5 12.5q33 0 62 -12.5t50.5 -33.5t34.5 -50t13 -62z" />
    <glyph glyph-name="uni0237" unicode="&#x237;" horiz-adv-x="510" 
d="M378 1026v-1061q0 -67 -17.5 -126t-56 -103.5t-101 -70t-152.5 -25.5q-35 0 -65 4.5t-61 14.5l9 133q3 20 15.5 25.5t50.5 5.5q37 0 62 7.5t40.5 24t22 43.5t6.5 67v1061h247z" />
    <glyph glyph-name="kgreenlandic" unicode="&#x138;" horiz-adv-x="1069" 
d="M369 1026v-391h46q25 0 39.5 6.5t29.5 26.5l255 315q16 21 35.5 32t50.5 11h226l-319 -381q-34 -45 -74 -69q21 -15 37.5 -35t31.5 -43l342 -498h-223q-29 0 -50 9.5t-35 34.5l-262 389q-14 23 -29 30t-45 7h-56v-470h-247v1026h247z" />
    <glyph glyph-name="lslash" unicode="&#x142;" horiz-adv-x="659" 
d="M454 1486v-526l178 72v-141q0 -41 -34 -54l-144 -61v-776h-247v690l-168 -69v146q0 34 30 48l138 59v612h247z" />
    <glyph glyph-name="lcaron" unicode="&#x13e;" horiz-adv-x="496" 
d="M125 0zM372 1486v-1486h-247v1486h247zM694 1488q28 0 34.5 -12.5t6.5 -24.5q0 -9 -3.5 -24.5t-14 -45t-29.5 -76t-49 -118.5q-13 -29 -33 -37t-52 -8h-88l62 346h166z" />
    <glyph glyph-name="eng" unicode="&#x14b;" horiz-adv-x="1128" 
d="M122 0v1026h151q48 0 63 -45l17 -81q31 32 65.5 58t73 45t82.5 29t96 10q84 0 149 -28.5t108.5 -80t66 -123t22.5 -157.5v-617q0 -87 -21.5 -160t-67 -125.5t-116.5 -82t-169 -29.5q-53 0 -95.5 10t-91.5 30l27 108q8 29 22.5 38t32.5 9q15 0 32.5 -6t49.5 -6
q75 0 112.5 45t37.5 140v646q0 94 -43 145.5t-131 51.5q-64 0 -120 -29t-106 -79v-742h-247z" />
    <glyph glyph-name="thorn" unicode="&#xfe;" horiz-adv-x="1136" 
d="M122 -335v1821h247v-586q61 65 138 103.5t180 38.5q84 0 153.5 -34.5t120 -100.5t78 -163t27.5 -223q0 -115 -31 -213t-88.5 -170t-139 -112.5t-182.5 -40.5q-44 0 -81 8t-68 23.5t-57 37t-50 48.5v-437h-247zM602 850q-77 0 -131.5 -32.5t-101.5 -91.5v-460
q42 -52 91.5 -72.5t107.5 -20.5q56 0 101 21t76.5 64t48.5 108.5t17 154.5q0 90 -14.5 152.5t-41.5 101.5t-65.5 57t-87.5 18z" />
    <glyph glyph-name="scedilla" unicode="&#x15f;" horiz-adv-x="879" 
d="M303 -234q14 0 30.5 -7.5t48.5 -7.5q33 0 49.5 12.5t16.5 30.5q0 29 -36 41.5t-111 23.5l43 129q-88 9 -166 42t-129 80l57 94q11 17 26 26t38 9t43.5 -13t47.5 -28t63.5 -28t92.5 -13q44 0 75.5 10.5t52 27.5t30 39.5t9.5 46.5q0 36 -21.5 59t-57 40t-81 30.5t-93 29.5
t-93 37.5t-81 54.5t-57 81t-21.5 116q0 63 25 120t73.5 99.5t121 68t167.5 25.5q106 0 193 -35t145 -92l-56 -89q-10 -16 -21 -22.5t-28 -6.5q-18 0 -38.5 10t-47.5 22.5t-61.5 22.5t-81.5 10q-73 0 -114.5 -31t-41.5 -81q0 -33 21.5 -55.5t57 -39.5t80.5 -30.5t91.5 -29.5
t91.5 -36.5t80.5 -52t57 -75.5t21.5 -106q0 -66 -21.5 -123t-63 -101t-103 -73t-141.5 -39l-14 -50q94 -22 132 -59.5t38 -89.5q0 -34 -17.5 -61t-50 -46t-77.5 -29t-99 -10q-41 0 -76.5 5.5t-70.5 16.5l23 77q6 23 29 23z" />
    <glyph glyph-name="_287" horiz-adv-x="1632" 
d="M748 826q-10 -16 -21 -22.5t-28 -6.5q-18 0 -38.5 10t-47.5 22.5t-61.5 22.5t-81.5 10q-73 0 -114.5 -31t-41.5 -81q0 -33 21.5 -55.5t57 -39.5t80.5 -30.5t91.5 -29.5t91.5 -36.5t80.5 -52t57 -75.5t21.5 -106q0 -74 -26.5 -136.5t-78.5 -108t-128.5 -71t-176.5 -25.5
q-53 0 -103.5 9.5t-97 26.5t-86 40t-69.5 50l57 94q11 17 26 26t38 9t43.5 -13t47.5 -28t63.5 -28t92.5 -13q44 0 75.5 10.5t52 27.5t30 39.5t9.5 46.5q0 36 -21.5 59t-57 40t-81 30.5t-93 29.5t-93 37.5t-81 54.5t-57 81t-21.5 116q0 63 25 120t73.5 99.5t121 68
t167.5 25.5q28 0 54 -2.5t52 -7.5q-32 78 -32 162q0 75 23 142.5t71 118.5t123 81t179 30q101 0 174 -29t120 -77t69.5 -109t22.5 -124v-210h274v-176h-274v-556q0 -48 23.5 -75t64.5 -27q23 0 38.5 5.5t27 11.5t20.5 11.5t18 5.5q11 0 18 -5.5t15 -16.5l74 -120
q-54 -45 -124 -68t-145 -23q-134 0 -205.5 75.5t-71.5 208.5v573h-104q-20 0 -34.5 13t-14.5 39v98l178 29q10 28 19.5 59.5t17 64t12.5 64t5 59.5q0 40 -11.5 76.5t-37.5 63.5t-67.5 43t-101.5 16q-71 0 -123.5 -21t-87.5 -58t-52 -86t-17 -105q0 -67 29.5 -132.5
t88.5 -122.5q8 -6 15 -12.5t15 -13.5z" />
    <glyph glyph-name="_288" horiz-adv-x="1633" 
d="M303 -234q14 0 30.5 -7.5t48.5 -7.5q33 0 49.5 12.5t16.5 30.5q0 29 -36 41.5t-111 23.5l43 129q-88 9 -166 42t-129 80l57 94q11 17 26 26t38 9t43.5 -13t47.5 -28t63.5 -28t92.5 -13q44 0 75.5 10.5t52 27.5t30 39.5t9.5 46.5q0 36 -21.5 59t-57 40t-81 30.5t-93 29.5
t-93 37.5t-81 54.5t-57 81t-21.5 116q0 63 25 120t73.5 99.5t121 68t167.5 25.5q28 0 54 -2.5t52 -7.5q-32 78 -32 162q0 75 23 142.5t71 118.5t123 81t179 30q101 0 174 -29t120 -77t69.5 -109t22.5 -124v-210h274v-176h-274v-556q0 -48 23.5 -75t64.5 -27q23 0 38.5 5.5
t27 11.5t20.5 11.5t18 5.5q11 0 18 -5.5t15 -16.5l74 -120q-54 -45 -124 -68t-145 -23q-134 0 -205.5 75.5t-71.5 208.5v573h-104q-20 0 -34.5 13t-14.5 39v98l178 29q10 28 19.5 59.5t17 64t12.5 64t5 59.5q0 40 -11.5 76.5t-37.5 63.5t-67.5 43t-101.5 16
q-71 0 -123.5 -21t-87.5 -58t-52 -86t-17 -105q0 -67 29.5 -132.5t88.5 -122.5q8 -6 15 -12.5t15 -13.5l-56 -89q-10 -16 -21 -22.5t-28 -6.5q-18 0 -38.5 10t-47.5 22.5t-61.5 22.5t-81.5 10q-73 0 -114.5 -31t-41.5 -81q0 -33 21.5 -55.5t57 -39.5t80.5 -30.5t91.5 -29.5
t91.5 -36.5t80.5 -52t57 -75.5t21.5 -106q0 -66 -21.5 -123t-63 -101t-103 -73t-141.5 -39l-14 -50q94 -22 132 -59.5t38 -89.5q0 -34 -17.5 -61t-50 -46t-77.5 -29t-99 -10q-41 0 -76.5 5.5t-70.5 16.5l23 77q6 23 29 23z" />
    <glyph glyph-name="longs" unicode="&#x17f;" horiz-adv-x="603" 
d="M195 0v840l-89 14q-29 6 -46.5 20.5t-17.5 41.5v101h153v76q0 88 26.5 158t76 119t120.5 75t160 26q71 0 132 -19l-8 -128q-2 -23 -26 -27.5t-56 -4.5q-44 0 -77 -11t-55.5 -35.5t-34 -64t-11.5 -96.5v-1085h-247z" />
    <glyph glyph-name="tcaron" unicode="&#x165;" horiz-adv-x="743" 
d="M33 0zM463 -16q-134 0 -205.5 75.5t-71.5 208.5v573h-105q-20 0 -34 13t-14 39v98l165 27l52 280q5 20 19 31t36 11h128v-323h274v-176h-274v-556q0 -48 23.5 -75t64.5 -27q23 0 38.5 5.5t27 11.5t20.5 11.5t18 5.5q11 0 18 -5.5t15 -16.5l74 -120q-54 -45 -124 -68
t-145 -23zM827 1488q28 0 34.5 -12.5t6.5 -24.5q0 -9 -3.5 -24.5t-14 -45t-29.5 -76t-49 -118.5q-13 -29 -33 -37t-52 -8h-88l62 346h166z" />
    <glyph glyph-name="tbar" unicode="&#x167;" horiz-adv-x="752" 
d="M59 694h130v147h-105q-20 0 -34 13t-14 39v98l165 27l52 280q5 20 19 31t36 11h128v-323h274v-176h-274v-147h281v-152h-281v-257q0 -48 23.5 -75t64.5 -27q23 0 38.5 5.5t27 11.5t20.5 11.5t18 5.5q11 0 18 -5.5t15 -16.5l74 -120q-54 -45 -124 -68t-145 -23
q-134 0 -205.5 75.5t-71.5 208.5v274h-130v152z" />
    <glyph glyph-name="uogonek" unicode="&#x173;" horiz-adv-x="1128" 
d="M1046 -187q18 0 23 -16l38 -91q-33 -22 -82.5 -36.5t-104.5 -14.5q-98 0 -151 41t-53 106q0 55 36.5 106t104.5 92h-2q-49 0 -62 45l-17 82q-32 -32 -66 -58.5t-73 -45.5t-83 -29t-96 -10q-84 0 -148.5 28.5t-108.5 80.5t-66.5 123.5t-22.5 157.5v652h247v-652
q0 -94 43.5 -145.5t130.5 -51.5q64 0 120 28.5t106 78.5v742h247v-1026q-20 -11 -39 -25t-34 -31.5t-24 -37.5t-9 -42q0 -30 19 -47.5t53 -17.5q19 0 31 2t19.5 5t13 5t10.5 2z" />
    <glyph glyph-name="_300" horiz-adv-x="813" 
d="M720 841h-137q-20 0 -32.5 10t-18.5 25l-25 75h-202l-25 -75q-5 -14 -17.5 -24.5t-32.5 -10.5h-138l235 605h159zM347 1076h118l-44 131q-9 20 -15 49q-6 -29 -15 -50z" />
    <glyph glyph-name="_301" horiz-adv-x="571" 
d="M427 917q-24 0 -36.5 6.5t-21.5 28.5l-10 23q-39 -33 -75 -49.5t-89 -16.5q-75 0 -118 38t-43 110q0 27 13.5 56.5t48 54.5t93 42t149.5 19v16q0 41 -17 58t-49 17q-26 0 -42.5 -5.5t-30 -11.5t-27 -11.5t-33.5 -5.5q-17 0 -29.5 9t-20.5 22l-31 56q49 42 108.5 63
t128.5 21q49 0 88 -16t66.5 -44.5t42 -67.5t14.5 -84v-328h-79zM250 1026q26 0 46 8.5t42 29.5v61q-43 -2 -70 -7.5t-42.5 -13.5t-21 -17.5t-5.5 -20.5q0 -22 12.5 -31t38.5 -9z" />
    <glyph glyph-name="_302" horiz-adv-x="627" 
d="M244 1395q29 26 64.5 42.5t86.5 16.5q40 0 74.5 -18t60 -52.5t40 -84.5t14.5 -113q0 -60 -16.5 -111t-46.5 -87.5t-71.5 -57.5t-90.5 -21q-47 0 -76 18t-53 45l-3 -23q-4 -19 -14 -25.5t-26 -6.5h-115v762h172v-284zM329 1320q-26 0 -45.5 -10t-39.5 -32v-211
q17 -16 35 -21.5t38 -5.5q18 0 34 7t28 24t19 45t7 70q0 39 -5.5 64.5t-15 41t-23.5 22t-32 6.5z" />
    <glyph glyph-name="_303" horiz-adv-x="539" 
d="M460 1309q-8 -9 -15 -14.5t-21 -5.5q-12 0 -21.5 5.5t-21 11.5t-26 11.5t-36.5 5.5q-54 0 -77.5 -37t-23.5 -103q0 -69 26 -106t74 -37q26 0 40.5 6.5t25 14.5t20 14.5t24.5 6.5q20 0 31 -15l50 -64q-26 -30 -54.5 -48.5t-57 -28.5t-57 -13.5t-55.5 -3.5
q-48 0 -92.5 18.5t-78 53.5t-53.5 86t-20 116q0 57 17 106.5t50.5 86t83.5 57.5t115 21q64 0 112 -20.5t87 -60.5z" />
    <glyph glyph-name="_304" horiz-adv-x="627" 
d="M448 917q-31 0 -42 29l-9 39q-31 -34 -70 -55t-94 -21q-41 0 -75.5 18.5t-59.5 53.5t-39.5 85t-14.5 113q0 60 16.5 111t46 88t71 58t91.5 21q39 0 65.5 -11.5t48.5 -28.5v262h173v-762h-108zM303 1046q26 0 44.5 9t35.5 29v214q-17 15 -35.5 21t-37.5 6q-18 0 -34.5 -7
t-28.5 -23.5t-19 -45t-7 -70.5q0 -38 5.5 -63.5t16 -41t25.5 -22t35 -6.5z" />
    <glyph glyph-name="_305" horiz-adv-x="590" 
d="M304 1454q54 0 98 -16.5t76 -48t49.5 -76.5t17.5 -103q0 -40 -7.5 -53t-31.5 -13h-292q9 -54 38.5 -77.5t75.5 -23.5q25 0 43.5 6t33.5 13.5t28.5 13.5t28.5 6q22 0 31 -15l51 -64q-26 -30 -55.5 -48.5t-60 -28.5t-60 -13.5t-56.5 -3.5q-56 0 -105 18t-86 53.5
t-58.5 88.5t-21.5 124q0 52 18.5 99.5t52.5 83.5t82.5 57t109.5 21zM307 1331q-39 0 -61.5 -21t-30.5 -63h175q0 14 -4 29t-13.5 27t-25.5 20t-40 8z" />
    <glyph glyph-name="_306" horiz-adv-x="416" 
d="M106 917v411l-29 7q-19 5 -31 14t-12 28v71h72v23q0 45 15 82.5t43 64.5t68.5 41.5t92.5 14.5q20 0 36 -2.5t35 -6.5l-4 -88q-1 -34 -44 -34q-35 0 -55 -15.5t-20 -62.5v-17h117v-122h-111v-409h-173z" />
    <glyph glyph-name="_307" horiz-adv-x="588" 
d="M270 1456q66 0 119 -25h162v-66q0 -14 -7.5 -22.5t-27.5 -13.5l-34 -9q5 -20 5 -37q0 -40 -17 -71.5t-46 -54t-69 -34.5t-85 -12h-21.5t-21.5 2q-12 -7 -12 -17q0 -15 24 -19t60.5 -5t78.5 -3.5t78.5 -16t60.5 -41.5t24 -80q0 -36 -17.5 -70.5t-51.5 -61.5t-83.5 -43.5
t-113.5 -16.5q-63 0 -108.5 11.5t-75 30.5t-44 44t-14.5 51q0 34 19 56t53 36q-17 12 -27.5 30.5t-10.5 47.5q0 24 17 51t54 44q-42 22 -66 58t-24 84q0 40 17 72.5t47 54.5t70.5 34t87.5 12zM382 904q0 15 -15.5 21t-41 8.5t-57 2.5t-63.5 3q-23 -18 -23 -36q0 -10 3.5 -19
t14 -16t29.5 -11t49 -4q58 0 81 15.5t23 35.5zM270 1220q35 0 50 15.5t15 41.5q0 27 -15 42.5t-50 15.5t-50 -15.5t-15 -42.5q0 -25 15 -41t50 -16z" />
    <glyph glyph-name="_308" horiz-adv-x="626" 
d="M72 917v762h173v-274q26 22 58 35.5t77 13.5q43 0 76.5 -15.5t56 -42.5t34.5 -64t12 -80v-335h-172v335q0 32 -15.5 50t-45.5 18q-23 0 -43 -9t-38 -24v-370h-173z" />
    <glyph glyph-name="_309" horiz-adv-x="312" 
d="M242 1415v-498h-172v498h172zM261 1584q0 -21 -8 -39t-22.5 -32t-33.5 -22t-40 -8t-39 8t-31.5 22t-21.5 32t-8 39t8 39.5t21.5 32t31.5 21.5t39 8t40 -8t33.5 -21.5t22.5 -32t8 -39.5z" />
    <glyph glyph-name="_310" horiz-adv-x="313" 
d="M243 1415v-486q0 -39 -9.5 -73.5t-32 -61t-60 -41.5t-92.5 -15q-20 0 -37 2t-36 7l6 94q1 11 6.5 17.5t24.5 6.5q18 0 29 2.5t17 9.5t8.5 19.5t2.5 32.5v486h173zM260 1584q0 -21 -8 -39t-22 -32t-33 -22t-40 -8t-39 8t-31.5 22t-21.5 32t-8 39t8 39.5t21.5 32t31.5 21.5
t39 8t40 -8t33 -21.5t22 -32t8 -39.5z" />
    <glyph glyph-name="_311" horiz-adv-x="631" 
d="M245 1679v-420h23q15 0 24.5 4t14.5 16l84 139q7 15 21 21.5t34 6.5h158l-123 -181q-18 -33 -50 -50q14 -8 24 -19.5t18 -28.5l136 -250h-157q-19 0 -34.5 6.5t-20.5 23.5l-83 177q-5 14 -14 17.5t-24 3.5h-31v-228h-173v762h173z" />
    <glyph glyph-name="_312" horiz-adv-x="317" 
d="M244 1679v-762h-172v762h172z" />
    <glyph glyph-name="_313" horiz-adv-x="914" 
d="M72 917v529h108q30 0 38 -31l4 -28q28 28 60 47.5t82 19.5q47 0 77 -24t47 -63q28 48 74.5 67.5t95.5 19.5q93 0 141 -52.5t48 -149.5v-335h-172v335q0 68 -62 68q-29 0 -47 -18t-18 -50v-335h-173v335q0 33 -14.5 50.5t-48.5 17.5q-19 0 -35.5 -7.5t-31.5 -20.5v-375
h-173z" />
    <glyph glyph-name="uni207F" unicode="&#x207f;" horiz-adv-x="624" 
d="M73 917v529h91q32 0 45 -35l8 -31q32 32 69 53t93 21q43 0 77 -15.5t56.5 -42.5t34.5 -63.5t12 -79.5v-336h-172v336q0 32 -15.5 49t-45.5 17q-23 0 -43 -9t-39 -25v-368h-171z" />
    <glyph glyph-name="_315" horiz-adv-x="629" 
d="M315 1454q60 0 110.5 -18.5t86.5 -54t56 -85.5t20 -113q0 -64 -20 -114.5t-56 -86t-86.5 -54.5t-110.5 -19t-110.5 19t-87 54.5t-56.5 86t-20 114.5q0 63 20 113t56.5 85.5t87 54t110.5 18.5zM315 1041q49 0 72 34t23 107t-23 106.5t-72 33.5q-50 0 -73 -33.5t-23 -106.5
t23 -107t73 -34z" />
    <glyph glyph-name="_316" horiz-adv-x="628" 
d="M72 753v693h108q16 0 27 -7t15 -22l6 -39q32 35 71.5 57t96.5 22q40 0 74.5 -18.5t60 -53.5t40 -85.5t14.5 -113.5q0 -60 -16.5 -111t-46.5 -87.5t-71.5 -57.5t-91.5 -21q-39 0 -65.5 11t-48.5 28v-195h-173zM335 1320q-32 0 -52 -10.5t-38 -30.5v-212q17 -16 35 -21.5
t38 -5.5q18 0 34.5 7t28.5 24t19 45t7 70q0 39 -5.5 64.5t-15 41t-23 22t-28.5 6.5z" />
    <glyph glyph-name="_317" horiz-adv-x="627" 
d="M555 1446v-693h-173v217q-29 -28 -65 -44.5t-85 -16.5q-40 0 -74.5 18.5t-60 53.5t-40 85t-14.5 113q0 60 16.5 111t46 88t71 58t91.5 21q48 0 78 -16t55 -41l5 17q11 29 41 29h108zM297 1046q27 0 46.5 10t38.5 30v213q-17 14 -35.5 20t-37.5 6q-41 0 -65 -33t-24 -113
q0 -38 6 -63.5t16.5 -41t24.5 -22t30 -6.5z" />
    <glyph glyph-name="_318" horiz-adv-x="429" 
d="M72 917v529h103q26 0 35.5 -9t14.5 -32l5 -42q25 43 56.5 68.5t71.5 25.5q19 0 33 -5t25 -13l-12 -132q-4 -22 -26 -22q-9 0 -25 2t-27 2q-32 0 -50 -16t-31 -43v-313h-173z" />
    <glyph glyph-name="_319" horiz-adv-x="498" 
d="M412 1320q-12 -19 -32 -19q-12 0 -23.5 4.5t-24.5 9.5t-28.5 9.5t-34.5 4.5q-53 0 -53 -32q0 -17 17.5 -27t44 -18.5t57 -18.5t57 -27t44 -44t17.5 -70q0 -40 -14.5 -73.5t-43 -58t-71 -38t-97.5 -13.5q-27 0 -54.5 5t-53 14t-48 20.5t-37.5 25.5l40 67q7 11 17 17.5
t27 6.5q15 0 26 -5.5t23 -12.5t28 -12.5t40 -5.5q33 0 45 10.5t12 22.5q0 18 -17.5 27.5t-44.5 17.5t-57.5 18t-57.5 28.5t-44.5 49t-17.5 79.5q0 35 13 66t39.5 54.5t66.5 37.5t94 14q58 0 107.5 -20.5t78.5 -50.5z" />
    <glyph glyph-name="_320" horiz-adv-x="448" 
d="M264 909q-78 0 -119.5 44.5t-41.5 116.5v256h-40q-14 0 -23 9t-9 26v69l84 19l33 118q6 27 37 27h90v-146h127v-122h-127v-244q0 -14 7.5 -24t22.5 -10t20 3.5t16 3.5q8 0 12.5 -3.5t9.5 -11.5l53 -85q-32 -23 -71 -34.5t-81 -11.5z" />
    <glyph glyph-name="_321" horiz-adv-x="624" 
d="M238 1446v-336q0 -31 15.5 -48.5t45.5 -17.5q23 0 42.5 8.5t38.5 23.5v370h173v-529h-108q-29 0 -42 29l-7 27q-30 -29 -65 -46.5t-86 -17.5q-43 0 -76 15.5t-56 42.5t-35 63.5t-12 79.5v336h172z" />
    <glyph glyph-name="_322" horiz-adv-x="564" 
d="M360 917h-157l-202 529h144q18 0 31 -8t17 -22l64 -204q8 -35 14.5 -66.5t12.5 -63.5q6 32 13.5 64t16.5 67l66 203q3 14 15.5 22t29.5 8h138z" />
    <glyph glyph-name="_323" horiz-adv-x="875" 
d="M20 1446h143q17 0 31 -9t17 -29l45 -193q5 -30 9.5 -57.5t9.5 -54.5q12 53 28 112l58 195q5 17 17 26.5t29 9.5h69q19 0 32 -9.5t18 -28.5l56 -193q7 -29 12.5 -56t10.5 -53q5 26 10.5 52.5t10.5 55.5l50 196q3 18 16 27t30 9h135l-166 -529h-137q-21 0 -30 30l-68 232
q-5 18 -9 36.5t-8 36.5q-3 -19 -7.5 -37.5t-9.5 -37.5l-70 -230q-8 -30 -35 -30h-135z" />
    <glyph glyph-name="_324" horiz-adv-x="610" 
d="M190 1191l-167 255h166q18 0 26.5 -4.5t14.5 -15.5l88 -150q4 11 8 22.5t9 23.5l56 101q11 23 38 23h158l-168 -247l175 -282h-166q-18 0 -29 9.5t-18 21.5l-86 152q-6 -19 -14 -38l-66 -114q-6 -12 -17.5 -21.5t-28.5 -9.5h-153z" />
    <glyph glyph-name="_325" horiz-adv-x="565" 
d="M293 797q-11 -25 -23.5 -34.5t-35.5 -9.5h-130l102 216l-208 477h154q19 0 30 -9t16 -21l73 -193q12 -36 21 -70q5 19 11 37.5t12 36.5l72 189q5 13 17.5 21.5t28.5 8.5h133z" />
    <glyph glyph-name="_326" horiz-adv-x="513" 
d="M467 1375q0 -39 -26 -70l-201 -256h223v-132h-421v74q0 11 6 28t22 36l200 259h-215v132h412v-71z" />
    <glyph glyph-name="_327" 
d="M252 1861q20 0 34.5 -1t26 -5.5t21.5 -12.5t21 -22l218 -271h-179q-29 0 -45.5 3.5t-36.5 20.5l-319 288h259z" />
    <glyph glyph-name="_328" 
d="M836 1861l-324 -286q-20 -18 -38 -22t-46 -4h-179l209 271q10 14 20 22.5t22 12.5t26.5 5t34.5 1h275z" />
    <glyph glyph-name="_329" 
d="M757 1549h-179q-15 0 -36.5 5.5t-44.5 32.5l-82 106q-5 5 -8.5 11t-6.5 11l-15 -22l-82 -106q-23 -27 -44.5 -32.5t-36.5 -5.5h-171l241 275h224z" />
    <glyph glyph-name="_330" 
d="M43 1824h179q15 0 36 -4t38 -26l89 -117l15 -22q5 8 15 22l88 116q17 23 38.5 27t36.5 4h179l-241 -275h-232z" />
    <glyph glyph-name="uni0315" unicode="&#x315;" 
d="M502 1488q28 0 34.5 -12.5t6.5 -24.5q0 -9 -3.5 -24.5t-14 -45t-29.5 -76t-49 -118.5q-13 -29 -33 -37t-52 -8h-88l62 346h166z" />
    <glyph glyph-name="_332" 
d="M525 1699q22 0 38.5 9t27 22.5t15.5 30t5 32.5h151q0 -50 -13.5 -95.5t-40 -81t-65 -56.5t-88.5 -21q-51 0 -88.5 16t-68.5 34.5t-56.5 34.5t-52.5 16q-23 0 -39 -9t-26 -23t-15 -31t-5 -33h-153q0 49 14 95.5t40.5 82t65 57t88.5 21.5q51 0 89 -16t68 -34.5t56 -34.5
t53 -16z" />
    <glyph glyph-name="_333" 
d="M314 1667q0 -27 -11 -51t-29.5 -42t-43.5 -28t-53 -10q-26 0 -49.5 10t-41.5 28t-29 42t-11 51t11 51.5t29 43t41.5 29.5t49.5 11q28 0 53 -11t43.5 -29.5t29.5 -43t11 -51.5zM754 1667q0 -27 -10.5 -51t-29 -42t-43 -28t-51.5 -10q-28 0 -52.5 10t-42.5 28t-28.5 42
t-10.5 51t10.5 51.5t28.5 43t42.5 29.5t52.5 11q27 0 51.5 -11t43 -29.5t29 -43t10.5 -51.5z" />
    <glyph glyph-name="_334" 
d="M100 1712h600v-142h-600v142z" />
    <glyph glyph-name="_335" 
d="M400 1546q-75 0 -136 16.5t-104 50t-66.5 85t-23.5 121.5h189q0 -30 7 -53t23.5 -39t43.5 -24.5t67 -8.5q79 0 110 32.5t31 92.5h189q0 -64 -23.5 -114.5t-66.5 -86t-104 -54t-136 -18.5z" />
    <glyph glyph-name="_336" 
d="M192 1706q0 43 17 78.5t45.5 60.5t65.5 39t78 14q42 0 80.5 -14t67 -39t45.5 -60.5t17 -78.5q0 -42 -17 -76t-45.5 -59t-67 -38.5t-80.5 -13.5q-41 0 -78 13.5t-65.5 38.5t-45.5 59t-17 76zM311 1706q0 -39 23 -64t67 -25q40 0 64 25t24 64q0 42 -24 66.5t-64 24.5
q-44 0 -67 -24.5t-23 -66.5z" />
    <glyph glyph-name="_337" 
d="M177 1332q0 46 18 84t48.5 65t70.5 41.5t84 14.5q45 0 86 -14.5t72 -41.5t49.5 -65t18.5 -84q0 -45 -18.5 -82.5t-49.5 -63.5t-72 -40.5t-86 -14.5q-44 0 -84 14.5t-70.5 40.5t-48.5 63.5t-18 82.5zM311 1332q0 -39 23.5 -64t67.5 -25q40 0 64 25t24 64q0 42 -24 66
t-64 24q-44 0 -67.5 -24t-23.5 -66zM789 1888l-247 -261q-18 -20 -35.5 -28t-45.5 -8h-148l142 244q15 26 35 39.5t60 13.5h239z" />
    <glyph glyph-name="_338" 
d="M204 1670q0 40 16 73t42.5 57t61.5 37t73 13q40 0 75.5 -13t62.5 -37t43 -57t16 -73q0 -39 -16 -71.5t-43 -55.5t-62.5 -36t-75.5 -13q-38 0 -73 13t-61.5 36t-42.5 55.5t-16 71.5zM314 1670q0 -37 21.5 -60.5t63.5 -23.5q38 0 61.5 23.5t23.5 60.5q0 40 -23.5 63
t-61.5 23q-42 0 -63.5 -23t-21.5 -63zM850 2127l-308 -210q-20 -18 -37.5 -22t-45.5 -4h-179l192 195q10 14 20 22.5t22 12.5t26.5 5t34.5 1h275z" />
    <glyph glyph-name="_339" 
d="M538 1824l-206 -239q-20 -17 -37 -26.5t-45 -9.5h-117l138 222q16 25 41 39t66 14h160zM935 1824l-258 -239q-20 -18 -40.5 -27t-49.5 -9h-132l183 222q20 24 46 38.5t67 14.5h184z" />
    <glyph glyph-name="_340" 
d="M551 1696q0 -30 -12.5 -56.5t-33.5 -47t-49 -32.5t-59 -12q-29 0 -56 12t-47.5 32.5t-32.5 47t-12 56.5q0 31 12 58.5t32.5 48t47.5 32.5t56 12q31 0 59 -12t49 -32.5t33.5 -48t12.5 -58.5z" />
    <glyph glyph-name="_341" 
d="M480 -90q28 0 34.5 -12.5t6.5 -24.5q0 -9 -2.5 -25t-9.5 -41.5t-21 -62.5t-36 -88q-14 -28 -34 -36t-52 -8h-87l50 298h151z" />
    <glyph glyph-name="_342" 
d="M505 1167h-213l109 283h155z" />
    <glyph glyph-name="Gamma" unicode="&#x393;" horiz-adv-x="1103" 
d="M1073 1239h-642v-1239h-270v1446h912v-207z" />
    <glyph glyph-name="uni0394" unicode="&#x394;" horiz-adv-x="1395" 
d="M18 76q0 73 32 155l513 1215h274l507 -1211q32 -79 32 -158v-77h-1358v76zM294 213h779l-325 814q-14 35 -29.5 83.5t-29.5 105.5q-14 -58 -29.5 -106t-29.5 -85z" />
    <glyph glyph-name="Theta" unicode="&#x398;" horiz-adv-x="1616" 
d="M540 834h534v-215h-534v215zM1540 723q0 -159 -52.5 -294.5t-148.5 -234.5t-231 -154.5t-300 -55.5q-164 0 -299 55.5t-231.5 154.5t-149.5 234.5t-53 294.5t53 294.5t149.5 234.5t231.5 154.5t299 55.5q110 0 207 -25.5t178 -72t145.5 -113t109.5 -148.5t68.5 -178
t23.5 -202zM1265 723q0 119 -32 213.5t-91 160.5t-143.5 101t-190.5 35t-190.5 -35t-144 -101t-91.5 -160.5t-32 -213.5t32 -213.5t91.5 -160t144 -100.5t190.5 -35t190.5 35t143.5 100.5t91 160t32 213.5z" />
    <glyph glyph-name="Lambda" unicode="&#x39b;" horiz-adv-x="1386" 
d="M1398 0h-232q-35 0 -57 17.5t-33 43.5l-340 883q-17 43 -33 94.5t-30 107.5q-11 -56 -25.5 -107.5t-31.5 -94.5l-339 -883q-8 -23 -31.5 -42t-57.5 -19h-201l584 1446h243z" />
    <glyph glyph-name="Xi" unicode="&#x39e;" horiz-adv-x="1245" 
d="M1173 1446v-222h-1097v222h1097zM1173 222v-222h-1097v222h1097zM324 841h598v-230h-598v230z" />
    <glyph glyph-name="Pi" unicode="&#x3a0;" horiz-adv-x="1541" 
d="M1380 0h-270v1239h-679v-1239h-270v1446h1219v-1446z" />
    <glyph glyph-name="Sigma" unicode="&#x3a3;" horiz-adv-x="1225" 
d="M792 746q0 -14 -2 -28t-9.5 -30.5t-21.5 -36.5t-36 -45l-266 -318q-32 -37 -54 -57.5t-45 -34.5q43 6 79.5 8.5t67.5 2.5h652v-207h-1097v100q0 29 14.5 58.5t34.5 51.5l445 512l-463 534q-13 15 -22 35t-9 40v115h1097v-207h-620q-55 0 -99 3.5t-87 11.5
q48 -24 86.5 -52.5t70.5 -63.5l215 -265q22 -25 35.5 -43.5t21 -33t10 -26.5t2.5 -24z" />
    <glyph glyph-name="Phi" unicode="&#x3a6;" horiz-adv-x="1704" 
d="M980 1371q153 -2 276.5 -53t210.5 -139t134 -204.5t47 -248.5q0 -89 -21 -171t-61 -153.5t-98.5 -130t-132.5 -101t-163.5 -66t-191.5 -24.5v-192h-255v192q-154 1 -277.5 52.5t-210.5 139t-133.5 204.5t-46.5 250q0 132 47 248.5t134 204.5t210.5 139t276.5 53v188h255
v-188zM317 726q0 -90 29 -169.5t82 -139t128.5 -94.5t168.5 -36v877q-93 -2 -168.5 -37t-128.5 -94.5t-82 -138t-29 -168.5zM1387 726q0 90 -29 168.5t-82 137.5t-128 94t-168 37v-876q93 2 168 37t128 94t82 138.5t29 169.5z" />
    <glyph glyph-name="Psi" unicode="&#x3a8;" horiz-adv-x="1666" 
d="M266 1446q43 0 66.5 -26t23.5 -64v-429q0 -85 17.5 -150t57.5 -111t105 -72t160 -32v884h270v-884q96 6 161.5 32t106 71.5t58 111t17.5 150.5v429q0 38 23.5 64t66.5 26h180v-519q0 -128 -39 -231.5t-116.5 -178.5t-192 -119t-265.5 -52v-346h-270v346q-151 8 -265 52.5
t-190.5 119.5t-115.5 178.5t-39 230.5v519h180z" />
    <glyph glyph-name="uni03A9" unicode="&#x3a9;" horiz-adv-x="1631" 
d="M925 304q69 12 129.5 54.5t106 107.5t71.5 149t26 179q0 111 -35.5 193.5t-96 136.5t-141 81t-170.5 27t-170.5 -27t-140.5 -81t-95.5 -136.5t-35.5 -193.5q0 -95 26 -179t71.5 -149t106 -107.5t129.5 -54.5v-304h-531q-42 0 -66 23.5t-24 60.5v137h230q48 0 97.5 -5
t97.5 -12q-89 32 -163.5 89t-128 134t-83 171t-29.5 199q0 144 54.5 265.5t150.5 210.5t225.5 139t279.5 50t279.5 -50t225 -139t150.5 -210.5t55 -265.5q0 -105 -29.5 -199t-83 -171t-128 -134t-163.5 -89q48 7 97 12t97 5h230v-137q0 -37 -24 -60.5t-66 -23.5h-531v304z
" />
    <glyph glyph-name="alpha" unicode="&#x3b1;" horiz-adv-x="1205" 
d="M1044 -10q-77 0 -140 40t-95 126q-34 -47 -74.5 -79.5t-83.5 -53t-87.5 -29.5t-86.5 -9q-87 0 -162 35t-130 100.5t-86.5 159.5t-31.5 212q0 125 35 227t96.5 174.5t145.5 112t182 39.5q97 0 172 -36.5t126 -93.5l16 66q15 45 62 45h151l-52 -530q-2 -48 -6 -95.5
t-4 -90.5q0 -36 11 -62t29.5 -43t43 -25t51.5 -8h73v-98q0 -16 -10.5 -31t-30.5 -27t-49 -19t-65 -7zM539 181q43 0 81 16t67.5 51t49.5 90.5t28 133.5l24 246q-14 28 -35.5 53t-49 44t-61.5 30.5t-73 11.5q-48 0 -93 -20t-79.5 -63t-55 -111t-20.5 -164q0 -87 17.5 -148
t47.5 -98.5t69 -54.5t83 -17z" />
    <glyph glyph-name="beta" unicode="&#x3b2;" horiz-adv-x="1136" 
d="M623 -15q-159 0 -255 96v-428h-247v1271q0 124 27 223.5t82.5 169.5t140.5 107t201 37q109 0 187 -31.5t128 -82.5t73.5 -116t23.5 -132q0 -106 -51.5 -186t-149.5 -118q69 -19 123.5 -54t91.5 -82.5t56.5 -106.5t19.5 -126q0 -88 -32 -168t-91.5 -140.5t-142.5 -96.5
t-185 -36zM533 886q52 0 93 10t68.5 32.5t42 59t14.5 89.5q0 106 -49 155.5t-134 49.5q-53 0 -91 -20t-62 -63.5t-35.5 -113t-11.5 -169.5v-643q36 -52 81.5 -75.5t111.5 -23.5q67 0 117 22t82 59.5t48 88.5t16 108q0 74 -22.5 121t-59 73.5t-83.5 36.5t-96 10h-62v193h32z
" />
    <glyph glyph-name="_355" horiz-adv-x="1151" 
d="M1014 1158q0 -88 -49.5 -156.5t-153.5 -127.5q65 -9 116 -41t86.5 -83t54 -117t18.5 -142q0 -116 -40 -209.5t-109 -159.5t-162.5 -101.5t-200.5 -35.5q-124 0 -214.5 48t-149.5 136t-87.5 212t-28.5 276q0 196 42.5 346.5t118.5 252.5t181.5 154.5t231.5 52.5
q97 0 163.5 -28.5t107 -72.5t58 -98t17.5 -106zM335 613q3 -119 21.5 -202t50.5 -135t76.5 -75.5t100.5 -23.5q59 0 107.5 24t83 66t53.5 100t19 126q0 69 -21 119.5t-59 78.5t-93 30.5t-122 -25.5zM641 1274q-57 0 -107.5 -26t-90.5 -83t-67 -146.5t-37 -216.5l202 74
q64 25 108.5 55t72.5 63.5t40.5 71t12.5 76.5q0 61 -31.5 96.5t-102.5 35.5z" />
    <glyph glyph-name="gamma" unicode="&#x3b3;" horiz-adv-x="1118" 
d="M437 -335v436q-16 89 -36 179.5t-45 174.5t-54.5 156.5t-64.5 126.5t-76 85t-88 31h-38v90q0 19 5 35.5t18.5 29t37.5 19.5t61 7q99 0 174.5 -51t130 -144t90.5 -224.5t57 -291.5q39 71 72.5 150t60 160t46.5 161.5t34 154.5q8 44 28 60t45 16h210q-25 -113 -68.5 -233
t-99.5 -239.5t-121 -234t-132 -216.5v-438h-247z" />
    <glyph glyph-name="delta" unicode="&#x3b4;" horiz-adv-x="1118" 
d="M921 1264q-5 -32 -19.5 -42t-44.5 -10q-17 0 -52 8t-78.5 18t-90.5 18t-87 8q-66 0 -93.5 -19.5t-27.5 -48.5q0 -30 27 -56t71 -53t100 -57.5t115 -67.5t115 -83.5t100 -106.5t71 -136t27 -171q0 -104 -33.5 -191.5t-97 -151.5t-155.5 -99.5t-208 -35.5q-117 0 -209 36
t-156 99.5t-98 151.5t-34 192q0 161 82.5 276t252.5 180q-42 25 -79 52.5t-64 60t-43 72t-16 89.5q0 57 22.5 104.5t68 82t115 54t164.5 19.5q38 0 86 -3t98 -8.5t99.5 -13t90.5 -16.5zM808 459q0 72 -20.5 127.5t-54.5 99.5t-79 78.5t-94 64.5q-47 -19 -91 -48.5
t-77.5 -72.5t-53.5 -100.5t-20 -133.5q0 -62 14.5 -116.5t44.5 -95.5t75.5 -65t107.5 -24q55 0 100.5 19.5t78.5 56.5t51 90t18 120z" />
    <glyph glyph-name="epsilon" unicode="&#x3b5;" horiz-adv-x="914" 
d="M797 820q-14 -22 -26 -28.5t-29 -6.5q-16 0 -34 11t-44.5 23.5t-63.5 23.5t-90 11q-89 0 -134.5 -33t-45.5 -85q0 -55 52 -89t149 -34h165v-161h-165q-111 0 -160.5 -35t-49.5 -97q0 -32 12.5 -58.5t36 -46.5t58 -31t78.5 -11q60 0 98.5 14.5t66 32t48.5 32t44 14.5
q30 0 45 -23l71 -90q-41 -48 -89.5 -80t-99.5 -51t-102 -27t-96 -8q-84 0 -160 21t-134.5 60.5t-93 97.5t-34.5 133q0 84 47 143t124 92q-41 19 -69.5 45.5t-46.5 56t-26.5 61t-8.5 62.5q0 57 26.5 108.5t79 90t130 61.5t180.5 23q118 0 203 -35t144 -92z" />
    <glyph glyph-name="zeta" unicode="&#x3b6;" horiz-adv-x="809" 
d="M829 1344q3 -13 -0.5 -27.5t-16 -34.5t-37 -47.5t-64.5 -66.5q-38 -37 -83.5 -81.5t-90.5 -95t-87.5 -107t-75.5 -118t-52.5 -127.5t-19.5 -135q0 -58 15 -99.5t45.5 -72.5t77 -54t109.5 -43q90 -29 147 -60.5t89.5 -66.5t44.5 -74.5t12 -83.5q0 -69 -23 -137t-67 -138
l-192 74q9 14 18.5 32t17.5 37.5t13 40t5 38.5t-7 35t-28 35t-59 36t-99 37q-87 27 -153.5 63t-111.5 85t-68 113.5t-23 150.5q0 110 36.5 212.5t102 202t155 198t195.5 200.5q-104 -18 -220 -18h-116q-28 0 -47.5 7.5t-31.5 19t-17.5 25.5t-5.5 28v119h690z" />
    <glyph glyph-name="eta" unicode="&#x3b7;" horiz-adv-x="1186" 
d="M1074 -335h-247v988q0 94 -43 145.5t-130 51.5q-65 0 -121 -29t-105 -79v-742h-248v724q0 67 -29 99t-84 32h-49v98q0 16 6.5 31t21.5 27t38.5 19t58.5 7q80 0 143 -36t93 -111q34 34 73 62t82.5 48t91.5 31t102 11q84 0 149 -28.5t108.5 -80t66 -123t22.5 -157.5v-988z
" />
    <glyph glyph-name="theta" unicode="&#x3b8;" horiz-adv-x="1205" 
d="M604 1463q115 0 208.5 -47t160 -140t102.5 -231t36 -319q0 -182 -36 -320.5t-102.5 -232t-160 -141t-208.5 -47.5t-209 47.5t-161 141t-103.5 232t-36.5 320.5q0 181 36.5 319t103.5 231t161 140t209 47zM604 177q60 0 107 27t81 85t53.5 148.5t24.5 216.5h-535
q4 -126 24 -216.5t54 -148.5t82 -85t109 -27zM604 1274q-59 0 -106 -26t-81 -81t-54.5 -140.5t-26.5 -204.5h532q-6 119 -26 204.5t-53.5 140.5t-80 81t-104.5 26z" />
    <glyph glyph-name="_362" horiz-adv-x="1320" 
d="M189 601q0 53 -16.5 79.5t-66.5 26.5h-72v98q0 32 41 57.5t116 25.5q51 0 96 -14.5t78 -48t52 -88.5t19 -136v-175q0 -117 48 -183t145 -66q60 0 110.5 29.5t86.5 96t56 173t20 260.5q0 29 -1 57.5t-3 56.5q-142 1 -252.5 22.5t-186.5 63t-116 102.5t-40 142
q0 60 22.5 111t65.5 88.5t104.5 58.5t138.5 21q182 0 303 -107.5t169 -325.5h183v-97q0 -31 -19 -55t-61 -24h-79q2 -28 3 -56.5t1 -57.5q0 -171 -32.5 -310t-97.5 -237.5t-164.5 -151.5t-232.5 -53q-104 0 -182.5 31t-131 88.5t-78.5 139.5t-26 183v175zM529 1172
q0 -37 19.5 -63.5t61.5 -44.5t107.5 -27t157.5 -11q-13 58 -33 105.5t-47.5 81t-63 51.5t-79.5 18q-60 0 -91.5 -29.5t-31.5 -80.5z" />
    <glyph glyph-name="iota" unicode="&#x3b9;" horiz-adv-x="560" 
d="M115 1026h247v-722q0 -66 27 -100t90 -34h93v-75q0 -26 -16.5 -45.5t-43.5 -33t-61.5 -20.5t-69.5 -7q-66 0 -115.5 22.5t-83 63t-50.5 95.5t-17 120v736z" />
    <glyph glyph-name="lambda" unicode="&#x3bb;" horiz-adv-x="1099" 
d="M419 923l-87 253q-11 31 -23 50.5t-29 31t-40.5 16t-56.5 4.5h-77v91q0 19 6.5 35.5t23 28.5t43.5 19t68 7q42 0 85 -8t82 -29.5t71.5 -58.5t53.5 -95l366 -1000q17 -51 46.5 -74.5t87.5 -23.5h62v-98q0 -26 -8 -42.5t-22.5 -25.5t-35.5 -12.5t-47 -3.5q-44 0 -87 9
t-82 32.5t-71.5 64t-54.5 104.5l-133 355q-10 25 -15.5 47t-8.5 42q-6 -21 -13 -42t-16 -44l-199 -510q-8 -18 -25 -32t-47 -14h-212z" />
    <glyph glyph-name="uni03BC" unicode="&#x3bc;" horiz-adv-x="1209" 
d="M369 1026v-606q0 -93 44 -149t130 -56q80 0 136 44t91 123v644h247v-723q0 -68 32 -100t88 -32h73v-98q0 -16 -10.5 -31t-31 -26.5t-49 -18.5t-64.5 -7q-42 0 -81 12t-71.5 36.5t-57.5 62.5t-38 89q-54 -84 -123 -129.5t-157 -45.5q-118 0 -190 63q10 -43 13.5 -88.5
t3.5 -84.5v-240h-123q-52 0 -80.5 26.5t-28.5 76.5v1258h247z" />
    <glyph glyph-name="nu" unicode="&#x3bd;" horiz-adv-x="1044" 
d="M1030 1026q-29 -130 -75.5 -267t-106.5 -270.5t-131 -258.5t-149 -230h-153l-407 1026h204q28 0 46.5 -13t24.5 -33l198 -548q28 -87 46 -171q44 74 78.5 160.5t61 177.5t46.5 182t36 175q5 39 25.5 54.5t45.5 15.5h210z" />
    <glyph glyph-name="xi" unicode="&#x3be;" horiz-adv-x="809" 
d="M803 1344q0 -22 -8.5 -39t-22 -29t-31 -18.5t-35.5 -6.5h-93q-58 0 -105.5 -17t-81.5 -47.5t-52.5 -73t-18.5 -93.5q0 -85 65 -125.5t186 -40.5h100v-192h-153q-63 0 -108.5 -15t-75 -42t-43.5 -65t-14 -84t16 -80t51 -62t90.5 -53t134.5 -54q60 -22 100.5 -48t66 -56.5
t36.5 -66t11 -76.5q0 -76 -23 -145.5t-68 -139.5l-191 74q9 14 18 32t17 37.5t13 38.5t5 36q0 20 -5.5 37.5t-19.5 33t-38 28t-61 23.5q-78 22 -150 54.5t-127 82t-88 118t-33 163.5q0 42 10.5 89.5t34.5 92.5t64.5 85t100.5 69q-73 36 -111.5 94t-38.5 139q0 44 14 82.5
t38.5 71t57.5 59t71 47.5h-125q-56 0 -78.5 25.5t-22.5 68.5v90h721v-102z" />
    <glyph glyph-name="_368" horiz-adv-x="815" 
d="M799 1344q0 -22 -8.5 -39t-22 -29t-30.5 -18.5t-35 -6.5h-101q-64 0 -111 -15t-78 -41.5t-46.5 -62.5t-15.5 -79q0 -104 65.5 -151.5t185.5 -47.5h101v-192h-154q-63 0 -108.5 -15t-74.5 -42t-43 -65t-14 -84t16 -80t50.5 -62t90 -53t134.5 -54q60 -22 100.5 -48
t66 -56.5t36.5 -66t11 -76.5q0 -76 -23 -145.5t-67 -139.5l-192 74q9 14 18 32t17 37.5t13 38.5t5 36q0 20 -5.5 37.5t-19.5 33t-38 28t-60 23.5q-78 22 -150 54.5t-127 82t-88 118t-33 163.5q0 44 11 92.5t37 95t70 87.5t109 68q-81 37 -124 105.5t-43 175.5q0 94 33.5 167
t95 122t148.5 74.5t194 25.5h204v-102z" />
    <glyph glyph-name="rho" unicode="&#x3c1;" horiz-adv-x="1139" 
d="M109 581q0 105 31.5 190.5t92 145.5t149.5 93t203 33q99 0 187.5 -35.5t155 -103t105.5 -164t39 -219.5q0 -115 -31 -213t-88.5 -170t-139 -112.5t-182.5 -40.5q-82 0 -151.5 27t-123.5 75v-422h-247v916zM356 283q45 -59 102.5 -84.5t115.5 -25.5q56 0 101 21t77 64
t49 108.5t17 154.5q0 90 -17 152.5t-48 101.5t-73.5 57t-94.5 18q-47 0 -89 -17.5t-73 -51.5t-49 -84.5t-18 -115.5v-298z" />
    <glyph glyph-name="sigma" unicode="&#x3c3;" horiz-adv-x="1230" 
d="M945 837q63 -56 99 -140t36 -199q0 -112 -35.5 -206t-101.5 -162.5t-159.5 -106.5t-208.5 -38q-114 0 -207.5 35.5t-160.5 102t-104 162t-37 215.5q0 123 40.5 220.5t116.5 165t184.5 103t245.5 35.5h586v-117q0 -11 -5.5 -23.5t-15.5 -23t-24.5 -17t-32.5 -6.5h-216z
M826 509q0 53 -7 105t-22.5 96.5t-39.5 77.5t-57 49h-49q-174 0 -252 -85t-78 -257q0 -320 253 -320q129 0 190.5 83t61.5 251z" />
    <glyph glyph-name="sigma1" unicode="&#x3c2;" horiz-adv-x="944" 
d="M856 809q-11 -14 -21.5 -22t-30.5 -8q-19 0 -37 11.5t-43 26t-59.5 26t-85.5 11.5q-65 0 -114 -22.5t-81.5 -61.5t-48.5 -91.5t-16 -112.5q0 -89 20.5 -144.5t63.5 -93t109 -64t156 -57.5q60 -22 101 -47.5t66.5 -56t36.5 -66t11 -77.5q0 -76 -23 -145.5t-68 -139.5
l-192 74q9 15 18.5 33t17.5 37t13 38.5t5 36.5q0 19 -5.5 36.5t-20 33t-38.5 28t-60 23.5q-62 19 -121 40.5t-110.5 50.5t-94.5 68t-74 92.5t-48 123.5t-17 161q0 99 32.5 188.5t96 156.5t156.5 106.5t214 39.5q115 0 201.5 -37t155.5 -106z" />
    <glyph glyph-name="tau" unicode="&#x3c4;" horiz-adv-x="955" 
d="M17 943q0 31 20.5 55t62.5 24h833v-97q0 -43 -22 -65t-63 -22h-284v-532q0 -66 27 -100t90 -34h92v-75q0 -26 -16.5 -45.5t-43.5 -33t-61.5 -20.5t-69.5 -7q-65 0 -115 22.5t-83.5 63t-50.5 95.5t-17 120v546h-299v105z" />
    <glyph glyph-name="upsilon" unicode="&#x3c5;" horiz-adv-x="1119" 
d="M358 1026v-652q0 -47 14 -83.5t39.5 -61.5t61.5 -38.5t79 -13.5q42 0 84 17t75 59.5t54 113.5t21 179q0 51 -5.5 100.5t-13.5 99t-17 99.5t-15 101q-2 22 4 37.5t16 25t23 13.5t25 4h170q10 -63 19.5 -122.5t16.5 -117.5t11.5 -117.5t4.5 -122.5q0 -147 -41 -253.5
t-109 -175t-156.5 -101t-182.5 -32.5q-102 0 -181 27.5t-133 78t-82.5 122.5t-28.5 162v652h247z" />
    <glyph glyph-name="phi" unicode="&#x3c6;" horiz-adv-x="1546" 
d="M311 513q0 -78 23 -141t67 -108t107.5 -70t143.5 -27v533q0 91 24.5 155.5t70.5 106t111.5 61t146.5 19.5q106 0 194 -38.5t150.5 -106t97 -159t34.5 -197.5q0 -128 -44 -230t-123 -174t-188.5 -111.5t-241.5 -40.5v-320h-232v320q-131 2 -239 41t-185.5 108.5
t-120.5 166.5t-43 214q0 91 27 171t76.5 146.5t118.5 118t153 85.5l65 -99q9 -14 10 -30t-3.5 -30t-13 -25.5t-18.5 -15.5q-78 -45 -123 -128t-45 -195zM884 167q169 3 259.5 99.5t90.5 274.5q0 74 -20.5 133t-53.5 100.5t-74 63.5t-81 22q-55 0 -88 -35.5t-33 -124.5v-533z
" />
    <glyph glyph-name="_375" horiz-adv-x="1546" 
d="M889 1446v-404q132 -2 241 -39t187 -105.5t121.5 -165.5t43.5 -217q0 -121 -43.5 -218.5t-121.5 -166t-187 -106.5t-241 -39v-320h-232v320q-132 1 -241 39t-187 106.5t-121 166t-43 218.5q0 120 43 217t121 165.5t187 105.5t241 39v404h232zM1235 513q0 81 -23.5 145
t-68.5 108.5t-109 68t-145 25.5v-693q81 1 145 24.5t109 68t68.5 108.5t23.5 145zM312 513q0 -81 23.5 -145t68 -108.5t108.5 -68t145 -24.5v693q-81 -2 -145 -25.5t-108.5 -68t-68 -108.5t-23.5 -145z" />
    <glyph glyph-name="chi" unicode="&#x3c7;" horiz-adv-x="986" 
d="M463 189q-4 -32 -11 -62t-15 -53l-171 -361q-7 -19 -23.5 -32.5t-45.5 -13.5h-178l334 717l-161 372q-14 30 -28 50t-31.5 31.5t-40.5 16.5t-56 5h-38v90q0 19 1 35.5t9 29t28 19.5t59 7q55 0 101 -10t83.5 -32.5t67 -59.5t52.5 -90l144 -332q5 32 11.5 61t14.5 52
l162 352q7 19 23.5 32.5t45.5 13.5h178l-327 -701l174 -400q11 -24 23 -42.5t28 -31t37 -18.5t50 -6h39v-98q0 -26 -4.5 -42t-15 -25t-29 -12.5t-45.5 -3.5q-48 0 -91 8t-80.5 31t-69.5 63.5t-59 106.5z" />
    <glyph glyph-name="psi" unicode="&#x3c8;" horiz-adv-x="1580" 
d="M915 1446v-1263q75 8 135 30.5t102 65t64.5 107.5t22.5 160q0 78 -7 134t-16 100t-17.5 83t-11.5 83q0 22 5.5 37.5t15.5 25t22.5 13.5t24.5 4h178q12 -63 22 -122.5t16.5 -117.5t10.5 -117.5t4 -122.5q0 -148 -45 -250t-122.5 -166.5t-181.5 -97t-222 -42.5v-325h-247
v323q-146 11 -252 50.5t-174.5 105t-101.5 155t-33 200.5v527h171q15 0 29 -9t24.5 -23t16.5 -30t6 -31v-434q0 -139 82 -216t232 -98v1261h247z" />
    <glyph glyph-name="omega" unicode="&#x3c9;" horiz-adv-x="1586" 
d="M514 177q42 0 71 20t48 56t27.5 86t8.5 109v243h247v-243h1q0 -59 8.5 -109t27.5 -86t48 -56t71 -20q33 0 67.5 14.5t63 53.5t46.5 106.5t18 173.5q0 58 -15 120.5t-34.5 118t-38.5 97.5t-28 58q-12 30 -9.5 50t13 33t26 18.5t27.5 5.5h178q57 -115 93 -244.5t36 -256.5
q0 -118 -29 -217t-82.5 -171t-130 -112.5t-170.5 -40.5q-58 0 -106 13t-86 35.5t-67.5 53.5t-51.5 68q-23 -37 -53 -68t-68 -53.5t-85 -35.5t-103 -13q-94 0 -170 40.5t-129.5 112.5t-82.5 171t-29 217q0 127 35.5 256.5t93.5 244.5h177q13 0 28 -5.5t26 -18.5t13.5 -33
t-9.5 -50q-9 -16 -28.5 -58t-39 -97.5t-34.5 -118t-15 -120.5q0 -106 18 -173.5t46.5 -106.5t63 -53.5t67.5 -14.5z" />
    <glyph glyph-name="tonos" unicode="&#x384;" 
d="M326 1144l57 367h152q35 0 47 -21.5t0 -57.5l-113 -288h-143z" />
    <glyph glyph-name="dieresistonos" unicode="&#x385;" 
d="M323 1151l57 368h152q35 0 47 -21.5t0 -58.5l-113 -288h-143zM826 1295q0 -23 -9 -42.5t-24.5 -34.5t-36 -23.5t-43.5 -8.5t-43.5 8.5t-35.5 23.5t-24 34.5t-9 42.5q0 24 9 44.5t24 36t35.5 24.5t43.5 9t43.5 -9t36 -24.5t24.5 -36t9 -44.5zM282 1295q0 -23 -9 -42.5
t-25 -34.5t-36.5 -23.5t-44.5 -8.5q-22 0 -42 8.5t-35 23.5t-24 34.5t-9 42.5q0 24 9 44.5t24 36t35 24.5t42 9q24 0 44.5 -9t36.5 -24.5t25 -36t9 -44.5z" />
    <glyph glyph-name="uni0374" unicode="&#x374;" horiz-adv-x="450" 
d="M346 1519q38 -167 -6 -321.5t-170 -286.5l-77 48q-23 14 -25 33.5t9 33.5q28 39 50.5 75.5t32 73.5t3 76.5t-35.5 84.5v119q0 28 15 46t50 18h154z" />
    <glyph glyph-name="uni0375" unicode="&#x375;" horiz-adv-x="450" 
d="M346 373q38 -167 -6 -321.5t-170 -286.5l-77 48q-23 14 -25 33.5t9 33.5q28 39 50.5 75.5t32 73.5t3 76.5t-35.5 84.5v119q0 28 15 46t50 18h154z" />
    <glyph glyph-name="uni0411" unicode="&#x411;" horiz-adv-x="1259" 
d="M1142 1238h-712v-390h236q141 0 241.5 -31t164 -84.5t93.5 -126t30 -155.5q0 -102 -35.5 -185t-103.5 -142.5t-166.5 -91.5t-224.5 -32h-504v1446h981v-208zM430 638v-428h235q75 0 125.5 16.5t81.5 45.5t44 68t13 84q0 49 -13 89t-44 67.5t-81 42.5t-125 15h-236z" />
    <glyph glyph-name="uni0413" unicode="&#x413;" horiz-adv-x="1083" 
d="M1053 1239h-622v-1239h-270v1446h892v-207z" />
    <glyph glyph-name="uni0490" unicode="&#x490;" horiz-adv-x="1083" 
d="M1053 1239h-622v-1239h-270v1446h684v321h208v-528z" />
    <glyph glyph-name="uni0414" unicode="&#x414;" horiz-adv-x="1616" 
d="M1345 1446v-1239h225v-474q0 -35 -23.5 -56t-61.5 -21h-162v344h-1062v-267q0 -35 -23.5 -56t-61.5 -21h-162v551h157q28 15 56 48t54 93t49.5 151.5t42.5 224t32.5 311t20.5 411.5h919zM680 1239q-12 -213 -32.5 -378t-47.5 -290t-60.5 -214t-71.5 -150h607v1032h-395z
" />
    <glyph glyph-name="uni0416" unicode="&#x416;" horiz-adv-x="2136" 
d="M255 1446q41 0 75.5 -20t55.5 -56l296 -458q27 -44 59 -58t73 -14h127v606h253v-606h128q41 0 72.5 14t59.5 58l295 458q21 36 55.5 56t76.5 20h212l-373 -558q-29 -46 -60.5 -76.5t-75.5 -47.5q53 -18 95 -54t77 -97l377 -613h-179q-59 0 -100.5 25.5t-66.5 67.5
l-296 463q-27 44 -60 62t-84 18h-153v-636h-253v636h-153q-50 0 -83.5 -18t-59.5 -62l-296 -463q-25 -42 -67 -67.5t-100 -25.5h-180l378 613q35 61 76.5 97t94.5 54q-45 17 -76 47.5t-60 76.5l-373 558h213z" />
    <glyph glyph-name="uni0417" unicode="&#x417;" horiz-adv-x="1163" 
d="M1043 1083q0 -102 -47 -185t-140 -134q50 -24 91.5 -56.5t71 -72t46 -85.5t16.5 -97q0 -98 -36.5 -183t-106 -148t-170.5 -99.5t-231 -36.5q-76 0 -148.5 13.5t-138.5 38.5t-124 60t-103 78l79 129q11 14 26.5 23.5t34.5 9.5q26 0 57 -20.5t75 -45.5t104.5 -45.5
t145.5 -20.5q135 0 209 58t74 178q0 49 -20 88t-57 66t-89.5 41.5t-116.5 14.5h-204l-1 216h186q125 0 195.5 49.5t70.5 143.5q0 83 -66.5 132.5t-192.5 49.5q-73 0 -125.5 -16t-91 -34.5t-65 -34.5t-47.5 -16q-20 0 -34 10t-26 30l-66 128q84 72 199.5 112t256.5 40
q117 0 211.5 -28t160.5 -78.5t101.5 -120t35.5 -152.5z" />
    <glyph glyph-name="uni0418" unicode="&#x418;" horiz-adv-x="1541" 
d="M1059 1363q9 15 21.5 30t27.5 26.5t32.5 19t37.5 7.5h202v-1446h-270v906q0 51 2.5 106.5t10.5 118.5q-20 -55 -43 -102.5t-45 -83.5l-553 -862q-9 -15 -21.5 -30t-27.5 -26.5t-33 -19t-37 -7.5h-202v1446h270v-906q0 -51 -3 -108t-11 -120q20 56 43.5 104t46.5 85z" />
    <glyph glyph-name="uni041A" unicode="&#x41a;" horiz-adv-x="1392" 
d="M430 840h136q41 0 71 14t56 52l317 468q20 32 47 52t65 20h230l-393 -580q-25 -38 -58.5 -63t-72.5 -39q60 -17 101.5 -53.5t79.5 -100.5l379 -610h-244q-38 0 -63.5 20t-47.5 59l-308 486q-12 21 -25.5 34.5t-29 22t-35 11.5t-44.5 3h-161v-636h-269v1446h269v-606z" />
    <glyph glyph-name="uni041B" unicode="&#x41b;" horiz-adv-x="1488" 
d="M1327 1446v-1446h-271v1239h-395q-14 -272 -39.5 -470.5t-61.5 -338t-81 -226.5t-99 -135.5t-116 -66t-130 -17.5q-72 0 -105 13t-33 38v168h77q26 0 52.5 6t53 25.5t52 56.5t49 99.5t44 153.5t37 219t29 296.5t18.5 385.5h919z" />
    <glyph glyph-name="uni0409" unicode="&#x409;" horiz-adv-x="2133" 
d="M1327 1446v-598h235q141 0 241.5 -31t164.5 -84.5t93.5 -126t29.5 -155.5q0 -102 -35.5 -185t-103 -142.5t-166 -91.5t-224.5 -32h-506v1239h-395q-14 -272 -39.5 -470.5t-61.5 -338t-81 -226.5t-99 -135.5t-116 -66t-130 -17.5q-72 0 -105 13t-33 38v168h77q26 0 52.5 6
t53 25.5t52 56.5t49 99.5t44 153.5t37 219t29 296.5t18.5 385.5h919zM1327 638v-428h235q75 0 125.5 16.5t81 45.5t44 68t13.5 84q0 49 -13 89t-44 67.5t-81.5 42.5t-125.5 15h-235z" />
    <glyph glyph-name="uni040A" unicode="&#x40a;" horiz-adv-x="2187" 
d="M1380 848h236q141 0 241.5 -31t164 -84.5t93.5 -126t30 -155.5q0 -102 -35.5 -185t-103.5 -142.5t-166.5 -91.5t-224.5 -32h-505v632h-679v-632h-270v1446h270v-622h679v622h270v-598zM1380 638v-428h235q75 0 125.5 16.5t81.5 45.5t44 68t13 84q0 49 -13 89t-43.5 67.5
t-81 42.5t-125.5 15h-236z" />
    <glyph glyph-name="uni0472" unicode="&#x472;" horiz-adv-x="1616" 
d="M1540 723q0 -159 -52.5 -294.5t-148.5 -234.5t-231 -154.5t-300 -55.5q-164 0 -299 55.5t-231.5 154.5t-149.5 234.5t-53 294.5t53 294.5t149.5 234.5t231.5 154.5t299 55.5q110 0 207 -25.5t178 -72t145.5 -113t109.5 -148.5t68.5 -178t23.5 -202zM808 214
q95 0 173.5 28.5t136.5 82.5t94.5 132t47.5 177h-905q11 -99 47.5 -177t94.5 -132t136.5 -82.5t174.5 -28.5zM808 1233q-93 0 -170 -27t-134.5 -78.5t-95 -125.5t-51.5 -168h900q-14 94 -51 168t-94.5 125.5t-134 78.5t-169.5 27z" />
    <glyph glyph-name="uni041F" unicode="&#x41f;" horiz-adv-x="1491" 
d="M1330 0h-271v1239h-628v-1239h-270v1446h1169v-1446z" />
    <glyph glyph-name="uni0423" unicode="&#x423;" horiz-adv-x="1289" 
d="M336 204q22 0 45 4t45.5 16t43.5 34t39 58l57 115l-580 1015h252q35 0 56 -17t35 -43l281 -530q46 -85 73 -175q13 45 30 88t38 87l245 530q11 22 33 41t56 19h223l-584 -1245q-31 -65 -66 -107t-75.5 -66t-87 -33.5t-99.5 -9.5q-72 0 -105 13t-33 38v168h78v0z" />
    <glyph glyph-name="uni0474" unicode="&#x474;" horiz-adv-x="1426" 
d="M-15 1446h216q35 0 57 -17t33 -44l341 -882q17 -43 32.5 -94.5t29.5 -108.5q23 115 57 203l240 732q36 112 109.5 166.5t194.5 54.5q35 0 57.5 -3t35 -9t17.5 -16t5 -23v-167h-55q-90 0 -128 -104l-415 -1134h-243z" />
    <glyph glyph-name="uni0424" unicode="&#x424;" horiz-adv-x="1609" 
d="M932 1337q134 -4 247 -51t195 -125.5t128 -182.5t46 -222q0 -119 -46 -223.5t-128 -183.5t-195 -126t-247 -51v-172h-255v172q-134 4 -247 51.5t-195 126t-128 183t-46 223.5q0 118 46 222t128 182.5t195 125.5t247 51v170h255v-170zM1280 756q0 76 -25.5 143.5
t-71.5 118t-110 80.5t-141 32v-750q77 2 141 32t110 80.5t71.5 118t25.5 145.5zM330 756q0 -78 25 -145.5t71 -118t109.5 -80.5t141.5 -32v750q-78 -2 -141.5 -32t-109.5 -80.5t-71 -118t-25 -143.5z" />
    <glyph glyph-name="uni0426" unicode="&#x426;" horiz-adv-x="1589" 
d="M161 0v1446h270v-1239h628v1239h271v-1239h207v-474q0 -35 -23.5 -56t-61.5 -21h-162v344h-1129z" />
    </font>
</defs>
</svg>
